Harold Melvin & The Blue Notes - I Miss You (1972) [2010 BBR]

Posted By: JET 1
Harold Melvin & The Blue Notes - I Miss You (1972) [2010 BBR]

Harold Melvin & The Blue Notes - I Miss You (1972) [2010 BBR]
EAC Rip | FLAC (Tracks) +CUE, LOG | 360 MB | Covers Included
Genre: Soul | Label: Cherry Red / BBR | Catalog Number: CDBBR0018

‘I Miss You‘ was Harold Melvin & The Blue Notes debut Philadelphia International album, released in 1972. The album features the lead vocals of Teddy Pendergrass and the classic Philly production of Kenny Gamble & Leon Huff. Featured are the hits I Miss You, Yesterday I Had The Blues and the ultimate Philly Soul ballad If You Don’t Know Me By Now BBR introduce the first ever CD edition of this album to feature the original artwork and title. Liner notes include a detailed interview about the sessions with Bobby Eli. Features four bonus tracks including a live version of If You Don’t Know Me By Now.

Exact Audio Copy V1.0 beta 1 from 15. November 2010

EAC extraction logfile from 26. December 2010, 22:17

Harold Melvin & The Blue Notes / I Miss You

Used drive : PHILIPS DVDR1628P1 Adapter: 4 ID: 0

Read mode : Secure
Utilize accurate stream : Yes
Defeat audio cache : Yes
Make use of C2 pointers : No

Read offset correction : 618
Overread into Lead-In and Lead-Out : No
Fill up missing offset samples with silence : Yes
Delete leading and trailing silent blocks : No
Null samples used in CRC calculations : Yes
Used interface : Installed external ASPI interface
Gap handling : Appended to previous track

Used output format : User Defined Encoder
Selected bitrate : 256 kBit/s
Quality : High
Add ID3 tag : No
Command line compressor : C:\Program Files\FLAC\flac.exe
Additional command line options : -8 -V -T "ARTIST=%a" -T "TITLE=%t" -T "ALBUM=%g" -T "DATE=%y" -T "TRACKNUMBER=%n" -T "TOTALTRACKS=%x" -T "GENRE=%m" -T "ALBUMARTIST=%v" -T "ALBUM ARTIST=%v" -T "COMMENT=EAC Secure Mode, Test & Copy, AccurateRip, FLAC -8" %s


TOC of the extracted CD

Track | Start | Length | Start sector | End sector
––––––––––––––––––––––––––––-
1 | 0:00.00 | 8:38.64 | 0 | 38913
2 | 8:38.64 | 3:41.16 | 38914 | 55504
3 | 12:20.05 | 7:33.70 | 55505 | 89549
4 | 19:54.00 | 3:27.49 | 89550 | 105123
5 | 23:21.49 | 7:31.15 | 105124 | 138963
6 | 30:52.64 | 2:40.37 | 138964 | 151000
7 | 33:33.26 | 3:33.23 | 151001 | 166998
8 | 37:06.49 | 3:20.60 | 166999 | 182058
9 | 40:27.34 | 3:54.25 | 182059 | 199633
10 | 44:21.59 | 3:24.68 | 199634 | 215001
11 | 47:46.52 | 4:08.06 | 215002 | 233607


Track 1

Filename C:\addis gugsa killed my hdd\01 - I Miss You.wav

Pre-gap length 0:00:02.00

Peak level 78.5 %
Extraction speed 1.5 X
Track quality 100.0 %
Test CRC B926DCB2
Copy CRC B926DCB2
Track not present in AccurateRip database
Copy OK

Track 2

Filename C:\addis gugsa killed my hdd\02 - Ebony Woman.wav

Pre-gap length 0:00:02.00

Peak level 84.2 %
Extraction speed 1.6 X
Track quality 100.0 %
Test CRC 8C99BC26
Copy CRC 8C99BC26
Track not present in AccurateRip database
Copy OK

Track 3

Filename C:\addis gugsa killed my hdd\03 - Yesterday I Had The Blues.wav

Pre-gap length 0:00:02.00

Peak level 87.4 %
Extraction speed 1.7 X
Track quality 99.9 %
Test CRC DF3A5069
Copy CRC DF3A5069
Track not present in AccurateRip database
Copy OK

Track 4

Filename C:\addis gugsa killed my hdd\04 - If You Don't Know Me By Now.wav

Pre-gap length 0:00:02.00

Peak level 86.1 %
Extraction speed 1.9 X
Track quality 100.0 %
Test CRC 7603A835
Copy CRC 7603A835
Track not present in AccurateRip database
Copy OK

Track 5

Filename C:\addis gugsa killed my hdd\05 - Be For Real.wav

Pre-gap length 0:00:02.00

Peak level 94.1 %
Extraction speed 2.2 X
Track quality 100.0 %
Test CRC CCA8D96D
Copy CRC CCA8D96D
Track not present in AccurateRip database
Copy OK

Track 6

Filename C:\addis gugsa killed my hdd\06 - Let Me Into Your World.wav

Pre-gap length 0:00:02.00

Peak level 88.0 %
Extraction speed 2.0 X
Track quality 100.0 %
Test CRC E19EBABC
Copy CRC E19EBABC
Track not present in AccurateRip database
Copy OK

Track 7

Filename C:\addis gugsa killed my hdd\07 - Let It Be You.wav

Pre-gap length 0:00:02.00

Peak level 80.4 %
Extraction speed 2.2 X
Track quality 100.0 %
Test CRC 3B9434DC
Copy CRC 3B9434DC
Track not present in AccurateRip database
Copy OK

Track 8

Filename C:\addis gugsa killed my hdd\08 - I Miss You (Part I - Single Version).wav

Pre-gap length 0:00:02.00

Peak level 77.3 %
Extraction speed 2.3 X
Track quality 100.0 %
Test CRC A93DDBCE
Copy CRC A93DDBCE
Track not present in AccurateRip database
Copy OK

Track 9

Filename C:\addis gugsa killed my hdd\09 - Yesterday I Had The Blues (Single Version).wav

Pre-gap length 0:00:02.00

Peak level 86.9 %
Extraction speed 2.4 X
Track quality 100.0 %
Test CRC 2DE14EEA
Copy CRC 2DE14EEA
Track not present in AccurateRip database
Copy OK

Track 10

Filename C:\addis gugsa killed my hdd\10 - Be For Real (Single Version).wav

Pre-gap length 0:00:02.00

Peak level 85.8 %
Extraction speed 2.4 X
Track quality 100.0 %
Test CRC EBEA77AB
Copy CRC EBEA77AB
Track not present in AccurateRip database
Copy OK

Track 11

Filename C:\addis gugsa killed my hdd\11 - If You Don't Know Me By Now (Live In San Francisco).wav

Pre-gap length 0:00:02.00

Peak level 80.0 %
Extraction speed 2.2 X
Track quality 99.9 %
Test CRC BD1433B0
Copy CRC BD1433B0
Track not present in AccurateRip database
Copy OK


None of the tracks are present in the AccurateRip database

No errors occurred

End of status report

==== Log checksum AFC54D9CBC2BCC8FD02E5D0CE44B39B1F39D823A36B1B9DF576F9A6D9A4141D7 ====


Tracklist:
01 Miss You 8:38
02 Ebony Woman 3:41
03 Yesterday I Had the Blues 7:33
04 If You Don't Know Me By Now 3:27
05 Be For Real 7:31
06 Let Me Into Your World 2:40
07 Let It Be You 3:33
08 I Miss You, Pt. 1 Bonus Track / Single Version / Version 3:20
09 Yesterday I Had the Blues Bonus Track / Single Version / Version 3:54
10 Be For Real Bonus Track / Single Version / Version 3:24
11 If You Don't Know Me By Now Live / Bonus Track 4:08