Subcategories

Harold Melvin & The Blue Notes - Black & Blue (1973) [2010 BBR]

Posted By: JET 1
Harold Melvin & The Blue Notes - Black & Blue (1973) [2010 BBR]

Harold Melvin & The Blue Notes - Black & Blue (1973) [2010 BBR]
EAC Rip | FLAC (Tracks) +CUE, LOG | 337 MB | Covers Included
Genre: Soul | Label: Cherry Red / BBR | Catalog Number: CDBBR0013

Black & Blue was Harold Melvin & The Blue Notes second Philadelphia International album, released in 1973. The album features the lead vocals of Teddy Pendergrass and the classic Philly production of Kenny Gamble & Leon Huff.

Exact Audio Copy V1.0 beta 1 from 15. November 2010

EAC extraction logfile from 26. December 2010, 23:28

Harold Melvin & The Blue Notes / Black & Blue

Used drive : PHILIPS DVDR1628P1 Adapter: 4 ID: 0

Read mode : Secure
Utilize accurate stream : Yes
Defeat audio cache : Yes
Make use of C2 pointers : No

Read offset correction : 618
Overread into Lead-In and Lead-Out : No
Fill up missing offset samples with silence : Yes
Delete leading and trailing silent blocks : No
Null samples used in CRC calculations : Yes
Used interface : Installed external ASPI interface
Gap handling : Appended to previous track

Used output format : User Defined Encoder
Selected bitrate : 256 kBit/s
Quality : High
Add ID3 tag : No
Command line compressor : C:\Program Files\FLAC\flac.exe
Additional command line options : -8 -V -T "ARTIST=%a" -T "TITLE=%t" -T "ALBUM=%g" -T "DATE=%y" -T "TRACKNUMBER=%n" -T "TOTALTRACKS=%x" -T "GENRE=%m" -T "ALBUMARTIST=%v" -T "ALBUM ARTIST=%v" -T "COMMENT=EAC Secure Mode, Test & Copy, AccurateRip, FLAC -8" %s


TOC of the extracted CD

Track | Start | Length | Start sector | End sector
––––––––––––––––––––––––––––-
1 | 0:00.00 | 1:45.21 | 0 | 7895
2 | 1:45.21 | 6:26.46 | 7896 | 36891
3 | 8:11.67 | 4:52.46 | 36892 | 58837
4 | 13:04.38 | 3:13.24 | 58838 | 73336
5 | 16:17.62 | 3:32.14 | 73337 | 89250
6 | 19:50.01 | 7:00.45 | 89251 | 120795
7 | 26:50.46 | 6:54.08 | 120796 | 151853
8 | 33:44.54 | 6:16.08 | 151854 | 180061
9 | 40:00.62 | 3:35.64 | 180062 | 196250
10 | 43:36.51 | 3:23.66 | 196251 | 211541


Track 1

Filename C:\addis gugsa killed my hdd\01 - Cabaret.wav

Pre-gap length 0:00:02.00

Peak level 100.0 %
Extraction speed 1.0 X
Track quality 100.0 %
Test CRC 3506AFD3
Copy CRC 3506AFD3
Track not present in AccurateRip database
Copy OK

Track 2

Filename C:\addis gugsa killed my hdd\02 - The Love I Lost.wav

Pre-gap length 0:00:02.00

Peak level 100.0 %
Extraction speed 1.5 X
Track quality 100.0 %
Test CRC A28CBA90
Copy CRC A28CBA90
Track not present in AccurateRip database
Copy OK

Track 3

Filename C:\addis gugsa killed my hdd\03 - It All Depends On You.wav

Pre-gap length 0:00:02.00

Peak level 100.0 %
Extraction speed 1.7 X
Track quality 100.0 %
Test CRC 875BD305
Copy CRC 875BD305
Track not present in AccurateRip database
Copy OK

Track 4

Filename C:\addis gugsa killed my hdd\04 - Concentrate On Me.wav

Pre-gap length 0:00:02.00

Peak level 100.0 %
Extraction speed 1.7 X
Track quality 100.0 %
Test CRC 1F62D59B
Copy CRC 1F62D59B
Track not present in AccurateRip database
Copy OK

Track 5

Filename C:\addis gugsa killed my hdd\05 - Satisfaction Guarenteed (Or Take Your Love Back).wav

Pre-gap length 0:00:02.00

Peak level 100.0 %
Extraction speed 1.6 X
Track quality 99.9 %
Test CRC 1CFCF502
Copy CRC 1CFCF502
Track not present in AccurateRip database
Copy OK

Track 6

Filename C:\addis gugsa killed my hdd\06 - Is There A Place For Me.wav

Pre-gap length 0:00:02.00

Peak level 100.0 %
Extraction speed 2.1 X
Track quality 100.0 %
Test CRC 29C17F18
Copy CRC 29C17F18
Track not present in AccurateRip database
Copy OK

Track 7

Filename C:\addis gugsa killed my hdd\07 - I'm Weak For You.wav

Pre-gap length 0:00:02.00

Peak level 100.0 %
Extraction speed 2.3 X
Track quality 100.0 %
Test CRC 7282D749
Copy CRC 7282D749
Track not present in AccurateRip database
Copy OK

Track 8

Filename C:\addis gugsa killed my hdd\08 - I'm Coming Home Tomorrow.wav

Pre-gap length 0:00:02.00

Peak level 100.0 %
Extraction speed 2.4 X
Track quality 100.0 %
Test CRC 35B781E5
Copy CRC 35B781E5
Track not present in AccurateRip database
Copy OK

Track 9

Filename C:\addis gugsa killed my hdd\09 - The Love I Lost (Part I - Single Version).wav

Pre-gap length 0:00:02.00

Peak level 100.0 %
Extraction speed 2.0 X
Track quality 99.9 %
Test CRC 2868A2B5
Copy CRC 2868A2B5
Track not present in AccurateRip database
Copy OK

Track 10

Filename C:\addis gugsa killed my hdd\10 - I'm Weak For You (Part I - Single Version).wav

Pre-gap length 0:00:02.00

Peak level 100.0 %
Extraction speed 2.1 X
Track quality 99.9 %
Test CRC DE3B12C2
Copy CRC DE3B12C2
Track not present in AccurateRip database
Copy OK


None of the tracks are present in the AccurateRip database

No errors occurred

End of status report

==== Log checksum FAEFA91CA38BD7C02B3D014D72A921D984B8631E58EA9FCEF29E23A874650475 ====


Tracklist:
01 Cabaret 1:45
02 The Lost I Love 6:26
03 It All Depends On You 4:52
04 Concentrate On Me 3:13
05 Satisfaction Guaranteed (Or Take Your Love Back) 3:32
06 Is There A Place For Me 7:00
07 I'm Weak For You 6:54
08 I'm Coming Home Tomorrow 6:16
09 The Love I Lost, Pt. 1 ( Single Version ) 3:35
10 I'm Weak For You, Pt. 1 ( Single Version ) 3:23