Subcategories

Harold Mabern - Afro Blue (2015)

Posted By: popsakov
Harold Mabern - Afro Blue (2015)

Harold Mabern - Afro Blue (2015)
EAC Rip | FLAC (Img) + Cue + Log ~ 506 Mb | MP3 CBR320 ~ 198 Mb
Scans Included (JPG, 600 dpi) | RAR 5% Recovery
Bop, Piano Jazz | Smoke Sessions Records #SSR-1503

Harold Mabern's second release on Smoke Sessions Records, Afro Blue, is a very special recording featuring guest vocalists Gregory Porter, Norah Jones, Jane Monheit, Kurt Elling, and Alexis Cole. The chemistry of these artists with Harold the sound of his piano voicings combined with their voices is extraordinary.

Well-known in jazz circles as a consummate accompanist for instrumental soloists, The Mabe also has a special gift for sensitive and supportive playing behind singers. It's something he takes pride in and has been doing since he first hit the stage at Birdland half a century ago with Betty Carter. 'I love vocalists. I love to play for singers because that's really how you learn how to play the piano jazz-wise. They go through every aspect of music changing keys, slow tempos to fast, playing rubato, playing verses, all of the Great American Songbook that's really how you learn how to play,' says Mabern. There is a lot of music and there are a lot of memorable performances on Afro Blue but Mabern's soulful, blues-driven style is the constant highlight. He is joined by a stellar supporting cast Jeremy Pelt, Eric Alexander and Steve Turre form a killer horn section while John Webber and Joe Farnsworth complete his reliable rhythm team. Guitarist Peter Bernstein also makes a special appearance on Steely Dan's 'Do It Again.' Mabern adds, I'll tell you, it was really the most difficult thing I've ever done. It was definitely a challenge, but I think we pulled it off. I'm quite pleased with it, you know.'
~ Amazon

One of several excellent hard bop pianists from the Memphis area, Harold Mabern has led relatively few dates through the years, but he has always been respected by his contemporaries. He played in Chicago with MJT + 3 in the late '50s and then moved to New York in 1959. Mabern worked with Jimmy Forrest, Lionel Hampton, the Jazztet (1961-1962), Donald Byrd, Miles Davis (1963), J.J. Johnson (1963-1965), Sonny Rollins, Freddie Hubbard, Wes Montgomery, Joe Williams (1966-1967), and Sarah Vaughan. During 1968-1970, Mabern led four albums for Prestige, he was with Lee Morgan in the early '70s, and in 1972, he recorded with Stanley Cowell's Piano Choir. Harold Mabern has recorded as a leader for DIW/Columbia and Sackville and toured with the Contemporary Piano Ensemble (1993-1995).
~ Scott Yanow, All Music Guide

***************

Harold Mabern - Afro Blue (2015)

Track List:

01. The Chief [0:05:07.17]
02. Afro Blue [0:05:25.12]
03. The Man from Hyde Park [0:05:51.44]
04. Fools Rush In [0:04:35.69]
05. Don't Misunderstand [0:04:22.54]
06. I'll Take Romance [0:03:49.45]
07. My One and Only Love [0:05:38.21]
08. Billie's Bounce [0:04:23.60]
09. Portrait of Jennie [0:05:38.58]
10. You Needed Me [0:04:01.39]
11. Such Is Life [0:05:07.37]
12. Do It Again [0:05:18.39]
13. Mozzin' [0:05:50.20]
14. Bobby, Benny, Jymie, Lee, Bu [0:04:28.70]

Exact Audio Copy V1.0 beta 4 from 7. December 2014

Отчёт EAC об извлечении, выполненном 2. июня 2015, 22:41

Harold Mabern / Afro Blue

Дисковод: PLEXTOR DVDR PX-891SA Adapter: 1 ID: 3

Режим чтения : Достоверность
Использование точного потока : Да
Отключение кэша аудио : Да
Использование указателей C2 : Нет

Коррекция смещения при чтении : 6
Способность читать области Lead-in и Lead-out : Нет
Заполнение пропущенных сэмплов тишиной : Да
Удаление блоков с тишиной в начале и конце : Нет
При вычислениях CRC использовались нулевые сэмплы : Да
Интерфейс : Встроенный Win32-интерфейс для Win NT/2000

Выходной формат : Пользовательский кодировщик
Выбранный битрейт : 768 kBit/s
Качество : Высокий
Добавление ID3-тега : Нет
Утилита сжатия : C:\Program Files\Exact Audio Copy\FLAC\FLAC.EXE
Дополнительные параметры : -6 -V -T "ARTIST=%artist%" -T "TITLE=%title%" -T "ALBUM=%albumtitle%" -T "DATE=%year%" -T "TRACKNUMBER=%tracknr%" -T "GENRE=%genre%" -T "COMMENT=%comment%" -T "BAND=%albuminterpret%" -T "ALBUMARTIST=%albuminterpret%" -T "COMPOSER=%composer%" %haslyrics%–tag-from-file=LYRICS="%lyricsfile%"%haslyrics% -T "DISCNUMBER=%cdnumber%" -T "TOTALDISCS=%totalcds%" -T "TOTALTRACKS=%numtracks%" %hascover%–picture="%coverfile%"%hascover% %source% -o %dest%


TOC извлечённого CD

Трек | Старт | Длительность | Начальный сектор | Конечный сектор
––––––––––––––––––––––––––––––––––-
1 | 0:00.00 | 5:07.17 | 0 | 23041
2 | 5:07.17 | 5:25.12 | 23042 | 47428
3 | 10:32.29 | 5:51.44 | 47429 | 73797
4 | 16:23.73 | 4:35.69 | 73798 | 94491
5 | 20:59.67 | 4:22.54 | 94492 | 114195
6 | 25:22.46 | 3:49.45 | 114196 | 131415
7 | 29:12.16 | 5:38.21 | 131416 | 156786
8 | 34:50.37 | 4:23.60 | 156787 | 176571
9 | 39:14.22 | 5:38.58 | 176572 | 201979
10 | 44:53.05 | 4:01.39 | 201980 | 220093
11 | 48:54.44 | 5:07.37 | 220094 | 243155
12 | 54:02.06 | 5:18.39 | 243156 | 267044
13 | 59:20.45 | 5:50.20 | 267045 | 293314
14 | 65:10.65 | 4:28.70 | 293315 | 313484


Характеристики диапазона извлечения и сообщения об ошибках

Выбранный диапазон

Имя файла C:\Users\Евгений\Desktop\Harold Mabern - Afro Blue - 2015 - 69'41''\Harold Mabern - Afro Blue.wav

Пиковый уровень 100.0 %
Скорость извлечения 7.0 X
Качество диапазона 99.9 %
CRC теста 3005FFE5
CRC копии 3005FFE5
Копирование… OK

Ошибок не произошло

Конец отчёта

–– CUETools DB Plugin V2.1.4

[CTDB TOCID: Qg3NSnhDcHg6DuSabDqz9ePH8bE-] found
Submit result: Qg3NSnhDcHg6DuSabDqz9ePH8bE- has been confirmed
Track | CTDB Status
1 | (2/2) Accurately ripped
2 | (2/2) Accurately ripped
3 | (2/2) Accurately ripped
4 | (2/2) Accurately ripped
5 | (2/2) Accurately ripped
6 | (2/2) Accurately ripped
7 | (2/2) Accurately ripped
8 | (2/2) Accurately ripped
9 | (2/2) Accurately ripped
10 | (2/2) Accurately ripped
11 | (2/2) Accurately ripped
12 | (2/2) Accurately ripped
13 | (2/2) Accurately ripped
14 | (2/2) Accurately ripped


==== Контрольная сумма отчёта DE5096E7D07A4947D408D07CD3B3F85CD8A94026F6D4C68158C04998C23598A7 ====

foobar2000 1.2.6 / Dynamic Range Meter 1.1.1
log date: 2015-06-26 07:34:23

––––––––––––––––––––––––––––––––––––––––
Analyzed: Harold Mabern / Afro Blue
––––––––––––––––––––––––––––––––––––––––

DR Peak RMS Duration Track
––––––––––––––––––––––––––––––––––––––––
DR10 0.00 dB -11.68 dB 5:07 01-The Chief
DR8 0.00 dB -10.28 dB 5:25 02-Afro Blue
DR10 0.00 dB -11.49 dB 5:52 03-The Man from Hyde Park
DR9 0.00 dB -11.02 dB 4:36 04-Fools Rush In
DR11 0.00 dB -13.67 dB 4:23 05-Don't Misunderstand
DR8 0.00 dB -10.25 dB 3:50 06-I'll Take Romance
DR9 0.00 dB -11.70 dB 5:38 07-My One and Only Love
DR9 0.00 dB -10.73 dB 4:24 08-Billie's Bounce
DR10 0.00 dB -12.36 dB 5:39 09-Portrait of Jennie
DR9 0.00 dB -12.01 dB 4:02 10-You Needed Me
DR8 0.00 dB -10.00 dB 5:07 11-Such Is Life
DR10 0.00 dB -10.84 dB 5:19 12-Do It Again
DR9 0.00 dB -11.43 dB 5:50 13-Mozzin'
DR10 0.00 dB -11.49 dB 4:29 14-Bobby, Benny, Jymie, Lee, Bu
––––––––––––––––––––––––––––––––––––––––

Number of tracks: 14
Official DR value: DR9

Samplerate: 44100 Hz
Channels: 2
Bits per sample: 16
Bitrate: 908 kbps
Codec: FLAC
================================================================================

[CUETools log; Date: 26.06.2015 7:34:32; Version: 2.1.5]
[CTDB TOCID: Qg3NSnhDcHg6DuSabDqz9ePH8bE-] found.
Track | CTDB Status
1 | (3/3) Accurately ripped
2 | (3/3) Accurately ripped
3 | (3/3) Accurately ripped
4 | (3/3) Accurately ripped
5 | (3/3) Accurately ripped
6 | (3/3) Accurately ripped
7 | (3/3) Accurately ripped
8 | (3/3) Accurately ripped
9 | (3/3) Accurately ripped
10 | (3/3) Accurately ripped
11 | (3/3) Accurately ripped
12 | (3/3) Accurately ripped
13 | (3/3) Accurately ripped
14 | (3/3) Accurately ripped
[AccurateRip ID: 0023f647-017e224c-cb10530e] found.
Track [ CRC | V2 ] Status
01 [d4b33612|191cbbf1] (0+0/2) No match
02 [5a8f4f58|10a89c8f] (0+0/2) No match
03 [c491a6ad|92a9f03e] (0+0/2) No match
04 [daaa5355|6e4eb2f8] (0+0/2) No match
05 [dab6aaaf|b36ea748] (0+0/2) No match
06 [04ea7e30|ef7f876d] (0+0/2) No match
07 [d8ae46ce|8653f2ef] (0+0/2) No match
08 [7a88c425|63dabfa4] (0+0/2) No match
09 [e7dc3e0f|82cc1ea0] (0+0/2) No match
10 [d39e2e35|c82919b1] (0+0/2) No match
11 [5fa5d1b1|afaf688e] (0+0/2) No match
12 [d6477a64|4f247dee] (0+0/2) No match
13 [fce82eee|aaf2dbd9] (0+0/2) No match
14 [fce106e4|30f0e593] (0+0/2) No match
Offsetted by 6:
01 [adfa3e22] (0/2) No match (V2 was not tested)
02 [cc339c72] (0/2) No match (V2 was not tested)
03 [e11e3a9c] (0/2) No match (V2 was not tested)
04 [b62b42c9] (0/2) No match (V2 was not tested)
05 [a2f4283f] (0/2) No match (V2 was not tested)
06 [47c1e810] (0/2) No match (V2 was not tested)
07 [fbe30f04] (0/2) No match (V2 was not tested)
08 [86d8961e] (0/2) No match (V2 was not tested)
09 [b526f193] (0/2) No match (V2 was not tested)
10 [4ad42297] (0/2) No match (V2 was not tested)
11 [6d93d287] (0/2) No match (V2 was not tested)
12 [3fbe4e0a] (0/2) No match (V2 was not tested)
13 [2e32922e] (0/2) No match (V2 was not tested)
14 [cdf89460] (0/2) No match (V2 was not tested)

Track Peak [ CRC32 ] [W/O NULL] [ LOG ]
– 100,0 [3005FFE5] [477FA6C1] CRC32
01 100,0 [58B22FF5] [5C260766]
02 100,0 [9D3F86C0] [87C25DC6]
03 100,0 [5CF9B707] [1A6F20BA]
04 100,0 [2D8B3EA2] [B57FCB9C]
05 100,0 [F2532582] [E73E11B2]
06 100,0 [D5126510] [10EE324A]
07 100,0 [2BE30FD1] [58892440]
08 100,0 [8D8A9EE2] [CBE06EB9]
09 100,0 [4A7D97D9] [F8360F23]
10 100,0 [F56CE277] [B485D665]
11 100,0 [F7E4A921] [9945F294]
12 100,0 [73460C8B] [C0B2B5E6]
13 100,0 [3532037D] [18164CB8]
14 100,0 [723B2C39] [BAABF46C]

Harold Mabern - Afro Blue (2015)

All thanks go to RedHotBlues

Visit my blog!

Download:
Nitroflare: FLAC-part 1 | FLAC-part 2 | mp3