Subcategories

Gregorian - Masters Of Chant Chapter V (2006) (Japan Edition)

Posted By: uff
Gregorian - Masters Of Chant Chapter V (2006) (Japan Edition)

Gregorian - Masters Of Chant Chapter V (2006) (Japan Edition)
New Age | 1cd | EAC Rip | Flac + Cue + Log | covers
edel TECI-26397 | rel: 2007 | 880Mb

Gregorian is a German band headed by Frank Peterson that performs Gregorian chant-inspired versions of modern pop and rock songs. The band features both vocal harmony and instrumental accompaniment. Originally, Gregorian was conceived as a more pop-oriented group in the vein of Enigma. Under this concept, they recorded the 1991 album Sadisfaction, with lead vocals provided by The Sisters of Oz: Susana Espelleta (Peterson's wife at the time) and Birgit Freud. However, this was the only album in that style.
In 1998, Peterson and his team of Jan-Eric Kohrs, Michael Soltau and Carsten Heusmann re-invented the project to perform popular songs in the Gregorian style. The criteria for song selection were strict; in order to be considered, a song needed to be translatable into the 7-tone scale. For each album, songs were carefully chosen in addition to original songs written by Jan-Eric Kohrs, Amelia Brightman and Carsten Heussman. Twelve vocalists - previously acclaimed session and choir singers - were then hired to record the tracks. Each Gregorian album is initially digitally tracked at Nemo Studios, Peterson's Hamburg studio. The vocalists then record their parts in a church atmosphere with dimmed lights and candles, in order to escape what Peterson referred to in a 2001 interview as the "cold and technical" studio atmosphere. The concept proved to be successful, and the group proceeded to record several more Masters of Chant albums in the same style. ~Wikipedia

Track listing
01. Heroes (5:35)
02. Comfortably Numb (7:55)
03. Send Me An Angel (4:55)
04. Silent Lucidity (6:19)
05. Lady In Black (5:56)
06. The Forest (5:08)
07. A Weakened Soul (5:17)
08. Lucky Man (5:22)
09. Stop Crying Your Heart Out (5:16)
10. We Love You (4:49)
11. Boulevard Of Broken Dreams (5:13)
12. The Unforgiven (7:40)
13. I Feel Free (3:39)
14. Maid Of Orleans (4:20)
~ (77:21)


Exact Audio Copy V1.0 beta 3 from 29. August 2011

EAC extraction logfile from 14. July 2012, 12:41

Gregorian / Masters Of Chant Chapter V

Used drive : PLEXTOR DVDR PX-760A Adapter: 0 ID: 1

Read mode : Secure
Utilize accurate stream : Yes
Defeat audio cache : Yes
Make use of C2 pointers : No

Read offset correction : 30
Overread into Lead-In and Lead-Out : Yes
Fill up missing offset samples with silence : Yes
Delete leading and trailing silent blocks : No
Null samples used in CRC calculations : Yes
Used interface : Native Win32 interface for Win NT & 2000
Gap handling : Appended to previous track

Used output format : User Defined Encoder
Selected bitrate : 1024 kBit/s
Quality : High
Add ID3 tag : No
Command line compressor : C:\Program Files (x86)\Exact Audio Copy\Flac\flac.exe
Additional command line options : -8 -V -T "ARTIST=%artist%" -T "TITLE=%title%" -T "ALBUM=%albumtitle%" -T "DATE=%year%" -T "TRACKNUMBER=%tracknr%" -T "GENRE=%genre%" -T "COMMENT=ripped by DrStandBy" %source%


TOC of the extracted CD

Track | Start | Length | Start sector | End sector
––––––––––––––––––––––––––––-
1 | 0:00.00 | 5:34.58 | 0 | 25107
2 | 5:34.58 | 7:54.57 | 25108 | 60714
3 | 13:29.40 | 4:54.61 | 60715 | 82825
4 | 18:24.26 | 6:18.52 | 82826 | 111227
5 | 24:43.03 | 5:55.39 | 111228 | 137891
6 | 30:38.42 | 5:07.49 | 137892 | 160965
7 | 35:46.16 | 5:16.40 | 160966 | 184705
8 | 41:02.56 | 5:21.50 | 184706 | 208830
9 | 46:24.31 | 5:16.19 | 208831 | 232549
10 | 51:40.50 | 4:48.47 | 232550 | 254196
11 | 56:29.22 | 5:12.62 | 254197 | 277658
12 | 61:42.09 | 7:39.67 | 277659 | 312150
13 | 69:22.01 | 3:38.58 | 312151 | 328558
14 | 73:00.59 | 4:20.01 | 328559 | 348059


Track 1

Filename E:\Gregorian\Japan\2006 - Masters Of Chant Chapter V (TECI-26397)\01. Gregorian - Heroes.wav

Pre-gap length 0:00:02.00

Peak level 98.0 %
Extraction speed 2.2 X
Track quality 100.0 %
Test CRC 9F8B17CA
Copy CRC 9F8B17CA
Accurately ripped (confidence 2) [FE4F3762] (AR v2)
Copy OK

Track 2

Filename E:\Gregorian\Japan\2006 - Masters Of Chant Chapter V (TECI-26397)\02. Gregorian - Comfortably Numb.wav

Peak level 99.9 %
Extraction speed 1.9 X
Track quality 99.9 %
Test CRC 63C0E30E
Copy CRC 63C0E30E
Accurately ripped (confidence 2) [55063184] (AR v2)
Copy OK

Track 3

Filename E:\Gregorian\Japan\2006 - Masters Of Chant Chapter V (TECI-26397)\03. Gregorian - Send Me An Angel.wav

Peak level 97.7 %
Extraction speed 1.6 X
Track quality 99.9 %
Test CRC 1A1FB37A
Copy CRC 1A1FB37A
Accurately ripped (confidence 2) [D12049A0] (AR v2)
Copy OK

Track 4

Filename E:\Gregorian\Japan\2006 - Masters Of Chant Chapter V (TECI-26397)\04. Gregorian - Silent Lucidity.wav

Peak level 99.3 %
Extraction speed 2.3 X
Track quality 100.0 %
Test CRC 8571BE15
Copy CRC 8571BE15
Accurately ripped (confidence 2) [DB6DB4E7] (AR v2)
Copy OK

Track 5

Filename E:\Gregorian\Japan\2006 - Masters Of Chant Chapter V (TECI-26397)\05. Gregorian - Lady In Black.wav

Peak level 97.0 %
Extraction speed 2.2 X
Track quality 100.0 %
Test CRC 7BDA8E7C
Copy CRC 7BDA8E7C
Accurately ripped (confidence 2) [FA5A789F] (AR v2)
Copy OK

Track 6

Filename E:\Gregorian\Japan\2006 - Masters Of Chant Chapter V (TECI-26397)\06. Gregorian - The Forest.wav

Peak level 99.9 %
Extraction speed 2.2 X
Track quality 100.0 %
Test CRC 5142702F
Copy CRC 5142702F
Accurately ripped (confidence 2) [D7D01D5F] (AR v2)
Copy OK

Track 7

Filename E:\Gregorian\Japan\2006 - Masters Of Chant Chapter V (TECI-26397)\07. Gregorian - A Weakened Soul.wav

Peak level 100.0 %
Extraction speed 2.2 X
Track quality 100.0 %
Test CRC 6E301360
Copy CRC 6E301360
Accurately ripped (confidence 2) [3BB54753] (AR v2)
Copy OK

Track 8

Filename E:\Gregorian\Japan\2006 - Masters Of Chant Chapter V (TECI-26397)\08. Gregorian - Lucky Man.wav

Peak level 100.0 %
Extraction speed 1.7 X
Track quality 99.9 %
Test CRC C9D872AF
Copy CRC C9D872AF
Accurately ripped (confidence 2) [FE14309C] (AR v2)
Copy OK

Track 9

Filename E:\Gregorian\Japan\2006 - Masters Of Chant Chapter V (TECI-26397)\09. Gregorian - Stop Crying Your Heart Out.wav

Peak level 98.6 %
Extraction speed 2.2 X
Track quality 100.0 %
Test CRC 7E78F664
Copy CRC 7E78F664
Accurately ripped (confidence 2) [55E235D7] (AR v2)
Copy OK

Track 10

Filename E:\Gregorian\Japan\2006 - Masters Of Chant Chapter V (TECI-26397)\10. Gregorian - We Love You.wav

Peak level 100.0 %
Extraction speed 2.2 X
Track quality 100.0 %
Test CRC 22F6B235
Copy CRC 22F6B235
Accurately ripped (confidence 2) [DA1D4E7D] (AR v2)
Copy OK

Track 11

Filename E:\Gregorian\Japan\2006 - Masters Of Chant Chapter V (TECI-26397)\11. Gregorian - Boulevard Of Broken Dreams.wav

Peak level 99.6 %
Extraction speed 2.2 X
Track quality 100.0 %
Test CRC 54EFF5CF
Copy CRC 54EFF5CF
Accurately ripped (confidence 2) [7075DAD7] (AR v2)
Copy OK

Track 12

Filename E:\Gregorian\Japan\2006 - Masters Of Chant Chapter V (TECI-26397)\12. Gregorian - The Unforgiven.wav

Peak level 99.9 %
Extraction speed 2.3 X
Track quality 100.0 %
Test CRC FBA2A4CA
Copy CRC FBA2A4CA
Accurately ripped (confidence 2) [7614F276] (AR v2)
Copy OK

Track 13

Filename E:\Gregorian\Japan\2006 - Masters Of Chant Chapter V (TECI-26397)\13. Gregorian - I Feel Free.wav

Peak level 99.9 %
Extraction speed 1.5 X
Track quality 99.9 %
Test CRC DF643520
Copy CRC DF643520
Accurately ripped (confidence 2) [B045AF70] (AR v2)
Copy OK

Track 14

Filename E:\Gregorian\Japan\2006 - Masters Of Chant Chapter V (TECI-26397)\14. Gregorian - Maid Of Orleans.wav

Pre-gap length 0:00:02.24

Peak level 100.0 %
Extraction speed 2.4 X
Track quality 100.0 %
Test CRC B52F31D0
Copy CRC B52F31D0
Accurately ripped (confidence 2) [F21E4C56] (AR v2)
Copy OK


All tracks accurately ripped

No errors occurred

End of status report

–– CUETools DB Plugin V2.1.4

[CTDB TOCID: rLwfSXbmYS2hsIrONZIsdiAuP4w-] disk not present in database
Submit result: rLwfSXbmYS2hsIrONZIsdiAuP4w- has been uploaded


==== Log checksum DC921C2895054C950BE348F4BC83E7D686AAED8AAA0E954733E937FA6E7C1280 ====



[CUETools log; Date: 2015.04.28. 8:52:00; Version: 2.1.4]
[CTDB TOCID: rLwfSXbmYS2hsIrONZIsdiAuP4w-] found.
Track | CTDB Status
1 | (4/4) Accurately ripped
2 | (4/4) Accurately ripped
3 | (4/4) Accurately ripped
4 | (4/4) Accurately ripped
5 | (4/4) Accurately ripped
6 | (4/4) Accurately ripped
7 | (4/4) Accurately ripped
8 | (4/4) Accurately ripped
9 | (4/4) Accurately ripped
10 | (4/4) Accurately ripped
11 | (4/4) Accurately ripped
12 | (4/4) Accurately ripped
13 | (4/4) Accurately ripped
14 | (4/4) Accurately ripped
[AccurateRip ID: 00299648-01b6e4af-b912200e] found.
Track [ CRC | V2 ] Status
01 [ec4fcaaf|fe4f3762] (0+4/4) Accurately ripped
02 [91917a94|55063184] (0+4/4) Accurately ripped
03 [74a3cbea|d12049a0] (0+4/4) Accurately ripped
04 [c8bb2fdb|db6db4e7] (0+4/4) Accurately ripped
05 [3faea37e|fa5a789f] (0+4/4) Accurately ripped
06 [91c83742|d7d01d5f] (0+4/4) Accurately ripped
07 [43e8c4cf|3bb54753] (0+4/4) Accurately ripped
08 [6553f514|fe14309c] (0+4/4) Accurately ripped
09 [4789d747|55e235d7] (0+4/4) Accurately ripped
10 [2d64c26b|da1d4e7d] (0+4/4) Accurately ripped
11 [26150076|7075dad7] (0+4/4) Accurately ripped
12 [b0ec3596|7614f276] (0+4/4) Accurately ripped
13 [b9c6ad07|b045af70] (0+4/4) Accurately ripped
14 [34f7e32e|f21e4c56] (0+4/4) Accurately ripped

Track Peak [ CRC32 ] [W/O NULL] [ LOG ]
– 100,0 [1AE94F96] [1D7CD22F]
01 98,0 [9F8B17CA] [75A3C9AD] CRC32
02 99,9 [63C0E30E] [F90CF4C2] CRC32
03 97,7 [1A1FB37A] [05C721F9] CRC32
04 99,3 [8571BE15] [1B2EBB8B] CRC32
05 97,0 [7BDA8E7C] [C3886418] CRC32
06 99,9 [5142702F] [719D9A06] CRC32
07 100,0 [6E301360] [110A6B60] CRC32
08 100,0 [C9D872AF] [45458E76] CRC32
09 98,6 [7E78F664] [A82D7D17] CRC32
10 99,9 [22F6B235] [6C822AFF] CRC32
11 99,6 [54EFF5CF] [C9009385] CRC32
12 99,9 [FBA2A4CA] [FF9F9336] CRC32
13 99,9 [DF643520] [4266742B] CRC32
14 100,0 [B52F31D0] [C2E0E119] CRC32


Thx to DrStandBy
Neodrive

password: asd