Subcategories

Gregorian - Epic Chants (2012)

Posted By: uff
Gregorian - Epic Chants (2012)

Gregorian - Epic Chants (2012)
New Age | 1cd | EAC Rip | Flac + Cue + Log | covers
NEMO/Starwatch 88725 45217 2 | rel: 2012 | 790Mb

On their 2012 studio album Epic Chants, producer Frank Peterson's group Gregorian apply their trademark "pop song as Gregorian chant" approach to a number of well-known movie themes: the album includes covers of Phil Collins' "Against All Odds" (from Taylor Hackford's movie by the same name), Celine Dion's "My Heart Will Go On" (from James Cameron's Titanic), Howard Shore's "Into the West" (from Peter Jackson's The Return of the King), Vangelis' "Conquest of Paradise" (from Ridley Scott's 1492), and more. There's also one original composition by Peterson, the opening track "World Without End." Epic Chants charted at number nine in Germany and number 31 in Switzerland. ~Allmusic

Track listing
01. World Without End (4:17)
02. Against All Odds (4:28)
03. Conquest Of Paradise (5:56)
04. Both Sides Now (6:12)
05. Bright Eyes (4:54)
06. My Heart Will Go On (5:22)
07. Live And Let Die (5:05)
08. Into The West (5:21)
09. Kiss From A Rose (5:56)
10. Last Unicorn (4:35)
11. She (3:50)
12. Unchained Melody (4:25)
13. Sky And Sand (5:03)
14. Stay (Far Away, So Close) (4:59)
~ (70:24)


Exact Audio Copy V1.0 beta 3 from 29. August 2011

EAC extraction logfile from 7. October 2012, 0:00

Gregorian / Epic Chants

Used drive : PLEXTOR DVDR PX-760A Adapter: 0 ID: 1

Read mode : Secure
Utilize accurate stream : Yes
Defeat audio cache : Yes
Make use of C2 pointers : No

Read offset correction : 30
Overread into Lead-In and Lead-Out : Yes
Fill up missing offset samples with silence : Yes
Delete leading and trailing silent blocks : No
Null samples used in CRC calculations : Yes
Used interface : Native Win32 interface for Win NT & 2000
Gap handling : Appended to previous track

Used output format : User Defined Encoder
Selected bitrate : 1024 kBit/s
Quality : High
Add ID3 tag : No
Command line compressor : C:\Program Files (x86)\Exact Audio Copy\Flac\flac.exe
Additional command line options : -8 -V -T "ARTIST=%artist%" -T "TITLE=%title%" -T "ALBUM=%albumtitle%" -T "DATE=%year%" -T "TRACKNUMBER=%tracknr%" -T "GENRE=%genre%" -T "COMMENT=ripped by DrStandBy" %source%


TOC of the extracted CD

Track | Start | Length | Start sector | End sector
––––––––––––––––––––––––––––-
1 | 0:00.00 | 4:17.17 | 0 | 19291
2 | 4:17.17 | 4:28.06 | 19292 | 39397
3 | 8:45.23 | 5:55.40 | 39398 | 66062
4 | 14:40.63 | 6:12.37 | 66063 | 93999
5 | 20:53.25 | 4:54.07 | 94000 | 116056
6 | 25:47.32 | 5:22.31 | 116057 | 140237
7 | 31:09.63 | 5:05.24 | 140238 | 163136
8 | 36:15.12 | 5:20.59 | 163137 | 187195
9 | 41:35.71 | 5:56.07 | 187196 | 213902
10 | 47:32.03 | 4:35.30 | 213903 | 234557
11 | 52:07.33 | 3:49.71 | 234558 | 251803
12 | 55:57.29 | 4:24.69 | 251804 | 271672
13 | 60:22.23 | 5:03.11 | 271673 | 294408
14 | 65:25.34 | 4:58.63 | 294409 | 316821


Track 1

Filename E:\Gregorian\Albums\2012 - Epic Chants (88725 45217 2)\01. Gregorian - World Without End.wav

Pre-gap length 0:00:02.00

Peak level 98.8 %
Extraction speed 2.2 X
Track quality 100.0 %
Test CRC 95F2EACE
Copy CRC 95F2EACE
Track not present in AccurateRip database
Copy OK

Track 2

Filename E:\Gregorian\Albums\2012 - Epic Chants (88725 45217 2)\02. Gregorian - Against All Odds.wav

Peak level 98.8 %
Extraction speed 2.2 X
Track quality 100.0 %
Test CRC F54FC2F4
Copy CRC F54FC2F4
Track not present in AccurateRip database
Copy OK

Track 3

Filename E:\Gregorian\Albums\2012 - Epic Chants (88725 45217 2)\03. Gregorian - Conquest Of Paradise.wav

Peak level 98.8 %
Extraction speed 1.7 X
Track quality 99.9 %
Test CRC B7EF05C8
Copy CRC B7EF05C8
Track not present in AccurateRip database
Copy OK

Track 4

Filename E:\Gregorian\Albums\2012 - Epic Chants (88725 45217 2)\04. Gregorian - Both Sides Now.wav

Peak level 98.8 %
Extraction speed 1.8 X
Track quality 99.9 %
Test CRC BF66E815
Copy CRC BF66E815
Track not present in AccurateRip database
Copy OK

Track 5

Filename E:\Gregorian\Albums\2012 - Epic Chants (88725 45217 2)\05. Gregorian - Bright Eyes.wav

Peak level 98.8 %
Extraction speed 2.2 X
Track quality 100.0 %
Test CRC 91EF2473
Copy CRC 91EF2473
Track not present in AccurateRip database
Copy OK

Track 6

Filename E:\Gregorian\Albums\2012 - Epic Chants (88725 45217 2)\06. Gregorian - My Heart Will Go On.wav

Peak level 98.8 %
Extraction speed 2.2 X
Track quality 100.0 %
Test CRC 0E3EA385
Copy CRC 0E3EA385
Track not present in AccurateRip database
Copy OK

Track 7

Filename E:\Gregorian\Albums\2012 - Epic Chants (88725 45217 2)\07. Gregorian - Live And Let Die.wav

Peak level 98.8 %
Extraction speed 2.2 X
Track quality 100.0 %
Test CRC 76278A4E
Copy CRC 76278A4E
Track not present in AccurateRip database
Copy OK

Track 8

Filename E:\Gregorian\Albums\2012 - Epic Chants (88725 45217 2)\08. Gregorian - Into The West.wav

Peak level 98.8 %
Extraction speed 2.2 X
Track quality 100.0 %
Test CRC 0478DF04
Copy CRC 0478DF04
Track not present in AccurateRip database
Copy OK

Track 9

Filename E:\Gregorian\Albums\2012 - Epic Chants (88725 45217 2)\09. Gregorian - Kiss From A Rose.wav

Peak level 98.8 %
Extraction speed 2.2 X
Track quality 100.0 %
Test CRC FCE98107
Copy CRC FCE98107
Track not present in AccurateRip database
Copy OK

Track 10

Filename E:\Gregorian\Albums\2012 - Epic Chants (88725 45217 2)\10. Gregorian - Last Unicorn.wav

Peak level 98.8 %
Extraction speed 2.2 X
Track quality 100.0 %
Test CRC 02844E2F
Copy CRC 02844E2F
Track not present in AccurateRip database
Copy OK

Track 11

Filename E:\Gregorian\Albums\2012 - Epic Chants (88725 45217 2)\11. Gregorian - She.wav

Peak level 98.8 %
Extraction speed 2.1 X
Track quality 100.0 %
Test CRC FB659EBD
Copy CRC FB659EBD
Track not present in AccurateRip database
Copy OK

Track 12

Filename E:\Gregorian\Albums\2012 - Epic Chants (88725 45217 2)\12. Gregorian - Unchained Melody.wav

Peak level 98.8 %
Extraction speed 1.6 X
Track quality 99.9 %
Test CRC A5E2CB56
Copy CRC A5E2CB56
Track not present in AccurateRip database
Copy OK

Track 13

Filename E:\Gregorian\Albums\2012 - Epic Chants (88725 45217 2)\13. Gregorian - Sky And Sand.wav

Peak level 98.8 %
Extraction speed 2.2 X
Track quality 100.0 %
Test CRC 614EEB47
Copy CRC 614EEB47
Track not present in AccurateRip database
Copy OK

Track 14

Filename E:\Gregorian\Albums\2012 - Epic Chants (88725 45217 2)\14. Gregorian - Stay (Far Away, So Close).wav

Peak level 98.8 %
Extraction speed 2.4 X
Track quality 100.0 %
Test CRC 9E6C67E0
Copy CRC 9E6C67E0
Track not present in AccurateRip database
Copy OK


None of the tracks are present in the AccurateRip database

No errors occurred

End of status report

–– CUETools DB Plugin V2.1.4

[CTDB TOCID: QDyajlhD6C0g3hzlQv4eliGfqHM-] found
Submit result: QDyajlhD6C0g3hzlQv4eliGfqHM- has been confirmed
Track | CTDB Status
1 | (6/6) Accurately ripped
2 | (6/6) Accurately ripped
3 | (6/6) Accurately ripped
4 | (6/6) Accurately ripped
5 | (6/6) Accurately ripped
6 | (6/6) Accurately ripped
7 | (6/6) Accurately ripped
8 | (6/6) Accurately ripped
9 | (6/6) Accurately ripped
10 | (6/6) Accurately ripped
11 | (6/6) Accurately ripped
12 | (6/6) Accurately ripped
13 | (6/6) Accurately ripped
14 | (6/6) Accurately ripped


==== Log checksum 4606B3C8A2129537627815FF85164A12CA79FDD50FBC679C12FF4CCC89285EB8 ====



[CUETools log; Date: 2014.04.22. 15:06:20; Version: 2.1.4]
[CTDB TOCID: QDyajlhD6C0g3hzlQv4eliGfqHM-] found.
Track | CTDB Status
1 | (33/33) Accurately ripped
2 | (33/33) Accurately ripped
3 | (33/33) Accurately ripped
4 | (33/33) Accurately ripped
5 | (33/33) Accurately ripped
6 | (33/33) Accurately ripped
7 | (33/33) Accurately ripped
8 | (33/33) Accurately ripped
9 | (32/33) Accurately ripped
10 | (33/33) Accurately ripped
11 | (33/33) Accurately ripped
12 | (33/33) Accurately ripped
13 | (33/33) Accurately ripped
14 | (33/33) Accurately ripped
[AccurateRip ID: 0024c066-01883c30-e410800e] found.
Track [ CRC | V2 ] Status
01 [ea37b861|79418e85] (00+21/21) Accurately ripped
02 [ce7eb79a|afbcb700] (00+21/21) Accurately ripped
03 [ebf803e8|40266702] (00+21/21) Accurately ripped
04 [331a1fd6|ca255327] (00+21/21) Accurately ripped
05 [0c5dc565|708a7609] (00+21/21) Accurately ripped
06 [e06e5fa5|a81ab175] (00+21/21) Accurately ripped
07 [2a5f7d94|6703a00e] (00+21/21) Accurately ripped
08 [7d83c845|ea0400cb] (00+21/21) Accurately ripped
09 [ead60fdd|2e354c28] (00+21/21) Accurately ripped
10 [730c2f83|92754455] (00+21/21) Accurately ripped
11 [0564555f|e6f52241] (00+21/21) Accurately ripped
12 [3b71576f|235fe2de] (00+21/21) Accurately ripped
13 [34e76164|6899e96d] (00+21/21) Accurately ripped
14 [3dca11bb|0f42ccf3] (00+20/20) Accurately ripped

Track Peak [ CRC32 ] [W/O NULL] [ LOG ]
– 98,8 [A05D03D1] [46CE03AE]
01 98,8 [95F2EACE] [A689DC33] CRC32
02 98,8 [F54FC2F4] [C370852C] CRC32
03 98,8 [B7EF05C8] [55C93BF2] CRC32
04 98,8 [BF66E815] [E0FD2D65] CRC32
05 98,8 [91EF2473] [F447553A] CRC32
06 98,8 [0E3EA385] [8DE1412F] CRC32
07 98,8 [76278A4E] [3E71F90A] CRC32
08 98,8 [0478DF04] [3AA3CCAD] CRC32
09 98,8 [FCE98107] [8415105A] CRC32
10 98,8 [02844E2F] [748D33C5] CRC32
11 98,8 [FB659EBD] [7D50965B] CRC32
12 98,8 [A5E2CB56] [092B870E] CRC32
13 98,8 [614EEB47] [0405627F] CRC32
14 98,8 [9E6C67E0] [C9B5A267] CRC32


Thx to DrStandBy