Subcategories

Gregorian - Christmas Chants live In Berlin (2010)

Posted By: v3122
Gregorian - Christmas Chants live In Berlin (2010)

Gregorian - Christmas Chants live In Berlin (2010)
EAC | Flac(Image) + Cue + Log & MP3 CBR 320Kbps
earMusic / Moon Records, SZCD 7113-10 | Ukraine | ~ 529 or 203 Mb | Scans(jpg) Included
New Age | Scans(png, 600dpi) -> 180 Mb

One of the most successful pop/classical fusion projects, Gregorian mixes well-known pop and rock songs with Gregorian chants. Overseen by producer Frank Peterson, co-founder of Michael Cretu's Enigma outfit, Gregorian's first album, Masters of Chant, released in 1999 (an early 1991 Peterson album released under the name Gregorian isn't counted among the group's official releases, but already employs the same aesthetic), became a smash hit throughout Europe, entering the Top Ten in nine different countries. The following albums continued in the same vein, covering songs by Peter Gabriel, Lenny Kravitz, Coldplay, Björk, Queen, Tears for Fears, and others. The Dark Side, released in 2004, put a stronger emphasis on the rock element and included songs by Nine Inch Nails and the Doors. Including two live DVD releases, several sequels to the Masters of Chant album, and a 2006 Christmas album, Gregorian sold over four million records under Peterson's guidance.

by Christian Genzel, AMG
Gregorian - Christmas Chants live In Berlin (2010):

Gregorian - Christmas Chants live In Berlin (2010)

Tracklist:

01. Ave Maria (Schubert)
02. Silent night
03. When a child Is born (Johnny Mathis)
04. Sweeter the bells
05. In the bleak midwinter
06. Peace on earth (David Bowie & Bing Cosby)
07. Child in a manger
08. Greensleeves
09. Miracle of love (Eurythmics)
10. The Circle (Gregorian)
11. Mad World (Tears For Fears)
12. Crying in the rain (The Everly Brothers)
13. Sacrifice (Elton John)
14. Kyrie
15. Moment of peace (Gregorian)
16. Angels (Robbie Williams)
17. Noel nouvelet
18. Hymn (Barclay James Harvest)
19. Happy Xmas war is over (John Lennon)

Exact Audio Copy V1.0 beta 4 from 7. December 2014

EAC extraction logfile from 27. January 2015, 9:32

GREGORIAN / Christmas Chants live In Berlin

Used drive : PIONEER DVD-RW DVR-220L Adapter: 1 ID: 0

Read mode : Secure
Utilize accurate stream : Yes
Defeat audio cache : Yes
Make use of C2 pointers : No

Read offset correction : 6
Overread into Lead-In and Lead-Out : No
Fill up missing offset samples with silence : Yes
Delete leading and trailing silent blocks : No
Null samples used in CRC calculations : Yes
Used interface : Native Win32 interface for Win NT & 2000

Used output format : User Defined Encoder
Selected bitrate : 768 kBit/s
Quality : High
Add ID3 tag : No
Command line compressor : D:\Exact Audio Copy\Flac\flac.exe
Additional command line options : -V -8 -T "Date=%year%" -T "Genre=%genre%" %source%


TOC of the extracted CD

Track | Start | Length | Start sector | End sector
––––––––––––––––––––––––––––-
1 | 0:00.00 | 3:47.59 | 0 | 17083
2 | 3:47.59 | 3:54.05 | 17084 | 34638
3 | 7:41.64 | 4:01.62 | 34639 | 52775
4 | 11:43.51 | 4:03.55 | 52776 | 71055
5 | 15:47.31 | 3:26.03 | 71056 | 86508
6 | 19:13.34 | 2:59.46 | 86509 | 99979
7 | 22:13.05 | 3:39.25 | 99980 | 116429
8 | 25:52.30 | 4:16.02 | 116430 | 135631
9 | 30:08.32 | 4:42.57 | 135632 | 156838
10 | 34:51.14 | 4:18.72 | 156839 | 176260
11 | 39:10.11 | 4:42.17 | 176261 | 197427
12 | 43:52.28 | 4:34.40 | 197428 | 218017
13 | 48:26.68 | 5:05.57 | 218018 | 240949
14 | 53:32.50 | 2:45.27 | 240950 | 253351
15 | 56:18.02 | 4:21.05 | 253352 | 272931
16 | 60:39.07 | 4:52.43 | 272932 | 294874
17 | 65:31.50 | 2:39.32 | 294875 | 306831
18 | 68:11.07 | 5:14.58 | 306832 | 330439
19 | 73:25.65 | 4:07.01 | 330440 | 348965


Range status and errors

Selected range

Filename D:\New Rips\GREGORIAN - Christmas Chants live In Berlin\GREGORIAN - Christmas Chants live In Berlin.wav

Peak level 100.0 %
Extraction speed 3.2 X
Range quality 99.9 %
Test CRC 50D6EE91
Copy CRC 50D6EE91
Copy OK

No errors occurred


AccurateRip summary

Track 1 not present in database
Track 2 not present in database
Track 3 not present in database
Track 4 not present in database
Track 5 not present in database
Track 6 not present in database
Track 7 not present in database
Track 8 not present in database
Track 9 not present in database
Track 10 not present in database
Track 11 not present in database
Track 12 not present in database
Track 13 not present in database
Track 14 not present in database
Track 15 not present in database
Track 16 not present in database
Track 17 not present in database
Track 18 not present in database
Track 19 not present in database

None of the tracks are present in the AccurateRip database

End of status report

–– CUETools DB Plugin V2.1.4

[CTDB TOCID: Npto7Zz2Iy4cwTV84P0jH0ExhvA-] disk not present in database
Submit result: Npto7Zz2Iy4cwTV84P0jH0ExhvA- has been uploaded


==== Log checksum 79F8E4293F0C98C64F66400F00F18F1D7A5CA98F5A1DF89C875CDBE22FA9A598 ====

foobar2000 1.2.9 / Dynamic Range Meter 1.1.1
log date: 2015-02-05 08:11:42

––––––––––––––––––––––––––––––––––––––––
Analyzed: GREGORIAN / Christmas Chants live In Berlin
––––––––––––––––––––––––––––––––––––––––

DR Peak RMS Duration Track
––––––––––––––––––––––––––––––––––––––––
DR10 -0.02 dB -14.14 dB 3:48 01-Ave Maria (Schubert)
DR9 -0.09 dB -11.49 dB 3:54 02-Silent night
DR8 0.00 dB -11.41 dB 4:02 03-When a child Is born (Johnny Mathis)
DR10 0.00 dB -12.43 dB 4:04 04-Sweeter the bells
DR10 -0.08 dB -12.44 dB 3:26 05-In the bleak midwinter
DR9 -0.10 dB -11.69 dB 3:00 06-Peace on earth (David Bowie & Bing Cosby)
DR10 -0.10 dB -12.59 dB 3:39 07-Child in a manger
DR10 -0.08 dB -11.90 dB 4:16 08-Greensleeves
DR9 -0.05 dB -11.05 dB 4:43 09-Miracle of love (Eurythmics)
DR8 0.00 dB -10.19 dB 4:19 10-The Circle (Gregorian)
DR7 0.00 dB -9.59 dB 4:42 11-Mad World (Tears For Fears)
DR8 0.00 dB -10.18 dB 4:35 12-Crying in the rain (The Everly Brothers)
DR9 -0.08 dB -11.35 dB 5:06 13-Sacrifice (Elton John)
DR12 -0.88 dB -17.02 dB 2:45 14-Kyrie
DR9 -0.08 dB -11.38 dB 4:21 15-Moment of peace (Gregorian)
DR10 -0.02 dB -12.46 dB 4:53 16-Angels (Robbie Williams)
DR11 -0.64 dB -14.61 dB 2:39 17-Noel nouvelet
DR8 0.00 dB -11.74 dB 5:15 18-Hymn (Barclay James Harvest)
DR8 0.00 dB -11.07 dB 4:07 19-Happy Xmas war is over (John Lennon)
––––––––––––––––––––––––––––––––––––––––

Number of tracks: 19
Official DR value: DR9

Samplerate: 44100 Hz
Channels: 2
Bits per sample: 16
Bitrate: 864 kbps
Codec: FLAC

[CUETools log; Date: 05.02.2015 8:11:49; Version: 2.1.4]
[CTDB TOCID: Npto7Zz2Iy4cwTV84P0jH0ExhvA-] found.
Track | CTDB Status
1 | (1/1) Accurately ripped
2 | (1/1) Accurately ripped
3 | (1/1) Accurately ripped
4 | (1/1) Accurately ripped
5 | (1/1) Accurately ripped
6 | (1/1) Accurately ripped
7 | (1/1) Accurately ripped
8 | (1/1) Accurately ripped
9 | (1/1) Accurately ripped
10 | (1/1) Accurately ripped
11 | (1/1) Accurately ripped
12 | (1/1) Accurately ripped
13 | (1/1) Accurately ripped
14 | (1/1) Accurately ripped
15 | (1/1) Accurately ripped
16 | (1/1) Accurately ripped
17 | (1/1) Accurately ripped
18 | (1/1) Accurately ripped
19 | (1/1) Accurately ripped
[AccurateRip ID: 00340c37-02de4166-03122c13] disk not present in database.

Track Peak [ CRC32 ] [W/O NULL] [ LOG ]
– 100,0 [50D6EE91] [655323B8] CRC32
01 99,7 [79DD1013] [4AEB06E7]
02 98,9 [8BD4EBB7] [7E28A0D2]
03 100,0 [79D30032] [098C9AD9]
04 100,0 [6BE01735] [64D24A1F]
05 99,0 [EB21A75A] [EF89F2A7]
06 98,8 [A1BA8812] [9B336933]
07 98,9 [70BEA5F1] [17ADAE0E]
08 99,1 [941D7520] [82ACA2F0]
09 99,4 [A6255061] [05D24F6A]
10 100,0 [1283180B] [D98E9397]
11 100,0 [8AD72742] [B6599FB9]
12 100,0 [370BF756] [EDB13125]
13 99,1 [B2402A81] [CDD260A8]
14 90,4 [A7C1FDC7] [7D802006]
15 99,0 [BEA7293A] [1B9218FF]
16 99,7 [8CE0E241] [AEA2AD62]
17 92,9 [D2535B0B] [18FCA9E9]
18 100,0 [1C02CD05] [1C9B8EFA]
19 100,0 [2769F6F8] [4C25E736]

Gregorian - Christmas Chants live In Berlin (2010)

Download Gregorian - Christmas Chants live In Berlin (2010):