Subcategories

Glass Hammer - Journey Of The Dunadan (1993)

Posted By: Andi_Deris
Glass Hammer - Journey Of The Dunadan (1993)

Glass Hammer - Journey Of The Dunadan (1993)
EAC Rip | FLAC: Image+Cue+Log | 427 Mb | MP3 CBR 320 kbps | 179 Mb | Scans | Time: 01:12:37
Genre: Progressive Rock, Symphonic Prog | Label: Lazeria Music | Cat.№: 7690-51111-120

The first release from Glass Hammer features an epic concept story based on Tolkien’s Lord of the Rings stories, smooth production, impeccable musicianship and breathtaking solos.



Glass Hammer - Journey Of The Dunadan (1993)


Track Listing

01. Shadows Of The Past (3:19)
02. Something's Coming (3:18)
03. Song Of The Dunadan (9:13)
04. Fog On The Barrow-Downs (2:33)
05. The Prancing Pony (1:12)
06. The Way To Her Heart (3:31)
07. The Ballad Of Balin Longbeard (3:39)
08. Rivendell (3:30)
09. Khazad-Dum (1:24)
10. Nimrodel (4:58)
11. The Palantir (6:39)
12. Pelennor Fields (4:25)
13. Why I Cry (Arwen's Song) (5:20)
14. Anduril (2:02)
15. Morannon Gate (5:41)
16. The Return Of The King (7:55)
17. Why I Cry (Single Edit) (3:58)

Produced by Glass Hammer and Horatio

The Band

• Fred Schendel: Lead and backing vocals, organ & keyboards, acoustic guitar, recorder, drums
• Steve Babb: Lead and backing vocals, synthesizers, bass guitar, taurus pedals, medieval guitar, percussion
• Piper Kirk: Lead and backing vocals
• Michelle Young: Lead and backing vocals
• Terry Clouse: Bass guitar on “The Palantir” and “The Return of the King”
• David Carter: Electric guitar on “Morannon Gate”
• Rod Lambert: Electric violin on “The Palantir”
• Tony Mac: Rhythm programming on “The Return of the King”

Exact Audio Copy V1.0 beta 3 from 29. August 2011

Отчёт EAC об извлечении, выполненном 13. ноября 2013, 5:45

Glass Hammer / Journey of the Dunadan

Дисковод: ASUS BW-12D1S-U Adapter: 0 ID: 0

Режим чтения : Достоверность
Использование точного потока : Да
Отключение кэша аудио : Да
Использование указателей C2 : Нет

Коррекция смещения при чтении : 667
Способность читать области Lead-in и Lead-out : Нет
Заполнение пропущенных сэмплов тишиной : Да
Удаление блоков с тишиной в начале и конце : Нет
При вычислениях CRC использовались нулевые сэмплы : Да
Интерфейс : Установленный внешний ASPI-интерфейс

Выходной формат : Пользовательский кодировщик
Выбранный битрейт : 1024 kBit/s
Качество : Высокий
Добавление ID3-тега : Нет
Утилита сжатия : C:\Program Files (x86)\Exact Audio Copy\Flac\flac.exe
Дополнительные параметры : -V -8 -T "Date=%year%" -T "Genre=%genre%" %source%


TOC извлечённого CD

Трек | Старт | Длительность | Начальный сектор | Конечный сектор
––––––––––––––––––––––––––––––––––-
1 | 0:00.00 | 3:19.05 | 0 | 14929
2 | 3:19.05 | 3:18.20 | 14930 | 29799
3 | 6:37.25 | 9:13.38 | 29800 | 71312
4 | 15:50.63 | 2:33.55 | 71313 | 82842
5 | 18:24.43 | 1:12.55 | 82843 | 88297
6 | 19:37.23 | 3:31.32 | 88298 | 104154
7 | 23:08.55 | 3:39.25 | 104155 | 120604
8 | 26:48.05 | 3:30.28 | 120605 | 136382
9 | 30:18.33 | 1:24.15 | 136383 | 142697
10 | 31:42.48 | 4:58.05 | 142698 | 165052
11 | 36:40.53 | 6:39.17 | 165053 | 194994
12 | 43:19.70 | 4:25.25 | 194995 | 214894
13 | 47:45.20 | 5:20.00 | 214895 | 238894
14 | 53:05.20 | 2:02.38 | 238895 | 248082
15 | 55:07.58 | 5:41.07 | 248083 | 273664
16 | 60:48.65 | 7:55.25 | 273665 | 309314
17 | 68:44.15 | 3:58.48 | 309315 | 327212


Характеристики диапазона извлечения и сообщения об ошибках

Выбранный диапазон

Имя файла F:\––CD––\Glass Hammer (D)\Glass Hammer (1993) - Journey Of The Dunadan\Glass Hammer - Journey of the Dunadan.wav

Пиковый уровень 100.0 %
Скорость извлечения 8.1 X
Качество диапазона 99.9 %
CRC теста 36818C5D
CRC копии 36818C5D
Копирование… OK

Ошибок не произошло


AccurateRip: сводка

Трек 1 точность не определена (достоверность 4) [C330561D], AccurateRip вернул [1F1BB360] (AR v2)
Трек 2 точность не определена (достоверность 4) [5A779D6A], AccurateRip вернул [20EB29BA] (AR v2)
Трек 3 точность не определена (достоверность 4) [F0174C46], AccurateRip вернул [75F1CF03] (AR v2)
Трек 4 точность не определена (достоверность 4) [4755108A], AccurateRip вернул [6D1E7AAC] (AR v2)
Трек 5 точность не определена (достоверность 4) [A19F908F], AccurateRip вернул [5990C54F] (AR v2)
Трек 6 точность не определена (достоверность 4) [AB0F3CDD], AccurateRip вернул [A595550B] (AR v2)
Трек 7 точность не определена (достоверность 4) [3138BE97], AccurateRip вернул [BF7F36EA] (AR v2)
Трек 8 точность не определена (достоверность 4) [DE6D0C15], AccurateRip вернул [4000C905] (AR v2)
Трек 9 точность не определена (достоверность 4) [A58ACAF5], AccurateRip вернул [BC809A86] (AR v2)
Трек 10 точность не определена (достоверность 4) [9D1A4F25], AccurateRip вернул [996A509E] (AR v2)
Трек 11 точность не определена (достоверность 4) [740640BD], AccurateRip вернул [84EA8E61] (AR v2)
Трек 12 точность не определена (достоверность 4) [119B3E0F], AccurateRip вернул [F45B4CCF] (AR v2)
Трек 13 точность не определена (достоверность 4) [4AC7F8C3], AccurateRip вернул [6854FB11] (AR v2)
Трек 14 точность не определена (достоверность 4) [8911A03D], AccurateRip вернул [D9780247] (AR v2)
Трек 15 точность не определена (достоверность 4) [6E3C2398], AccurateRip вернул [D831D92B] (AR v2)
Трек 16 точность не определена (достоверность 3) [A2706FD6], AccurateRip вернул [15235697] (AR v2)
Трек 17 точность не определена (достоверность 4) [238D9D9B], AccurateRip вернул [0459B3E4] (AR v2)

Ни один трек не прошёл проверки на точность
В вашей базе может быть иной вариант штамповки диска

Конец отчёта


Many thanks to the original uploader: Pasheka-Pacheka