Gabor Szabo ‎- Nightflight (1976) [2015]

Posted By: JET 1
Gabor Szabo ‎- Nightflight (1976) [2015]
EAC Rip | FLAC (Tracks) +CUE, LOG | 367 MB | Covers Included
Genre: Jazz, Funk / Soul | Label: Vocalion | Catalog Number: CDSML 8506

Recorded for Mercury in 1976, the Nightflight sessions saw Szabo travelling to Philadelphia's Sigma Sound Studios to make an album indebted to the funky, soulful music of the legendary Philadelphia International Records home to such artists as Teddy Pendergrass, Lou Rawls, Billy Paul, Harold Melvin & The Blue Notes, The Three Degrees and The O'Jays. Deepening Nightflight's links to The Philadelphia Sound were the musicians accompanying Szabo. The rhythm section comprised members of Instant Funk a group who appeared on many Philadelphia International recordings alongside various studio players, among them keyboardist-composer Dexter Wansel and guitarist-pianist-singer Bunny Sigler who also produced the sessions. The result is a colourful fusion of lush soul music with Szabo's distinctive brand of jazz guitar.

Exact Audio Copy V1.2 from 12. August 2016

EAC extraction logfile from 26. October 2016, 22:37

Gabor Szabo / Nightflight

Used drive : GENERIC CDRCB05 Adapter: 1 ID: 1

Read mode : Secure
Utilize accurate stream : Yes
Defeat audio cache : Yes
Make use of C2 pointers : No

Read offset correction : 102
Overread into Lead-In and Lead-Out : No
Fill up missing offset samples with silence : Yes
Delete leading and trailing silent blocks : No
Null samples used in CRC calculations : Yes
Used interface : Native Win32 interface for Win NT & 2000
Gap handling : Appended to previous track

Used output format : User Defined Encoder
Selected bitrate : 1024 kBit/s
Quality : High
Add ID3 tag : No
Command line compressor : C:\Program Files (x86)\Exact Audio Copy\Flac\flac.exe
Additional command line options : -T "artist=%artist%" -T "title=%title%" -T "album=%albumtitle%" -T "date=%year%" -T "tracknumber=%tracknr%" -T "genre=%genre%" -5 %source%


TOC of the extracted CD

Track | Start | Length | Start sector | End sector
––––––––––––––––––––––––––––-
1 | 0:01.00 | 6:49.63 | 75 | 30812
2 | 6:50.63 | 3:07.72 | 30813 | 44909
3 | 9:58.60 | 6:53.15 | 44910 | 75899
4 | 16:52.00 | 4:35.70 | 75900 | 96594
5 | 21:27.70 | 7:30.24 | 96595 | 130368
6 | 28:58.19 | 6:57.53 | 130369 | 161696
7 | 35:55.72 | 7:17.39 | 161697 | 194510
8 | 43:13.36 | 3:05.49 | 194511 | 208434
9 | 46:19.10 | 3:28.31 | 208435 | 224065
10 | 49:47.41 | 7:35.53 | 224066 | 258243


Track 1

Filename J:\POSTS\Gabor Szabo ‎- Nightflight (1976) [2015]\01. Concorde.wav

Pre-gap length 0:00:03.00

Peak level 100.0 %
Extraction speed 2.7 X
Track quality 100.0 %
Test CRC 41367344
Copy CRC 41367344
Track not present in AccurateRip database
Copy OK

Track 2

Filename J:\POSTS\Gabor Szabo ‎- Nightflight (1976) [2015]\02. Funny Face.wav

Pre-gap length 0:00:01.16

Peak level 100.0 %
Extraction speed 2.7 X
Track quality 100.0 %
Test CRC 671F1A96
Copy CRC 671F1A96
Track not present in AccurateRip database
Copy OK

Track 3

Filename J:\POSTS\Gabor Szabo ‎- Nightflight (1976) [2015]\03. Baby Rattle Snake.wav

Pre-gap length 0:00:02.12

Peak level 84.9 %
Extraction speed 3.3 X
Track quality 100.0 %
Test CRC 3202484B
Copy CRC 3202484B
Track not present in AccurateRip database
Copy OK

Track 4

Filename J:\POSTS\Gabor Szabo ‎- Nightflight (1976) [2015]\04. Theme for Gabor.wav

Pre-gap length 0:00:02.24

Peak level 79.8 %
Extraction speed 3.4 X
Track quality 100.0 %
Test CRC 155FB255
Copy CRC 155FB255
Track not present in AccurateRip database
Copy OK

Track 5

Filename J:\POSTS\Gabor Szabo ‎- Nightflight (1976) [2015]\05. Keep Smilin'.wav

Pre-gap length 0:00:01.11

Peak level 100.0 %
Extraction speed 3.9 X
Track quality 100.0 %
Test CRC 69378153
Copy CRC 69378153
Track not present in AccurateRip database
Copy OK

Track 6

Filename J:\POSTS\Gabor Szabo ‎- Nightflight (1976) [2015]\06. Every Minute Counts.wav

Pre-gap length 0:00:01.73

Peak level 99.8 %
Extraction speed 4.2 X
Track quality 100.0 %
Test CRC C9A9D0AF
Copy CRC C9A9D0AF
Track not present in AccurateRip database
Copy OK

Track 7

Filename J:\POSTS\Gabor Szabo ‎- Nightflight (1976) [2015]\07. Smooth Sailin'.wav

Pre-gap length 0:00:03.18

Peak level 86.8 %
Extraction speed 4.4 X
Track quality 100.0 %
Test CRC D74E4987
Copy CRC D74E4987
Track not present in AccurateRip database
Copy OK

Track 8

Filename J:\POSTS\Gabor Szabo ‎- Nightflight (1976) [2015]\08. Keep Smilin' [Edit].wav

Pre-gap length 0:00:06.64

Peak level 89.9 %
Extraction speed 4.2 X
Track quality 100.0 %
Test CRC 14452C58
Copy CRC 14452C58
Track not present in AccurateRip database
Copy OK

Track 9

Filename J:\POSTS\Gabor Szabo ‎- Nightflight (1976) [2015]\09. Baby Rattle Snake [Edit].wav

Pre-gap length 0:00:00.54

Peak level 100.0 %
Extraction speed 4.3 X
Track quality 100.0 %
Test CRC 5A70299A
Copy CRC 5A70299A
Track not present in AccurateRip database
Copy OK

Track 10

Filename J:\POSTS\Gabor Szabo ‎- Nightflight (1976) [2015]\10. Keep Smilin' [Full Version].wav

Pre-gap length 0:00:02.25

Peak level 93.8 %
Extraction speed 4.9 X
Track quality 100.0 %
Test CRC 948E5CC6
Copy CRC 948E5CC6
Track not present in AccurateRip database
Copy OK


None of the tracks are present in the AccurateRip database

No errors occurred

End of status report

–– CUETools DB Plugin V2.1.6

[CTDB TOCID: laZqrvyOLXtZYz5K_O3Ka3awGPA-] found
Submit result: laZqrvyOLXtZYz5K_O3Ka3awGPA- has been confirmed
Track | CTDB Status
1 | (1/1) Accurately ripped
2 | (1/1) Accurately ripped
3 | (1/1) Accurately ripped
4 | (1/1) Accurately ripped
5 | (1/1) Accurately ripped
6 | (1/1) Accurately ripped
7 | (1/1) Accurately ripped
8 | (1/1) Accurately ripped
9 | (1/1) Accurately ripped
10 | (1/1) Accurately ripped


Tracklist:
01. Concorde (Nightflight) (Rome; Szabo)
02. Funny Face (Sigler; Rome)
03. Baby Rattle Snake (Sigler; Miller)
04. Theme for Gabor (Rome)
05. Keep Smilin' (Sigler; Felter)
06. Every Minute Counts (Rome; Szabo)
07. Smooth Sailin' (Life; Holder)
Bonus Tracks
08. Keep Smilin' (Edited Version)
09. Baby Rattle Snake (Edited Version)
10. Keep Smilin' (Full-Length Version)

Personnel:
Gabor Szabo (guitar)
Bunny Sigler, Kim Miller, Theodore Life (guitars)
Bunny Sigler (piano)
Jimmy Sigler (organ)
Dexter Wansel (synthesizer)
Raymond Earl (bass guitar)
Scotty Miller (drums)
Johnnie McCann (congas/bongos)
Gabor Szabo, Bunny Sigler, Theodore Life (vocals)