Subcategories

VA - Guru presents Illkid Records (1995)

Posted By: TestTickles
VA - Guru presents Illkid Records (1995)

VA - Guru presents Illkid Records (1995)
EAC Rip | FLAC with CUE and log | scans | 264 mb
MP3 CBR 320kbps | RAR | 112 mb
Genre: hip-hop, rap

Guru presents Illkid Records is a 1995 compilation CD highlighting the record label Illkid Records, co-founded by Keith Elam, better known as Guru of the American hip-hop duo Gang Starr. Most of these artists didn't go far after this release but Jeru The Damaja did when he released "Come Clean", featured here. This was released by Payday/ffrr Records.
Guru of Gang Starr was given a side label through Payday Records, in the hopes of developing new talent. The artists were all associated with the Gang Starr crew, and while the label did not prosper, it was the place which gave Jeru The Damaja, Group Home, Bahamadia, M.O.P., and Big Shug a chance to shine for the first time. Producer True Master was also closely associated with Gang Starr before he would move on with greater success as one of the producers for the Wu-Tang Clan. His "Who's The Truest" is one of the few tracks where you get to hear him rhyme.

VA - Guru presents Illkid Records (1995)

01. Bald Head Slick - Illkid Intro
02. Bahamadia - Wordplay
03. M.O.P., Guru, Stikken Moov - Life
04. Big Shug - Do What Pays Ya
05. Baybe - Victim of Society
06. Jeru The Damaja - Come Clean
07. True Master - Who's the Truest
08. Operation Ratification - Rotten Apple
09. Fabbiden - Hi Energy
10. Guru, Big Shug - Momentum
11. Stikken Moov - Attack
12. Group Home - So Called Friends
–-
Tracks 1, 2, 3, 8 & 10 produced by Guru
Tracks 4 & 5 produced by C-Bess
Track 6 produced by DJ Premier
Tracks 7 & 9 produced by True Master
Track 9 co-produced by Mik Rone
Track 11 produced by Kendu
–-

EAC extraction logfile from 16. February 2007, 8:59 for CD
Various Artists / Guru presents Illkid Records

Used drive : LITE-ON DVDRW SOHW-1633S Adapter: 0 ID: 0
Read mode : Secure with NO C2, accurate stream, disable cache
Read offset correction : 12
Overread into Lead-In and Lead-Out : No

Used output format : Internal WAV Routines
44.100 Hz; 16 Bit; Stereo

Other options :
Fill up missing offset samples with silence : Yes
Delete leading and trailing silent blocks : No
Installed external ASPI interface


Track 1
Filename D:\FLAC\VA - Guru presents Illkid Records (1995) [FLAC]\01 - Bald Head Slick - Illkid Intro.wav

Pre-gap length 0:00:02.44

Peak level 95.9 %
Track quality 100.0 %
Test CRC C1B908CF
Copy CRC C1B908CF
Copy OK

Track 2
Filename D:\FLAC\VA - Guru presents Illkid Records (1995) [FLAC]\02 - Bahamadia - Wordplay.wav

Pre-gap length 0:00:00.30

Peak level 96.9 %
Track quality 100.0 %
Test CRC 71C41CDC
Copy CRC 71C41CDC
Copy OK

Track 3
Filename D:\FLAC\VA - Guru presents Illkid Records (1995) [FLAC]\03 - M.O.P., Guru, Stikken Moov - Life.wav

Pre-gap length 0:00:00.86

Peak level 91.5 %
Track quality 99.9 %
Test CRC 393D6602
Copy CRC 393D6602
Copy OK

Track 4
Filename D:\FLAC\VA - Guru presents Illkid Records (1995) [FLAC]\04 - Big Shug - Do What Pays Ya.wav

Pre-gap length 0:00:00.42

Peak level 96.0 %
Track quality 100.0 %
Test CRC E660415E
Copy CRC E660415E
Copy OK

Track 5
Filename D:\FLAC\VA - Guru presents Illkid Records (1995) [FLAC]\05 - Baybe - Victim of Society.wav

Pre-gap length 0:00:00.89

Peak level 92.0 %
Track quality 100.0 %
Test CRC C60B5DB5
Copy CRC C60B5DB5
Copy OK

Track 6
Filename D:\FLAC\VA - Guru presents Illkid Records (1995) [FLAC]\06 - Jeru The Damaja - Come Clean.wav

Pre-gap length 0:00:00.86

Peak level 97.4 %
Track quality 99.9 %
Test CRC 2635D3D4
Copy CRC 2635D3D4
Copy OK

Track 7
Filename D:\FLAC\VA - Guru presents Illkid Records (1995) [FLAC]\07 - True Master - Who's the Truest.wav

Pre-gap length 0:00:00.84

Peak level 70.9 %
Track quality 100.0 %
Test CRC A0446A50
Copy CRC A0446A50
Copy OK

Track 8
Filename D:\FLAC\VA - Guru presents Illkid Records (1995) [FLAC]\08 - Operation Ratification - Rotten Apple.wav

Pre-gap length 0:00:00.86

Peak level 95.3 %
Track quality 100.0 %
Test CRC F5D4CCA8
Copy CRC F5D4CCA8
Copy OK

Track 9
Filename D:\FLAC\VA - Guru presents Illkid Records (1995) [FLAC]\09 - Fabbiden - Hi Energy.wav

Pre-gap length 0:00:01.22

Peak level 92.9 %
Track quality 100.0 %
Test CRC 848B394A
Copy CRC 848B394A
Copy OK

Track 10
Filename D:\FLAC\VA - Guru presents Illkid Records (1995) [FLAC]\10 - Guru, Big Shug - Momentum.wav

Pre-gap length 0:00:00.86

Peak level 92.3 %
Track quality 99.9 %
Test CRC B56816EA
Copy CRC B56816EA
Copy OK

Track 11
Filename D:\FLAC\VA - Guru presents Illkid Records (1995) [FLAC]\11 - Stikken Moov - Attack.wav

Pre-gap length 0:00:00.66

Peak level 87.3 %
Track quality 99.9 %
Test CRC 35422B6C
Copy CRC 35422B6C
Copy OK

Track 12
Filename D:\FLAC\VA - Guru presents Illkid Records (1995) [FLAC]\12 - Group Home - So Called Friends.wav

Pre-gap length 0:00:00.86

Peak level 92.1 %
Track quality 100.0 %
Test CRC 28FF62A8
Copy CRC 28FF62A8
Copy OK

No errors occured


End of status report


VA - Guru presents Illkid Records (1995)