Subcategories

Eugene Record ‎- The Eugene Record '77 Trying To Get To You '78 (2014) {EXP2CD42}

Posted By: JET 1
Eugene Record ‎- The Eugene Record '77 Trying To Get To You '78 (2014) {EXP2CD42}

Eugene Record ‎- The Eugene Record '77 Trying To Get To You '78 (2014) {EXP2CD42}
EAC Rip | FLAC (Tracks) +CUE, LOG | 651MB | Covers Included
Soul | Label: Expansion Records | Catalog Number: EXP2CD42

Two of the only solo records ever cut by Chicago soul legend Eugene Record – back to back on a single CD! First up is The Eugene Record – a great solo moment from Eugene – the singer who'd rose to fame with The Chi-Lites, and who still sounds pretty darn great here on his own! The album follows strongly from the best late styles of Record's previous group – and the tunes are a mix of ballads that Eugene could always do very well, and a few more contemporary groovers used to bring a modern soul vibe to the record! Eugene produced the whole thing himself, but gets great Chicago soul help on arrangements from Tom Tom 84 and James Mack – and some of he best cuts have that loping, midtempo groove that was always a perfect fit for Record's standout vocals. Titles include the great "Here Comes The Sun" and "Overdose Of Joy" – plus "Laying Beside You", "Trying To Watch The Wind", "Mother Of Love", "Love Don't Live By Sex Alone", and "Putting it Down". Trying To Get To You is a nicely understated set from the great Eugene Record – one that really has him moving forward in a mature, masculine role after his work with The Chi-Lites! Record's a great lead act on his own – and has a sense of confidence that's nicely balanced with some of the heartbreaking tones he'd use when a bit younger – sharpened to perfection here by arranger Tom Tom 84, who finds these warm, mellow, midtempo grooves that are perfectly suited to Eugene's style! Titles include "Time", "We Belong Together", "Come To My Party", "I'm So Glad", and "Share My Life"

Exact Audio Copy V1.0 beta 3 from 29. August 2011

EAC extraction logfile from 16. July 2015, 17:38

Eugene Record / The Eugene Record / Trying To Get To You

Used drive : GENERIC CDRCB05 Adapter: 4 ID: 0

Read mode : Secure
Utilize accurate stream : Yes
Defeat audio cache : Yes
Make use of C2 pointers : No

Read offset correction : 102
Overread into Lead-In and Lead-Out : No
Fill up missing offset samples with silence : Yes
Delete leading and trailing silent blocks : No
Null samples used in CRC calculations : Yes
Used interface : Native Win32 interface for Win NT & 2000
Gap handling : Appended to previous track

Used output format : User Defined Encoder
Selected bitrate : 1024 kBit/s
Quality : High
Add ID3 tag : No
Command line compressor : C:\Program Files\FLAC\flac.exe
Additional command line options : -8 -V -T "ARTIST=%artist%" -T "TITLE=%title%" -T "ALBUM=%albumtitle%" -T "DATE=%year%" -T "TRACKNUMBER=%tracknr%" -T "GENRE=%genre%" -T "PERFORMER=%albuminterpret%" -T "COMPOSER=%composer%" %haslyrics%–tag-from-file=LYRICS="%lyricsfile%"%haslyrics% -T "ALBUMARTIST=%albumartist%" -T "DISCNUMBER=%cdnumber%" -T "TOTALDISCS=%totalcds%" -T "TOTALTRACKS=%numtracks%" -T "COMMENT=%comment%" %source% -o %dest%


TOC of the extracted CD

Track | Start | Length | Start sector | End sector
––––––––––––––––––––––––––––-
1 | 0:00.00 | 4:35.28 | 0 | 20652
2 | 4:35.28 | 3:42.62 | 20653 | 37364
3 | 8:18.15 | 4:10.42 | 37365 | 56156
4 | 12:28.57 | 4:15.31 | 56157 | 75312
5 | 16:44.13 | 5:32.29 | 75313 | 100241
6 | 22:16.42 | 4:05.17 | 100242 | 118633
7 | 26:21.59 | 5:24.03 | 118634 | 142936
8 | 31:45.62 | 5:39.58 | 142937 | 168419
9 | 37:25.45 | 6:14.70 | 168420 | 196539
10 | 43:40.40 | 3:51.25 | 196540 | 213889
11 | 47:31.65 | 3:24.65 | 213890 | 229254
12 | 50:56.55 | 3:13.42 | 229255 | 243771
13 | 54:10.22 | 3:15.27 | 243772 | 258423
14 | 57:25.49 | 4:50.72 | 258424 | 280245
15 | 62:16.46 | 3:48.47 | 280246 | 297392
16 | 66:05.18 | 3:50.66 | 297393 | 314708
17 | 69:56.09 | 4:39.24 | 314709 | 335657
18 | 74:35.33 | 5:22.04 | 335658 | 359811


Track 1

Filename F:\POSTS\Eugene Record ‎- The Eugene Record '77 Trying To Get To You '78 (2014) {EXP2CD42}\01 - Laying Beside You.wav

Pre-gap length 0:00:02.00

Peak level 95.1 %
Extraction speed 1.4 X
Track quality 100.0 %
Test CRC 25888CC8
Copy CRC 25888CC8
Accurately ripped (confidence 3) [773A9A9D] (AR v2)
Copy OK

Track 2

Filename F:\POSTS\Eugene Record ‎- The Eugene Record '77 Trying To Get To You '78 (2014) {EXP2CD42}\02 - Danger! Love Under Pressure.wav

Peak level 96.8 %
Extraction speed 1.5 X
Track quality 100.0 %
Test CRC ECA8996E
Copy CRC ECA8996E
Accurately ripped (confidence 3) [CE36830E] (AR v2)
Copy OK

Track 3

Filename F:\POSTS\Eugene Record ‎- The Eugene Record '77 Trying To Get To You '78 (2014) {EXP2CD42}\03 - Here Comes The Sun.wav

Pre-gap length 0:00:00.04

Peak level 95.4 %
Extraction speed 1.6 X
Track quality 100.0 %
Test CRC FA32F71C
Copy CRC FA32F71C
Accurately ripped (confidence 3) [033FA562] (AR v2)
Copy OK

Track 4

Filename F:\POSTS\Eugene Record ‎- The Eugene Record '77 Trying To Get To You '78 (2014) {EXP2CD42}\04 - Overdose Of Joy.wav

Pre-gap length 0:00:00.02

Peak level 96.5 %
Extraction speed 1.8 X
Track quality 100.0 %
Test CRC 4A0A4861
Copy CRC 4A0A4861
Accurately ripped (confidence 3) [2708AA0E] (AR v2)
Copy OK

Track 5

Filename F:\POSTS\Eugene Record ‎- The Eugene Record '77 Trying To Get To You '78 (2014) {EXP2CD42}\05 - Trying To Watch The Wind.wav

Pre-gap length 0:00:00.01

Peak level 96.3 %
Extraction speed 2.0 X
Track quality 100.0 %
Test CRC A4599B75
Copy CRC A4599B75
Accurately ripped (confidence 3) [745C14BB] (AR v2)
Copy OK

Track 6

Filename F:\POSTS\Eugene Record ‎- The Eugene Record '77 Trying To Get To You '78 (2014) {EXP2CD42}\06 - Mother Of Love.wav

Pre-gap length 0:00:00.02

Peak level 98.8 %
Extraction speed 2.0 X
Track quality 100.0 %
Test CRC ACEBFFF9
Copy CRC ACEBFFF9
Accurately ripped (confidence 3) [2CB9928F] (AR v2)
Copy OK

Track 7

Filename F:\POSTS\Eugene Record ‎- The Eugene Record '77 Trying To Get To You '78 (2014) {EXP2CD42}\07 - Love Don't Live By Sex Alone.wav

Pre-gap length 0:00:00.01

Peak level 96.5 %
Extraction speed 2.0 X
Track quality 99.9 %
Test CRC 9E4E2001
Copy CRC 9E4E2001
Accurately ripped (confidence 3) [204E071A] (AR v2)
Copy OK

Track 8

Filename F:\POSTS\Eugene Record ‎- The Eugene Record '77 Trying To Get To You '78 (2014) {EXP2CD42}\08 - Putting It Down (To The Way I Feel About You).wav

Peak level 95.9 %
Extraction speed 2.2 X
Track quality 100.0 %
Test CRC DA72CEDB
Copy CRC DA72CEDB
Accurately ripped (confidence 3) [E2A35B48] (AR v2)
Copy OK

Track 9

Filename F:\POSTS\Eugene Record ‎- The Eugene Record '77 Trying To Get To You '78 (2014) {EXP2CD42}\09 - When We Pull The Shades.wav

Pre-gap length 0:00:00.03

Peak level 96.2 %
Extraction speed 2.4 X
Track quality 100.0 %
Test CRC 3DDF37B5
Copy CRC 3DDF37B5
Accurately ripped (confidence 3) [6DCCAE9E] (AR v2)
Copy OK

Track 10

Filename F:\POSTS\Eugene Record ‎- The Eugene Record '77 Trying To Get To You '78 (2014) {EXP2CD42}\10 - Trying To Get To You.wav

Pre-gap length 0:00:00.05

Peak level 99.7 %
Extraction speed 2.4 X
Track quality 100.0 %
Test CRC 5F314ABD
Copy CRC 5F314ABD
Accurately ripped (confidence 3) [DD72856A] (AR v2)
Copy OK

Track 11

Filename F:\POSTS\Eugene Record ‎- The Eugene Record '77 Trying To Get To You '78 (2014) {EXP2CD42}\11 - Come To My Party.wav

Peak level 99.7 %
Extraction speed 1.9 X
Track quality 99.9 %
Test CRC 957ADBC1
Copy CRC 957ADBC1
Accurately ripped (confidence 3) [4BED125C] (AR v2)
Copy OK

Track 12

Filename F:\POSTS\Eugene Record ‎- The Eugene Record '77 Trying To Get To You '78 (2014) {EXP2CD42}\12 - Time.wav

Pre-gap length 0:00:00.03

Peak level 99.5 %
Extraction speed 2.0 X
Track quality 99.9 %
Test CRC DF2CCC96
Copy CRC DF2CCC96
Accurately ripped (confidence 3) [2FFFB994] (AR v2)
Copy OK

Track 13

Filename F:\POSTS\Eugene Record ‎- The Eugene Record '77 Trying To Get To You '78 (2014) {EXP2CD42}\13 - We Belong Together.wav

Peak level 99.6 %
Extraction speed 2.3 X
Track quality 100.0 %
Test CRC 53A1E587
Copy CRC 53A1E587
Accurately ripped (confidence 3) [BC0AF27F] (AR v2)
Copy OK

Track 14

Filename F:\POSTS\Eugene Record ‎- The Eugene Record '77 Trying To Get To You '78 (2014) {EXP2CD42}\14 - I Want To Be With You.wav

Peak level 99.6 %
Extraction speed 2.5 X
Track quality 100.0 %
Test CRC E96BE4CB
Copy CRC E96BE4CB
Accurately ripped (confidence 3) [B68A5632] (AR v2)
Copy OK

Track 15

Filename F:\POSTS\Eugene Record ‎- The Eugene Record '77 Trying To Get To You '78 (2014) {EXP2CD42}\15 - Love And Fun.wav

Pre-gap length 0:00:00.04

Peak level 98.2 %
Extraction speed 2.3 X
Track quality 100.0 %
Test CRC 11AF802B
Copy CRC 11AF802B
Accurately ripped (confidence 3) [B31FE40E] (AR v2)
Copy OK

Track 16

Filename F:\POSTS\Eugene Record ‎- The Eugene Record '77 Trying To Get To You '78 (2014) {EXP2CD42}\16 - You Are The Star Of My Show.wav

Pre-gap length 0:00:00.02

Peak level 99.5 %
Extraction speed 2.7 X
Track quality 100.0 %
Test CRC 8E19F2BE
Copy CRC 8E19F2BE
Accurately ripped (confidence 3) [F41B5F7E] (AR v2)
Copy OK

Track 17

Filename F:\POSTS\Eugene Record ‎- The Eugene Record '77 Trying To Get To You '78 (2014) {EXP2CD42}\17 - I'm So Glad.wav

Pre-gap length 0:00:00.06

Peak level 99.9 %
Extraction speed 2.9 X
Track quality 100.0 %
Test CRC 707317AB
Copy CRC 707317AB
Accurately ripped (confidence 3) [4C3BC3B3] (AR v2)
Copy OK

Track 18

Filename F:\POSTS\Eugene Record ‎- The Eugene Record '77 Trying To Get To You '78 (2014) {EXP2CD42}\18 - Share My Life.wav

Peak level 99.6 %
Extraction speed 1.6 X
Track quality 99.9 %
Test CRC 9E5381BA
Copy CRC 9E5381BA
Accurately ripped (confidence 1) [8482AEC9] (AR v2)
Copy OK


All tracks accurately ripped

No errors occurred

End of status report

==== Log checksum 483E6FBCAD448D077D45420AFF4D9C89EAEDD87DE5DE7761C824613E61AED777 ====


Tracklist:
01. Laying Beside You (The Eugene Record)
02. Danger! Love Under Pressure
03. Here Comes The Sun
04. Overdose Of Joy
05. Trying To Watch The Wind
06. Mother Of Love
07. Love Don't Live By Sex Alone
08. Putting It Down (To The Way I Feel About You)
09. When We Pull The Shades
10. Trying To Get To You (Trying To Get To You)
11. Come To My Party
12. Time
13. We Belong Together
14. I Want To Be With You
15. Love & Fun
16. You Are The Star Of My Show
17. I'm So Glad
18. Share My Life