Elf - Elf (1972) [1992, Japan Release] (ReUpload)

Posted By: technick
Elf - Elf (1972) [1992, Japan Release] (ReUpload)

Elf - Elf (1972)
[1992, Japan Release]

EAC: flac (image) + cue + log | RAR, 3%, 246,09 MB
mp3, 320 kbps | RAR, 3% 81,89 MB | Scans | RAR, 3% 15,55 MB
Label: Epic/Sony Records | Cat №: ESCA 5532 | (NitroFlare + GigaPeta + DepositFiles)

"Elf" is the first album by Ronnie James Dio's blues rock band called Elf. It was released in 1972. In this album, Dio is listed by his birth name Ronald Padavona. He later explained in an interview in 1994 that he was already using Dio as his stage name years before this album, but he used his birth name on this album as a tribute to his parents so that they could see their family name on an album at least once.
After this album, Steve Edwards replaced David Feinstein on guitar, and Craig Gruber took over bass duties, leaving Ronnie James Dio solely as the lead singer. This future lineup, minus Edwards, became the first incarnation of Ritchie Blackmore's Rainbow when guitarist Ritchie Blackmore formed it after leaving Deep Purple.
Exact Audio Copy V0.99 prebeta 5 from 4. May 2009

EAC extraction logfile from 29. September 2010, 20:09

Elf / Elf

Used drive : Optiarc DVD RW AD-7203A Adapter: 1 ID: 0

Read mode : Secure
Utilize accurate stream : Yes
Defeat audio cache : Yes
Make use of C2 pointers : No

Read offset correction : 48
Overread into Lead-In and Lead-Out : No
Fill up missing offset samples with silence : Yes
Delete leading and trailing silent blocks : No
Null samples used in CRC calculations : Yes
Used interface : Native Win32 interface for Win NT & 2000

Used output format : Internal WAV Routines
Sample format : 44.100 Hz; 16 Bit; Stereo


TOC of the extracted CD

Track | Start | Length | Start sector | End sector
––––––––––––––––––––––––––––-
1 | 0:00.00 | 5:34.65 | 0 | 25114
2 | 5:34.65 | 4:24.65 | 25115 | 44979
3 | 9:59.55 | 3:51.65 | 44980 | 62369
4 | 13:51.45 | 3:28.70 | 62370 | 78039
5 | 17:20.40 | 3:49.50 | 78040 | 95264
6 | 21:10.15 | 5:11.40 | 95265 | 118629
7 | 26:21.55 | 3:49.05 | 118630 | 135809
8 | 30:10.60 | 4:31.10 | 135810 | 156144


Range status and errors

Selected range

Filename D:\MUSIC\RIPPED\ELF\Elf - Elf.wav

Peak level 97.7 %
Range quality 100.0 %
Test CRC E801480F
Copy CRC E801480F
Copy OK

No errors occurred


AccurateRip summary

Track 1 not present in database
Track 2 not present in database
Track 3 not present in database
Track 4 not present in database
Track 5 not present in database
Track 6 not present in database
Track 7 not present in database
Track 8 not present in database

None of the tracks are present in the AccurateRip database

End of status report

Tracklist:
01. Hoochie Koochie Lady [05:34]
02. First Avenue [04:24]
03. Never More [03:51]
04. I'm Coming Back For You [03:28]
05. Sit Down Honey (Everything Will Be Alright) [03:49]
06. Dixie Lee Junction [05:11]
07. Love Me Like A Woman [03:49]
08. Gambler, Gambler [04:31]
–––––––––––––
Total time [34:44]
No mirrors, please!
Don't post these links at any web pages, please. Keep these files alive!
Not my rip! All Thanks to original ripper!

Welcome to My Blog!
NitroFlare: Part1, Part2, mp3, scans.
GigaPeta: Part1, Part2, mp3, scans.
DepositFiles: flac, mp3, scans.
pass: kermith