Subcategories

Disarray - Widespread Human Disaster (1995, MCD)

Posted By: Necromandus
Disarray - Widespread Human Disaster (1995, MCD)

Disarray - Widespread Human Disaster (1995, MCD)
EAC Rip | FLAC, IMG+CUE+LOG | 180 MB | MP3 CBR 320 Kbps | 50 MB | Complete HQ Scans | PNG -> 20 MB
Thrash/Southern Metal | Label: Inner V.O.I.D. #NRVD001 | RAR 3% Rec. | Nitroflare.com


Disarray play old style thrash metal on this five track EP. The first song Holocaust is an up tempo tune with (typical) heavy thrash riffing and powerful vocals. Track two Death Plague Jesus is a mid-paced song with heavy riffs and great backing vocals. Track three Scarred For Life features the death metal-ish vocals of bassist Jerry Lomax, It's a crushing tune, the best on the tape. Jerry should sing full time cause his vacals are growly yet ya can understand 'em. Track four Powered By Hate's opening riff sounds just like Metallica's No Remorse, no kidding. Also a slower tune, I'm not into this song. The last track Agony is another cruncher rhythm guitarist/lead vocalist Chuck Bonnett's vocals sound best on this tune. Overall a good debut release, the only thing I don't like is a few riffs sound quite familiar (a la Slayer/Metallica). the production is also good, but there's a slight buzzy sound throught the tape, I don't know if the band even knows this? Inner V.O.I.D. Records is the bands own label.
Tracklist :

1. Holocaust - 3:43
2. Death Plague Jesus - 3:20
3. Scarred For Life - 5:13
4. Powered By Hate - 3:20
5. Agony - 5:10

Exact Audio Copy V1.1 from 23. June 2015

EAC extraction logfile from 5. October 2016, 14:50

Disarray / Widespread Human Disaster

Used drive : TSSTcorpCDDVDW SH-S223F Adapter: 1 ID: 0

Read mode : Secure
Utilize accurate stream : Yes
Defeat audio cache : Yes
Make use of C2 pointers : No

Read offset correction : 6
Overread into Lead-In and Lead-Out : No
Fill up missing offset samples with silence : Yes
Delete leading and trailing silent blocks : No
Null samples used in CRC calculations : Yes
Used interface : Native Win32 interface for Win NT & 2000

Used output format : Internal WAV Routines
Sample format : 44.100 Hz; 16 Bit; Stereo


TOC of the extracted CD

Track | Start | Length | Start sector | End sector
––––––––––––––––––––––––––––-
1 | 0:00.00 | 3:43.33 | 0 | 16757
2 | 3:43.33 | 3:20.03 | 16758 | 31760
3 | 7:03.36 | 5:12.61 | 31761 | 55221
4 | 12:16.22 | 3:19.57 | 55222 | 70203
5 | 15:36.04 | 5:10.07 | 70204 | 93460


Range status and errors

Selected range

Filename Z:\by Necromandus [MeTaLMaDNeSS.TeaM]\Disarray - Widespread Human Disaster.wav

Peak level 98.4 %
Extraction speed 2.6 X
Range quality 100.0 %
Test CRC A9BED385
Copy CRC A9BED385
Copy OK

No errors occurred


AccurateRip summary

Track 1 not present in database
Track 2 not present in database
Track 3 not present in database
Track 4 not present in database
Track 5 not present in database

None of the tracks are present in the AccurateRip database

End of status report

–– CUETools DB Plugin V2.1.6

[CTDB TOCID: hkQyOqTJa88zBg6TBZUeugGIOJ8-] disk not present in database
Submit result: hkQyOqTJa88zBg6TBZUeugGIOJ8- has been uploaded


==== Log checksum 3A6FC0DB9CBC94CBFDB1903159FC39D4C6F22213AAAA8F8EF92C01C8D11F932F ====

• Chuck Bonnett - Vocals, Guitars
• Jim Johnson - Guitars
• Jerry Lomax - Bass
• Shane Harmon - Drums
Lossless (FLAC)* + All Covers (PNG)
http://nitroflare.com/view/710E591194F0B00/DIS1995WHDLOS.rar

Lossy HQ (320 Kbps CBR)
http://nitroflare.com/view/047A5E8E352DCC1/DIS1995WHDMP3.rar

* Original CD -> EAC image, embedded cuesheet & more, foobar2000 ready, etc.
(all CUEs, LOGs and other technical info includes in the internal "CD_Support" archive).

Please, do not write these links at any web pages. Enjoy & keep the files alive!