Dinu Lipatti · "Les Inédits" [Re-Up]

Posted By: DanseDePuck
Dinu Lipatti · "Les Inédits" [Re-Up]

Dinu Lipatti · "Les Inédits" - OOP rare [Live] Archiphon released 1995
EAC Rip | FLAC, IMG+CUE, LOG | Complete Scans | 576 MB
Dinu Lipatti, Madeleine Lipatti, Béla Siki, Ernest Ansermet, Paul Sacher, Orch. de la Suisse Romande, SWF SO.
Label: OOP Archiphon | No. ARC-112/113 | RAR 7% rec.


"After his death, he shines upon us like those
extinguished stars whose light still reaches us"

Notes from the Booklet: Such was the inscription [in French] on the card which Madeleine Lipatti sent to the friends of her husband, who died on December 2nd., 1950. Lipatti's star still shines on us today, and its light is brighter than ever. The reasons are not all strictly musical. "The greatness of the early genius", "the Saint amongst pianists", and other adulatory haloes are still uttered today, obscuring the truth more than anything else. Such misunderstandings emanate from his very limited discography, which led some critics to conclude that Lipatti had learned and mastered but two piano concertos and one recital. The truth is rather different, however: Lipatti performed in public 23 different works for piano and orchestra, and his repertoire contined six complete piano recital programmes. A separate list in this booklet show how extensive his repertoire really was….." [lines by Marc Gertsch/Werner Unger and translated by Mark Ainley]
Notes on Lipatti by renowned Lipatti scholar: Mark Ainley
http://www.markainley.com/music/classical/lipatti/index.html


Dinu Lipatti · "Les Inédits" [Re-Up]

ARCHIPHON ARC-112/113
Dinu Lipatti: "Les Inédits"

CD 1
Liszt: Piano Concerto No. 1

Ansermet-Suisse Romande
First Recordings [Paris 1936]
Enescu, Brahms
Test Recordings Bucharest [1941]
Brahms, Bach, Scarlatti, Chopin,
Schumann, Liszt
BBC Recording [London Sept. 25, 1947]
Liszt, La Leggierezza
Test Recordings with Antonio Janigro
Fauré, Ravel, Rimsky-Korsakov
[Zürich, 1947]
Excerpts from the Zürich concert [1950]
[Tonhalle, Feb.7, 1950] [original tape]
Chopin, Etudes Op. 10 No. 5/Op. 25 No. 5
Bartók: Piano Concerto No. 3 [2nd. Mov.]
[recorded live, Baden-Baden, May 30, 1948]
Paul Sacher/Südwestfunk-SO

Exact Audio Copy V0.99 prebeta 4 from 23. January 2008

EAC extraction logfile from 20. May 2009, 14:35

Dinu Lipatti / Les inedits - CD 1 - archiphon

Used drive : HL-DT-STDVDRAM GSA-H10N Adapter: 0 ID: 0

Read mode : Secure
Utilize accurate stream : Yes
Defeat audio cache : Yes
Make use of C2 pointers : No

Combined read/write offset correction : 0
Overread into Lead-In and Lead-Out : No
Fill up missing offset samples with silence : Yes
Delete leading and trailing silent blocks : No
Null samples used in CRC calculations : No
Used interface : Installed external ASPI interface

Used output format : Internal WAV Routines
Sample format : 44.100 Hz; 16 Bit; Stereo


TOC of the extracted CD

Track | Start | Length | Start sector | End sector
––––––––––––––––––––––––––––-
1 | 0:00.00 | 6:01.55 | 0 | 27129
2 | 6:01.55 | 5:08.20 | 27130 | 50249
3 | 11:10.00 | 4:18.02 | 50250 | 69601
4 | 15:28.02 | 4:19.48 | 69602 | 89074
5 | 19:47.50 | 4:19.07 | 89075 | 108506
6 | 24:06.57 | 3:00.23 | 108507 | 122029
7 | 27:07.05 | 2:52.42 | 122030 | 134971
8 | 29:59.47 | 2:35.18 | 134972 | 146614
9 | 32:34.65 | 2:03.50 | 146615 | 155889
10 | 34:38.40 | 1:45.45 | 155890 | 163809
11 | 36:24.10 | 0:46.67 | 163810 | 167326
12 | 37:11.02 | 2:50.05 | 167327 | 180081
13 | 40:01.07 | 4:38.28 | 180082 | 200959
14 | 44:39.35 | 3:24.17 | 200960 | 216276
15 | 48:03.52 | 2:41.55 | 216277 | 228406
16 | 50:45.32 | 1:12.68 | 228407 | 233874
17 | 51:58.25 | 1:38.57 | 233875 | 241281
18 | 53:37.07 | 3:13.65 | 241282 | 255821
19 | 56:50.72 | 10:32.03 | 255822 | 303224


Range status and errors

Selected range

Filename F:\AUDIO\DinuLipatti-Archiphon2CD\CD_2\Dinu Lipatti - Les inedits - CD 1 - archiphon.wav

Peak level 92.6 %
Range quality 100.0 %
Copy CRC B1A32F5C
Copy OK

No errors occurred

End of status report

FILE "Dinu Lipatti - Les inedits - CD 1 - archiphon.flac" WAVE
TRACK 01 AUDIO
TITLE "Dinu Lipatti / Ansermet OSR - 6-7-47, Geneva / Liszt: Concerto No. 1 in E-fla…"
PERFORMER "Dinu Lipatti"
INDEX 01 00:00:00
TRACK 02 AUDIO
TITLE "Dinu Lipatti / Ansermet OSR - 6-7-47, Geneva / Liszt: Concerto No. 1 in E-fla…"
PERFORMER "Dinu Lipatti"
INDEX 01 06:01:55
TRACK 03 AUDIO
TITLE "Dinu Lipatti / Ansermet OSR - 6-7-47, Geneva / Liszt: Concerto No. 1 in E-fla…"
PERFORMER "Dinu Lipatti"
INDEX 01 11:10:00
TRACK 04 AUDIO
TITLE "Dinu Lipatti / Ansermet OSR - 6-7-47, Geneva / Liszt: Concerto No. 1 in E-fla…"
PERFORMER "Dinu Lipatti"
INDEX 01 15:28:02
TRACK 05 AUDIO
TITLE "Enescu: Sonata No. 1 in f# - ii - presto vivace - Paris, 6/25/36"
PERFORMER "Dinu Lipatti"
INDEX 01 19:47:50
TRACK 06 AUDIO
TITLE "Brahms: Intermezzo op. 117 #2 in b-flat minor"
PERFORMER "Dinu Lipatti"
INDEX 01 24:06:57
TRACK 07 AUDIO
TITLE "Brahms: Intermezzo op. 116 No. 2 in a minor - Bucharest 1941"
PERFORMER "Dinu Lipatti"
INDEX 01 27:07:05
TRACK 08 AUDIO
TITLE "Bach: Chorale - Jesus bleibet meine Freude - Bucharest 1941"
PERFORMER "Dinu Lipatti"
INDEX 01 29:59:47
TRACK 09 AUDIO
TITLE "Scarlatti: Sonata in G, L. 387 - Bucharest 1941"
PERFORMER "Dinu Lipatti"
INDEX 01 32:34:65
TRACK 10 AUDIO
TITLE "Chopn: Etude in G-flat Op. 10 No. 5"
PERFORMER "Dinu Lipatti"
INDEX 01 34:38:40
TRACK 11 AUDIO
TITLE "Schumann: Symphonic Etude - op. 13 No. 9 - Bucharest 1941"
PERFORMER "Dinu Lipatti"
INDEX 01 36:24:10
TRACK 12 AUDIO
TITLE "Liszt: Gnomenreigen S145 No. 2 - Bucharest 1941"
PERFORMER "Dinu Lipatti"
INDEX 01 37:11:02
TRACK 13 AUDIO
TITLE "Liszt: La Leggierezza S144 o. 2 - BBC London 9-25-47"
PERFORMER "Dinu Lipatti"
INDEX 01 40:01:07
TRACK 14 AUDIO
TITLE "Dinu Lipatti, Antonio Janigro - Zurich, May 24, 1947 / Faure: Apres un reve"
PERFORMER "Dinu Lipatti"
INDEX 01 44:39:35
TRACK 15 AUDIO
TITLE "Dinu Lipatti, Antonio Janigro - Zurich, May 24, 1947 / Ravel: Piece en forme …"
PERFORMER "Dinu Lipatti"
INDEX 01 48:03:52
TRACK 16 AUDIO
TITLE "Dinu Lipatti, Antonio Janigro - Zurich, May 24, 1947 / Rimskiy-Korsakov: Vol …"
PERFORMER "Dinu Lipatti"
INDEX 01 50:45:32
TRACK 17 AUDIO
TITLE "Dinu Lipatti - Zurch, Tonhalle, Feb. 7 1950 / Chopin: Etude in G flat, Op. 10…"
PERFORMER "Dinu Lipatti"
INDEX 01 51:58:25
TRACK 18 AUDIO
TITLE "Dinu Lipatti - Zurch, Tonhalle, Feb. 7 1950 / Chopin: Etude in e minor, Op. 2…"
PERFORMER "Dinu Lipatti"
INDEX 01 53:37:07
TRACK 19 AUDIO
TITLE "Dinu Lipatti / Paul Sacher , Sudwestfunk-Sinfonieorchester - Baden-Baden 5-30…"
PERFORMER "Dinu Lipatti"
INDEX 01 56:50:72

Dinu Lipatti · "Les Inédits" [Re-Up]

CD 2
Lipatti: Concertino en style classique

[rec. live, c. 1948]
Lipatti: Danses roumaines
[World premiere. Geneva, October 10, 1945]
Ernest Ansermet/Orchestre de la Suisse Romande
Lipatti: Symphonie concertante
[rec. live, Geneva, Sept. 14, 1951]
Madeleine Lipatti, Béla Siki [pianos]
Ernest Ansermet/Orchestre de la Suisse Romande
Lipatti: Tziganes (Suite for orchestra)
[rec. live, Geneva, c. 1951]
Ernest Ansermet/Orchestre de la Suisse Romande



Exact Audio Copy V0.99 prebeta 4 from 23. January 2008

EAC extraction logfile from 20. May 2009, 15:30

Dinu Lipatti / Les Inédits CD 2

Used drive : HL-DT-STDVDRAM GSA-H10N Adapter: 0 ID: 0

Read mode : Secure
Utilize accurate stream : Yes
Defeat audio cache : Yes
Make use of C2 pointers : No

Combined read/write offset correction : 0
Overread into Lead-In and Lead-Out : No
Fill up missing offset samples with silence : Yes
Delete leading and trailing silent blocks : No
Null samples used in CRC calculations : No
Used interface : Installed external ASPI interface

Used output format : Internal WAV Routines
Sample format : 44.100 Hz; 16 Bit; Stereo


TOC of the extracted CD

Track | Start | Length | Start sector | End sector
––––––––––––––––––––––––––––-
1 | 0:00.00 | 4:32.10 | 0 | 20409
2 | 4:32.10 | 4:36.53 | 20410 | 41162
3 | 9:08.63 | 3:33.35 | 41163 | 57172
4 | 12:42.23 | 5:13.37 | 57173 | 80684
5 | 17:55.60 | 3:54.35 | 80685 | 98269
6 | 21:50.20 | 4:06.48 | 98270 | 116767
7 | 25:56.68 | 5:52.40 | 116768 | 143207
8 | 31:49.33 | 5:06.62 | 143208 | 166219
9 | 36:56.20 | 8:18.65 | 166220 | 203634
10 | 45:15.10 | 5:49.30 | 203635 | 229839
11 | 51:04.40 | 5:19.18 | 229840 | 253782
12 | 56:23.58 | 9:28.45 | 253783 | 296427
13 | 65:52.28 | 5:42.25 | 296428 | 322102


Range status and errors

Selected range

Filename F:\AUDIO\DinuLipatti-Archiphon2CD\CD_2\Dinu Lipatti - Les Inédits CD 2.wav

Peak level 69.0 %
Range quality 100.0 %
Copy CRC 1CA63453
Copy OK

No errors occurred

End of status report

FILE "Dinu Lipatti - Les Inédits CD 2.flac" WAVE
TRACK 01 AUDIO
TITLE "Lipatti: Concertino en style classique op. 3 Allegro maestoso"
PERFORMER "Dinu Lipatti"
INDEX 01 00:00:00
TRACK 02 AUDIO
TITLE "Adagio molto"
PERFORMER "Dinu Lipatti"
INDEX 00 04:27:53
INDEX 01 04:32:10
TRACK 03 AUDIO
TITLE Allegretto
PERFORMER "Dinu Lipatti"
INDEX 00 09:03:53
INDEX 01 09:08:63
TRACK 04 AUDIO
TITLE "Allegro molto"
PERFORMER "Dinu Lipatti"
INDEX 01 12:42:23
TRACK 05 AUDIO
TITLE "Lipatti: Danses roumaines pour piano et orchestre. Vif"
PERFORMER "Dinu Lipatti"
INDEX 00 17:50:53
INDEX 01 17:55:60
TRACK 06 AUDIO
TITLE Andantino
PERFORMER "Dinu Lipatti"
INDEX 01 21:50:20
TRACK 07 AUDIO
TITLE "Allegro vivace"
PERFORMER "Dinu Lipatti"
INDEX 01 25:56:68
TRACK 08 AUDIO
TITLE "Lipatti: Symphonie concertante pour 2 pianos et orchestre. Molto maestoso"
PERFORMER "Dinu Lipatti"
INDEX 00 31:40:53
INDEX 01 31:49:33
TRACK 09 AUDIO
TITLE "Molto adagio"
PERFORMER "Dinu Lipatti"
INDEX 00 36:50:53
INDEX 01 36:56:20
TRACK 10 AUDIO
TITLE "Allegro con spirito"
PERFORMER "Dinu Lipatti"
INDEX 00 45:08:53
INDEX 01 45:15:10
TRACK 11 AUDIO
TITLE "Lipatti: Tziganes (Suite for orchestra). Allegro maestoso ('L'arrivée des tzi…"
PERFORMER "Dinu Lipatti"
INDEX 00 50:59:53
INDEX 01 51:04:40
TRACK 12 AUDIO
TITLE "Andantino ('Idylle à Floreasca')"
PERFORMER "Dinu Lipatti"
INDEX 00 56:15:53
INDEX 01 56:23:58
TRACK 13 AUDIO
TITLE "Allegro ('Ivresse' ou 'Le festin')"
PERFORMER "Dinu Lipatti"
INDEX 00 65:48:53
INDEX 01 65:52:28



My second upload to Avax, hopefully with more success in my negotiations with our moderators… and a faster ending to the whole ordeal! Well, NEW RULES, so no such luck! Back to the drawing board and to square ONE!
Please enjoy and hope you like it! Do note that a full concertography is included in the notes and it has been scanned for reference. This is a very rare set and has been OOP for many years.