Danger Danger - Screw It! (1991)

Posted By: popsakov
Danger Danger - Screw It! (1991)

Danger Danger - Screw It! (1991)
EAC Rip | FLAC (Img) + Cue + Log ~ 421 Mb | MP3 CBR320 ~ 138 Mb
Scans (JPG, 600 dpi) ~ 46 Mb | RAR 5% Recovery
Melodic Hard Rock | Epic #ZK 46977

Danger Danger is an American hard rock band, formed in 1987 in Queens, New York. Despite enjoying moderate success in the U.S. with their debut album Danger Danger, the band vanished from the radar due to legal problems and changes in its line-up. Screw It! is Danger Danger's second full length album. It was released on October 1, 1991 on Epic Records.
***************

Just like any musical movement, when such glam metal pretty boys as Poison and Ratt hit the big time in the late '80s, numerous copycat acts followed in their path; one being Danger Danger. Like the aforementioned bands, the quintet – Ted Poley (vocals), Andy Timmons (guitar), Bruno Ravel (bass), Steve West (drums), and Kasey Smith (keyboards) – mixed pop hooks and good looks with hard-edged guitar riffs, landing a deal with Epic in 1989. The same year saw the release of the group's self-titled debut, spawning the single/video "Naughty Naughty," which enjoyed a few airings on MTV's Headbanger's Ball program. The album failed to break the group through to the big time, but the group stuck to their guns and issued further albums: 1992's Screw It, 1995's Dawn, 1998's Four the Hard Way, and 2000's Return of the Great.

Talk about releasing an album at the wrong time. In late 1991, it seemed like rock audiences worldwide had finally thrown up their hands in disgust with the fourth-rate hair metal bands that MTV and radio were pushing on the public, and in response, welcomed the likes of Nirvana, Pearl Jam, and Soundgarden with open arms. As a result, several hair metal bands that just a year or two earlier seemed like "the next big thing" within their genre were suddenly rendered obsolete – including Danger Danger, who issued their sophomore effort, Screw It!, in October of 1991. Everything that a rock band could have done to seem like a total and utter anomaly was in place – a sexist album cover (a buxom blonde riding in the lap of a huge biker-gorilla) and such oh-so-poetic song titles as "Slipped Her the Big One" and "Horny S.O.B" (not to mention the album's double-entendre title). Yes, folks, there's very little in the originality department here (they even steal a song title from Van Halen, with "Everybody Wants Some"), while the music overall appears to have been constructed in hopes of pleasing both the mainstream pop audience and hair-sprayed headbangers. As evidenced by releases like Screw It!, Kurt Cobain and company thankfully helped pull the plug on hair metal at exactly the right time.
~ Greg Prato, All Music

***************

Danger Danger - Screw It! (1991)

Track List:

01. Ginger Snaps (Intro) / Monkey Business [05:23]
02. Slipped Her The Big One [05:24]
03. C'est Loupe (Prelude) / Beat The Bullet [04:54]
04. I Still Think About You [04:37]
05. Get Your S**t Together [04:42]
06. Crazy Nites [04:14]
07. Puppet Show [01:22]
08. Everybody Wants Some [04:16]
09. Don't Blame It On Love [03:58]
10. Comin' Home [04:40]
11. Horny S.O.B. [03:23]
12. Find Your Way Back Home [06:15]
13. Yeah, You Want It! [03:35]
14. D.F.N.S. [00:55]

Exact Audio Copy V1.0 beta 6 from 9. April 2015

EAC extraction logfile from 30. July 2015, 21:26

Danger Danger / Screw It!

Used drive : HL-DT-STDVDRAM GH22NS40 Adapter: 1 ID: 0

Read mode : Secure
Utilize accurate stream : Yes
Defeat audio cache : Yes
Make use of C2 pointers : No

Read offset correction : 667
Overread into Lead-In and Lead-Out : No
Fill up missing offset samples with silence : Yes
Delete leading and trailing silent blocks : No
Null samples used in CRC calculations : Yes
Used interface : Native Win32 interface for Win NT & 2000

Used output format : User Defined Encoder
Selected bitrate : 1024 kBit/s
Quality : High
Add ID3 tag : Yes
Command line compressor : C:\Program Files\Exact Audio Copy\Flac\flac.exe
Additional command line options : -V -8 -T "Date=%year%" -T "Genre=%genre%" %source%


TOC of the extracted CD

Track | Start | Length | Start sector | End sector
––––––––––––––––––––––––––––-
1 | 0:00.00 | 5:22.40 | 0 | 24189
2 | 5:22.40 | 5:23.37 | 24190 | 48451
3 | 10:46.02 | 4:53.10 | 48452 | 70436
4 | 15:39.12 | 4:36.25 | 70437 | 91161
5 | 20:15.37 | 4:41.25 | 91162 | 112261
6 | 24:56.62 | 4:13.38 | 112262 | 131274
7 | 29:10.25 | 1:21.50 | 131275 | 137399
8 | 30:32.00 | 4:15.60 | 137400 | 156584
9 | 34:47.60 | 3:57.72 | 156585 | 174431
10 | 38:45.57 | 4:39.33 | 174432 | 195389
11 | 43:25.15 | 3:22.72 | 195390 | 210611
12 | 46:48.12 | 6:14.08 | 210612 | 238669
13 | 53:02.20 | 3:34.17 | 238670 | 254736
14 | 56:36.37 | 0:54.13 | 254737 | 258799


Range status and errors

Selected range

Filename I:\Rips\Danger Danger - Screw It!.wav

Peak level 97.7 %
Extraction speed 1.9 X
Range quality 100.0 %
Test CRC E579AA4B
Copy CRC E579AA4B
Copy OK

No errors occurred


AccurateRip summary

Track 1 accurately ripped (confidence 8) [927FF940] (AR v2)
Track 2 accurately ripped (confidence 8) [924B9A6C] (AR v2)
Track 3 accurately ripped (confidence 8) [70C062DC] (AR v2)
Track 4 accurately ripped (confidence 8) [BE3F92E1] (AR v2)
Track 5 accurately ripped (confidence 8) [CD341710] (AR v2)
Track 6 accurately ripped (confidence 8) [865544B7] (AR v2)
Track 7 accurately ripped (confidence 7) [D9907A8C] (AR v2)
Track 8 accurately ripped (confidence 8) [C24CE1AF] (AR v2)
Track 9 accurately ripped (confidence 8) [E8E21859] (AR v2)
Track 10 accurately ripped (confidence 8) [A9D502C4] (AR v2)
Track 11 accurately ripped (confidence 8) [B5BD2E50] (AR v2)
Track 12 accurately ripped (confidence 8) [29B69C25] (AR v2)
Track 13 accurately ripped (confidence 7) [F9039994] (AR v2)
Track 14 accurately ripped (confidence 7) [FDC412F3] (AR v2)

All tracks accurately ripped

End of status report

–– CUETools DB Plugin V2.1.6

[CTDB TOCID: EgofTjG7DjLl9iJ.MGPQKrgm4yc-] found
Submit result: already submitted
Track | CTDB Status
1 | (5/5) Accurately ripped
2 | (5/5) Accurately ripped
3 | (5/5) Accurately ripped
4 | (5/5) Accurately ripped
5 | (5/5) Accurately ripped
6 | (5/5) Accurately ripped
7 | (5/5) Accurately ripped
8 | (5/5) Accurately ripped
9 | (5/5) Accurately ripped
10 | (5/5) Accurately ripped
11 | (5/5) Accurately ripped
12 | (5/5) Accurately ripped
13 | (5/5) Accurately ripped
14 | (5/5) Accurately ripped


==== Log checksum B58C25F3FC114DC03A3FF79E08D5A1D403240988F4C044C394562DF3CA5EB021 ====

foobar2000 1.2.6 / Dynamic Range Meter 1.1.1
log date: 2015-11-28 17:35:42

––––––––––––––––––––––––––––––––––––––––
Analyzed: Danger Danger / Screw It!
––––––––––––––––––––––––––––––––––––––––

DR Peak RMS Duration Track
––––––––––––––––––––––––––––––––––––––––
DR11 -0.20 dB -12.90 dB 5:23 01-Ginger Snaps (Intro) / Monkey Business
DR11 -0.20 dB -12.42 dB 5:23 02-Slipped Her The Big One
DR12 -0.20 dB -14.53 dB 4:53 03-C'est Loupe (Prelude) / Beat The Bullet
DR11 -0.20 dB -12.98 dB 4:36 04-I Still Think About You
DR9 -0.20 dB -10.62 dB 4:41 05-Get Your S**t Together
DR8 -0.20 dB -9.89 dB 4:14 06-Crazy Nites
DR12 -0.20 dB -14.75 dB 1:22 07-Puppet Show
DR9 -0.20 dB -10.07 dB 4:16 08-Everybody Wants Some
DR9 -0.20 dB -11.55 dB 3:58 09-Don't Blame It On Love
DR10 -0.20 dB -11.27 dB 4:39 10-Comin' Home
DR9 -0.20 dB -9.84 dB 3:23 11-Horny S.O.B.
DR11 -0.20 dB -13.35 dB 6:14 12-Find Your Way Back Home
DR13 -0.20 dB -14.92 dB 3:34 13-Yeah, You Want It!
DR11 -4.30 dB -19.04 dB 0:54 14-D.F.N.S.
––––––––––––––––––––––––––––––––––––––––

Number of tracks: 14
Official DR value: DR10

Samplerate: 44100 Hz
Channels: 2
Bits per sample: 16
Bitrate: 975 kbps
Codec: FLAC
================================================================================

[CUETools log; Date: 28.11.2015 17:35:42; Version: 2.1.5]
[CTDB TOCID: EgofTjG7DjLl9iJ.MGPQKrgm4yc-] found.
Track | CTDB Status
1 | (5/5) Accurately ripped
2 | (5/5) Accurately ripped
3 | (5/5) Accurately ripped
4 | (5/5) Accurately ripped
5 | (5/5) Accurately ripped
6 | (5/5) Accurately ripped
7 | (5/5) Accurately ripped
8 | (5/5) Accurately ripped
9 | (5/5) Accurately ripped
10 | (5/5) Accurately ripped
11 | (5/5) Accurately ripped
12 | (5/5) Accurately ripped
13 | (5/5) Accurately ripped
14 | (5/5) Accurately ripped
[AccurateRip ID: 00201c54-014fc20f-cd0d7a0e] found.
Track [ CRC | V2 ] Status
01 [8511e318|927ff940] (00+09/13) Accurately ripped
02 [d12dce6e|924b9a6c] (00+09/13) Accurately ripped
03 [0630e095|70c062dc] (00+09/13) Accurately ripped
04 [495927ea|be3f92e1] (00+09/13) Accurately ripped
05 [5743c9cd|cd341710] (00+09/13) Accurately ripped
06 [2992cd59|865544b7] (00+09/13) Accurately ripped
07 [802dca5b|d9907a8c] (00+08/12) Accurately ripped
08 [9859ac30|c24ce1af] (00+09/13) Accurately ripped
09 [29af5d0f|e8e21859] (00+09/13) Accurately ripped
10 [55770178|a9d502c4] (00+09/13) Accurately ripped
11 [9bddab12|b5bd2e50] (00+09/13) Accurately ripped
12 [8c8e9fb1|29b69c25] (00+09/13) Accurately ripped
13 [189a0b9f|f9039994] (00+08/12) Accurately ripped
14 [46b86e83|fdc412f3] (00+08/12) Accurately ripped
Offsetted by 664:
01 [4ddb242d] (04/13) Accurately ripped
02 [fba270e3] (04/13) Accurately ripped
03 [cbbc6b20] (04/13) Accurately ripped
04 [fc3ca782] (04/13) Accurately ripped
05 [4fe7e19b] (04/13) Accurately ripped
06 [7bb1ae9c] (04/13) Accurately ripped
07 [cba0b077] (04/12) Accurately ripped
08 [9a354a9f] (04/13) Accurately ripped
09 [6116a9d9] (04/13) Accurately ripped
10 [21db6df0] (04/13) Accurately ripped
11 [3862f143] (04/13) Accurately ripped
12 [839db03e] (04/13) Accurately ripped
13 [97b6225a] (04/12) Accurately ripped
14 [9848a1bf] (04/12) Accurately ripped

Track Peak [ CRC32 ] [W/O NULL] [ LOG ]
– 97,7 [E579AA4B] [AC7F3FB3] CRC32
01 97,7 [E43950D3] [8B98AD4E]
02 97,7 [4DBFC2A7] [900591FB]
03 97,7 [958B8D33] [94F1F628]
04 97,7 [86B596AB] [46657836]
05 97,7 [23E9FE0C] [F461CDC6]
06 97,7 [F4915633] [9557BD7F]
07 97,7 [6E8A9539] [BFEC72D7]
08 97,7 [B8347965] [5BF4131A]
09 97,7 [C4721D4F] [A456AA14]
10 97,7 [658846A7] [2969E2FC]
11 97,7 [1CFB530C] [E2D823DC]
12 97,7 [C5E1F69C] [7AC8CF0B]
13 97,7 [30B8EEC7] [F7DD1E67]
14 60,9 [C39E3B3F] [89B30DBA]

Danger Danger - Screw It! (1991)

Danger Danger - Screw It! (1991)

All thanks go to powermet

Visit my blog!

No mirrors, please!

Download:
Nitroflare: FLAC | Scans | mp3