Claudio Ambrosini - Big Bang Circus - Marcello Panni (2004)

Posted By: basa005
Claudio Ambrosini - Big  Bang Circus - Marcello Panni (2004)

Claudio Ambrosini - Big Bang Circus - Marcello Panni (2004)
EAC RIP | APE + CUE + LOG | COVER NO BOOK | RAR FILES (3% recovery) | 2CD 364 Mb
Classical | Stradivarius STR33666

Claudio Ambrosini - Big  Bang Circus - Marcello Panni (2004)

Tracklist:

CD1
1. Scena I : Sinfonia 'Maranà thà!'
2. Scena II : 'Na sadasinno sadàsit'
3. 'Ladies and Gentleman'
4. Scena III : 'Prima arrivò caos'
5. 'Ofìon, Eros, Bios'
6. Scena IV : 'Ta'aroa, l'uno, padre degli dei'
7. Scena V : 'Mille son le teste di perusha'
8. 'Insomma sono in molti a dire'
9. Scena VI : 'Ama-terasu, dea luminosa'
10. 'Un seme, un uovo, fuoco, aria'
11. Scena VII : 'Tutto era solo parvenza'
12. Scena VIII : 'In principio, in principio'
13. Scena IX :'Magnum per inane coacta'
14. 'Abbiamo l'essere, ma…'
15. Scena X : 'Tezcaltlipoca, specchio fumante'
16. 'Eccezionale, vero signori?'
17. Scena XI : 'Mitosis, femmina, maschio'
18. 'Fratello, il mio corpo cresce'
19. Scena XII : 'Serpente arcobaleno'
20Scena XIII : 'Allora Cielo, dio sublime'

CD2
1. 'O notte…Le comete'
2. Scena XVI : 'Omnium visibilium'
3. Scena XVII : 'Helios…Gea'
4. Scena XVIII : 'Kyrie eleison'
5. 'Errantes stellae'
6. Scena XIX : 'Venezia, 1609'
7. Scena XX : 'So Man Looks Out'
8. Scena XXI : 'Grazie, Galileo!'
9. Scena XXII : 'Auriga!'
10. Il Big Bang

Sonia Visentin (soprano)
Paola Seno (mezzo)
Leonardo De Lisi (tenor)
Abramo Rosalen (bass)
Marco Zannoni (actor)
Alvise Vidolin (live electronics)

Ex Novo Ensemble
Marcello Panni (conductor)

This is the world première, as seen in Venice at Biennale 2002, of Big Bang Circus, a recent work by Claudio Ambrosini, the prolific Venetian composer, worthy of esteem for the originality of his style and for being unrelated to any aesthetic 'church'. The libretto is by Sandro Cappelletto, critic and musicologist.
An orchestra, a group of singers and a showman are about to commence their performance. The theme is the story of the creation of the universe. The story runs backwards. It reaches further and further back into time from the present, until zero time, the moment of creation, the Big Bang.


Exact Audio Copy V0.99 prebeta 4 from 23. January 2008

EAC extraction logfile from 21. April 2011, 16:07

Unknown Artist / Unknown Title

Used drive : ATAPI DVD A DH16A1L Adapter: 1 ID: 0

Read mode : Secure
Utilize accurate stream : Yes
Defeat audio cache : Yes
Make use of C2 pointers : No

Read offset correction : 6
Overread into Lead-In and Lead-Out : No
Fill up missing offset samples with silence : Yes
Delete leading and trailing silent blocks : No
Null samples used in CRC calculations : Yes
Used interface : Native Win32 interface for Win NT & 2000

Used output format : Internal WAV Routines
Sample format : 44.100 Hz; 16 Bit; Stereo


TOC of the extracted CD

Track | Start | Length | Start sector | End sector
––––––––––––––––––––––––––––-
1 | 0:00.00 | 4:03.44 | 0 | 18268
2 | 4:03.44 | 4:48.41 | 18269 | 39909
3 | 8:52.10 | 3:18.69 | 39910 | 54828
4 | 12:11.04 | 5:58.38 | 54829 | 81716
5 | 18:09.42 | 1:50.08 | 81717 | 89974
6 | 19:59.50 | 2:43.37 | 89975 | 102236
7 | 22:43.12 | 2:49.01 | 102237 | 114912
8 | 25:32.13 | 1:06.58 | 114913 | 119920
9 | 26:38.71 | 4:57.01 | 119921 | 142196
10 | 31:35.72 | 1:15.18 | 142197 | 147839
11 | 32:51.15 | 4:18.54 | 147840 | 167243
12 | 37:09.69 | 2:59.60 | 167244 | 180728
13 | 40:09.54 | 1:42.23 | 180729 | 188401
14 | 41:52.02 | 0:40.26 | 188402 | 191427
15 | 42:32.28 | 3:05.53 | 191428 | 205355
16 | 45:38.06 | 0:12.70 | 205356 | 206325
17 | 45:51.01 | 2:11.34 | 206326 | 216184
18 | 48:02.35 | 5:22.26 | 216185 | 240360
19 | 53:24.61 | 2:17.51 | 240361 | 250686
20 | 55:42.37 | 4:11.07 | 250687 | 269518


Range status and errors

Selected range

Filename C:\avaxhome\Claudio Ambrosini - Big Bang Circus - CD1.wav

Peak level 100.0 %
Range quality 99.9 %
Copy CRC 9F8D6B6E
Copy OK

No errors occurred


AccurateRip summary

Track 1 not present in database
Track 2 not present in database
Track 3 not present in database
Track 4 not present in database
Track 5 not present in database
Track 6 not present in database
Track 7 not present in database
Track 8 not present in database
Track 9 not present in database
Track 10 not present in database
Track 11 not present in database
Track 12 not present in database
Track 13 not present in database
Track 14 not present in database
Track 15 not present in database
Track 16 not present in database
Track 17 not present in database
Track 18 not present in database
Track 19 not present in database
Track 20 not present in database

None of the tracks are present in the AccurateRip database

End of status report



Exact Audio Copy V0.99 prebeta 4 from 23. January 2008

EAC extraction logfile from 21. April 2011, 16:24

Unknown Artist / Unknown Title

Used drive : ATAPI DVD A DH16A1L Adapter: 1 ID: 0

Read mode : Secure
Utilize accurate stream : Yes
Defeat audio cache : Yes
Make use of C2 pointers : No

Read offset correction : 6
Overread into Lead-In and Lead-Out : No
Fill up missing offset samples with silence : Yes
Delete leading and trailing silent blocks : No
Null samples used in CRC calculations : Yes
Used interface : Native Win32 interface for Win NT & 2000

Used output format : Internal WAV Routines
Sample format : 44.100 Hz; 16 Bit; Stereo


TOC of the extracted CD

Track | Start | Length | Start sector | End sector
––––––––––––––––––––––––––––-
1 | 0:00.00 | 2:57.61 | 0 | 13335
2 | 2:57.61 | 4:16.69 | 13336 | 32604
3 | 7:14.55 | 3:35.25 | 32605 | 48754
4 | 10:50.05 | 5:54.14 | 48755 | 75318
5 | 16:44.19 | 4:12.16 | 75319 | 94234
6 | 20:56.35 | 2:05.53 | 94235 | 103662
7 | 23:02.13 | 2:25.42 | 103663 | 114579
8 | 25:27.55 | 4:22.01 | 114580 | 134230
9 | 29:49.56 | 5:49.57 | 134231 | 160462
10 | 35:39.38 | 7:18.19 | 160463 | 193331


Range status and errors

Selected range

Filename C:\avaxhome\Claudio Ambrosini - Big Bang Circus - CD2.wav

Peak level 99.8 %
Range quality 100.0 %
Copy CRC 7973CA66
Copy OK

No errors occurred


AccurateRip summary

Track 1 not present in database
Track 2 not present in database
Track 3 not present in database
Track 4 not present in database
Track 5 not present in database
Track 6 not present in database
Track 7 not present in database
Track 8 not present in database
Track 9 not present in database
Track 10 not present in database

None of the tracks are present in the AccurateRip database

End of status report

Claudio Ambrosini - Big  Bang Circus - Marcello Panni (2004)
RS part1
RS part2
RS part3
RS part4

Claudio Ambrosini - Big  Bang Circus - Marcello Panni (2004)
MU part1
MU part2
MU part3
MU part4

Claudio Ambrosini - Big  Bang Circus - Marcello Panni (2004)
HF part1
HF part2
HF part3
HF part4

password: basa005