Subcategories

Va - Children of Nuggets: Original Artyfacts from the Second Psychedelic Era, 1976–1995 (2005)

Posted By: mook45
Va - Children of Nuggets: Original Artyfacts from the Second Psychedelic Era, 1976–1995 (2005)

Va - Children of Nuggets: Original Artyfacts from the Second Psychedelic Era, 1976–1995 (2005)
EAC | FLAC IMG,CUE+LOG = 2.12GB | MP3@320 = 742MB | 400 dpi Scans
Garage Rock/Pysch | Label: Rhino - R2 74639 | FSo/FSe


Posted here in MP3, here it is in lossless.

Track listing
Disc one

1. "Vanishing Girl" (The Dukes of Stratosphear) - 2:30
2. "Help You Ann" (Lyres) - 2:30
3. "The Real World" (The Bangles) - 2:35
4. "We're Living in Violent Times" (The Barracudas) - 2:47
5. "The Trains" (The Nashville Ramblers) - 3:07
6. "Seven Years" (The Watermelon Men) - 2:47
7. "Strangers When We Meet" (The Smithereens) - 3:46
8. "Wading Through a Ventilator" (The Soft Boys) - 3:20
9. "I Can't Hide" (The Flamin' Groovies) - 3:14
10. "The Girl from Baltimore" (The Fleshtones) - 2:30
11. "It's a Good Thing" (That Petrol Emotion) - 2:34
12. "She's Fine" (The Stems) - 2:35
13. "All My Life" (The Point) - 2:05
14. "Down at the Nightclub" (The Creeps) - 3:18
15. "(My Girl) Maryanne" (The Spongetones) - 2:43
16. "She Turns to Flowers" (The Salvation Army) - 2:33
17. "You Are My Friend" (Rain Parade) - 3:06
18. "Mr. Unreliable" (The Inmates) - 2:52
19. "(I Thought) You Wanted to Know" (The dB's, Chris Stamey) - 3:18
20. "She Don't Know Why I'm Here" [single version] (The Last) - 3:26
21. "There Must Be a Better Life" (Biff Bang Pow) - 3:05
22. "Slave Girl" (Lime Spiders) - 2:51
23. "I May Hate You Sometimes" (The Posies) - 3:23
24. "I Helped Patrick McGoohan Escape" (The Times) - 3:04
25. "It's About Time" (The Pandoras) - 2:22
26. "I Live for Buzz" (The Swingin' Neckbreakers) - 2:26
27. "I Want You Back" (Hoodoo Gurus) - 3:10

Disc two

1. "This Damn Nation" (The Godfathers) - 2:46
2. "Tell Me When It's Over" (The Dream Syndicate) - 3:33
3. "Whenever I'm Gone" (The Prisoners) - 2:47
4. "New Kind of Kick" (The Cramps) - 3:29
5. "And She Rides" (The Long Ryders) - 4:30
6. "Motorbike Beat" (The Revillos) - 2:22
7. "Tears (Only Dry)" (The Vipers) - 2:56
8. "25 O'Clock" (The Dukes of Stratosphear) - 5:05
9. "Don't Give It Up Now" (Lyres) - 3:36
10. "If and When" (Chris Stamey) - 2:39
11. "Pabst Blue Ribbon" (The Untamed Youth) - 2:41
12. "There She Goes" (The La's) - 2:42
13. "Kingsley J." (The Vibrasonic) - 4:33
14. "I Can Never Tell" (The Crawdaddys) - 2:44
15. "Make Me Stay" (The Green Telescope) - 3:06
16. "Everyday Things" (The Plimsouls) - 2:29
17. "I Wanna Destroy You" (The Soft Boys) - 2:53
18. "It's You" (Mickey & The Milkshakes) - 2:18
19. "Apology" (The Posies) - 5:14
20. "Lights Are Changing" (The Bevis Frond) - 4:56
21. "Ahead of My Time" (The Droogs) - 2:40
22. "Welcome to My Love" (The Funseekers) - 2:48
23. "Flowers in the Sky" (The Revolving Paint Dream) - 2:24
24. "Metal Baby" (Teenage Fanclub) - 3:39

Disc three

1. "The Unguarded Moment" (The Church) - 3:10
2. "I Can't Pretend" (The Barracudas) - 2:31
3. "Out of the Unknown" (Died Pretty) - 4:07
4. "L.A. Explosion" (The Last) - 2:27
5. "I'll Cry Alone" (The Flamin' Groovies) - 2:14
6. "Sunspots [Single Remix]" (Julian Cope) - 3:32
7. "Hindu Gods of Love" (Lipstick Killers) - 3:22
8. "Death and Angels" (Green on Red) - 2:15
9. "Barbed Wire Heart" (The Sinners) - 4:00
10. "Pink Frost" (The Chills) - 3:59
11. "She Told Me Lies" (The Chesterfield Kings) - 2:18
12. "Beauty and Sadness" (The Smithereens) - 3:24
13. "Test Drive" (The Mummies) - 1:29
14. "Busy Man" [EP version] (DMZ) - 3:22
15. "Love Will Grow" (The Stems) - 3:15
16. "She Goes Out with Everybody" (The Spongetones) - 2:27
17. "Hypnotized" (The Plimsouls) - 2:55
18. "No Apology" (The Unclaimed) - 2:05
19. "God Knows It's True" (Teenage Fanclub) - 4:56
20. "You Keep on Lyin'" (The Hoods) - 2:32
21. "Don't Break Down" (The Sting-Rays) - 2:49
22. "The World Has Changed" (The Fleshtones) - 3:10
23. "Baby What's Wrong" (The Cynics) - 2:28
24. "Psycko (Themes from Psycho and Vertigo)" (Laika & The Cosmonauts) - 2:24
25. "My Name Is Tom" (The Jigsaw Seen) - 4:25

Disc four

1. "Gentle Tuesday" (Primal Scream) - 3:47
2. "With a Cantaloupe Girlfriend" (The Three O'Clock) - 2:52
3. "Like Wow - Wipeout!" (Hoodoo Gurus) - 3:12
4. "Bad News Travels Fast" (The Fuzztones) - 2:41
5. "Plains of Nazca" [single version] (The Sun Dial) - 3:45
6. "Getting Out of Hand" (The Bangs) - 2:15
7. "Please Don't Tell My Baby" (Mickey & The Milkshakes) - 1:44
8. "One Half Hour Ago" (Rain Parade) - 4:12
9. "You're My Loving Way" (The Aardvarks) - 2:44
10. "Transfiguration" (The Screaming Trees) - 3:55
11. "A Scandal in Bohemia" (The United States Of Existence) - 2:32
12. "Where the Wolf Bane Blooms" (The Nomads) - 2:15
13. "Cheated and Lied" (The Vipers) - 2:26
14. "Strawberries Are Growing in My Garden (And It's Wintertime)" (The Dentists) - 3:20
15. "Won't Need Yours" (The Tell-Tale Hearts) - 2:45
16. "Weakness" (The Inspiral Carpets) - 4:18
17. "You'll Know Why" (The Miracle Workers) - 3:07
18. "Not My Memory" (The Unknowns) - 2:23
19. "Far Away" (The Prisoners) - 5:23
20. "Ain't That a Man" (The Optic Nerve) - 2:37
21. "Mink Dress" (Plasticland) - 2:50
22. "Tight Turn" [album version] (Raybeats) - 3:54
23. "One Way Ticket" (The Nerves) - 2:10
24. "Tracy Hide" [version] (The Wondermints) - 4:48

Exact Audio Copy V0.99 prebeta 5 from 4. May 2009

EAC extraction logfile from 15. November 2009, 21:55

Various / Children Of Nuggets: Original Artyfacts From The Second Psychedelic Era 1976-1996 (Disc 1)

Used drive : HP DVD Writer 1040r Adapter: 1 ID: 0

Read mode : Secure
Utilize accurate stream : Yes
Defeat audio cache : Yes
Make use of C2 pointers : No

Read offset correction : 6
Overread into Lead-In and Lead-Out : No
Fill up missing offset samples with silence : Yes
Delete leading and trailing silent blocks : No
Null samples used in CRC calculations : Yes
Used interface : Native Win32 interface for Win NT & 2000

Used output format : User Defined Encoder
Selected bitrate : 1024 kBit/s
Quality : High
Add ID3 tag : No
Command line compressor : C:\Program Files\Exact Audio Copy\FLAC\FLAC.EXE
Additional command line options : -5 -V -T "ARTIST=%a" -T "TITLE=%t" -T "ALBUM=%g" -T "DATE=%y" -T "TRACKNUMBER=%n" -T "GENRE=%m" -T "COMMENT=EAC Flac 1.1.2 -5" %s


TOC of the extracted CD

Track | Start | Length | Start sector | End sector
––––––––––––––––––––––––––––-
1 | 0:00.00 | 2:30.23 | 0 | 11272
2 | 2:30.23 | 2:30.52 | 11273 | 22574
3 | 5:01.00 | 2:35.17 | 22575 | 34216
4 | 7:36.17 | 2:47.24 | 34217 | 46765
5 | 10:23.41 | 3:07.65 | 46766 | 60855
6 | 13:31.31 | 2:47.42 | 60856 | 73422
7 | 16:18.73 | 3:46.68 | 73423 | 90440
8 | 20:05.66 | 3:20.59 | 90441 | 105499
9 | 23:26.50 | 3:14.23 | 105500 | 120072
10 | 26:40.73 | 2:30.41 | 120073 | 131363
11 | 29:11.39 | 2:34.62 | 131364 | 142975
12 | 31:46.26 | 2:35.02 | 142976 | 154602
13 | 34:21.28 | 2:05.33 | 154603 | 164010
14 | 36:26.61 | 3:18.31 | 164011 | 178891
15 | 39:45.17 | 2:43.28 | 178892 | 191144
16 | 42:28.45 | 2:33.36 | 191145 | 202655
17 | 45:02.06 | 3:06.27 | 202656 | 216632
18 | 48:08.33 | 2:52.29 | 216633 | 229561
19 | 51:00.62 | 3:18.60 | 229562 | 244471
20 | 54:19.47 | 3:26.13 | 244472 | 259934
21 | 57:45.60 | 3:05.53 | 259935 | 273862
22 | 60:51.38 | 2:51.47 | 273863 | 286734
23 | 63:43.10 | 3:23.50 | 286735 | 302009
24 | 67:06.60 | 3:04.58 | 302010 | 315867
25 | 70:11.43 | 2:22.15 | 315868 | 326532
26 | 72:33.58 | 2:26.06 | 326533 | 337488
27 | 74:59.64 | 3:10.26 | 337489 | 351764


Range status and errors

Selected range

Filename C:\Users\Mike3\Desktop\Children of Nuggets - Original Artyfacts from the Second Psychedelic Era 1976-1996 (Flac)\Disc 1\Various - Children Of Nuggets Original Artyfacts From The Second Psychedelic Era 1976-1996 (Disc 1).wav

Peak level 99.8 %
Range quality 100.0 %
Copy CRC 282BF19E
Copy OK

No errors occurred


AccurateRip summary

Track 1 accurately ripped (confidence 21) [30EC75C7]
Track 2 accurately ripped (confidence 21) [89C3E3C3]
Track 3 accurately ripped (confidence 21) [9C68FB82]
Track 4 accurately ripped (confidence 21) [DE1F6690]
Track 5 accurately ripped (confidence 21) [12E05C17]
Track 6 accurately ripped (confidence 20) [886D102B]
Track 7 accurately ripped (confidence 20) [986F9717]
Track 8 accurately ripped (confidence 20) [98A52982]
Track 9 accurately ripped (confidence 20) [E7209A87]
Track 10 accurately ripped (confidence 20) [EB6ECFE3]
Track 11 accurately ripped (confidence 20) [0C9C6B97]
Track 12 accurately ripped (confidence 20) [768054FB]
Track 13 accurately ripped (confidence 20) [62206B39]
Track 14 accurately ripped (confidence 20) [37532070]
Track 15 accurately ripped (confidence 20) [B94E5546]
Track 16 accurately ripped (confidence 20) [D87CF1A0]
Track 17 accurately ripped (confidence 20) [A16C5F83]
Track 18 accurately ripped (confidence 20) [93ED6FC0]
Track 19 accurately ripped (confidence 20) [3F4FBEED]
Track 20 accurately ripped (confidence 20) [EC5DF130]
Track 21 accurately ripped (confidence 20) [50B8935D]
Track 22 accurately ripped (confidence 20) [06FE1458]
Track 23 accurately ripped (confidence 20) [8B47625F]
Track 24 accurately ripped (confidence 20) [6A3470B6]
Track 25 accurately ripped (confidence 20) [8170D900]
Track 26 accurately ripped (confidence 19) [54E3246E]
Track 27 accurately ripped (confidence 19) [7810D3D9]

All tracks accurately ripped

End of status report


Exact Audio Copy V0.99 prebeta 5 from 4. May 2009

EAC extraction logfile from 16. November 2009, 18:14

Various / Children Of Nuggets: Original Artyfacts From The Second Psychedelic Era 1976-1996 (Disc 2)

Used drive : HP DVD Writer 1040r Adapter: 1 ID: 0

Read mode : Secure
Utilize accurate stream : Yes
Defeat audio cache : Yes
Make use of C2 pointers : No

Read offset correction : 6
Overread into Lead-In and Lead-Out : No
Fill up missing offset samples with silence : Yes
Delete leading and trailing silent blocks : No
Null samples used in CRC calculations : Yes
Used interface : Native Win32 interface for Win NT & 2000

Used output format : User Defined Encoder
Selected bitrate : 1024 kBit/s
Quality : High
Add ID3 tag : No
Command line compressor : C:\Program Files\Exact Audio Copy\FLAC\FLAC.EXE
Additional command line options : -5 -V -T "ARTIST=%a" -T "TITLE=%t" -T "ALBUM=%g" -T "DATE=%y" -T "TRACKNUMBER=%n" -T "GENRE=%m" -T "COMMENT=EAC Flac 1.1.2 -5" %s


TOC of the extracted CD

Track | Start | Length | Start sector | End sector
––––––––––––––––––––––––––––-
1 | 0:00.00 | 2:46.22 | 0 | 12471
2 | 2:46.22 | 3:33.03 | 12472 | 28449
3 | 6:19.25 | 2:47.26 | 28450 | 41000
4 | 9:06.51 | 3:29.23 | 41001 | 56698
5 | 12:35.74 | 4:30.51 | 56699 | 76999
6 | 17:06.50 | 2:22.58 | 77000 | 87707
7 | 19:29.33 | 2:56.69 | 87708 | 100976
8 | 22:26.27 | 5:05.12 | 100977 | 123863
9 | 27:31.39 | 3:36.60 | 123864 | 140123
10 | 31:08.24 | 2:39.71 | 140124 | 152119
11 | 33:48.20 | 2:41.70 | 152120 | 164264
12 | 36:30.15 | 2:42.49 | 164265 | 176463
13 | 39:12.64 | 4:33.05 | 176464 | 196943
14 | 43:45.69 | 2:44.53 | 196944 | 209296
15 | 46:30.47 | 3:06.17 | 209297 | 223263
16 | 49:36.64 | 2:29.24 | 223264 | 234462
17 | 52:06.13 | 2:53.08 | 234463 | 247445
18 | 54:59.21 | 2:18.18 | 247446 | 257813
19 | 57:17.39 | 5:14.58 | 257814 | 281421
20 | 62:32.22 | 4:56.53 | 281422 | 303674
21 | 67:29.00 | 2:40.58 | 303675 | 315732
22 | 70:09.58 | 2:48.03 | 315733 | 328335
23 | 72:57.61 | 2:24.40 | 328336 | 339175
24 | 75:22.26 | 3:39.36 | 339176 | 355636


Range status and errors

Selected range

Filename C:\Users\Mike3\Desktop\Children of Nuggets - Original Artyfacts from the Second Psychedelic Era 1976-1996 (Flac)\Disc 2\Various - Children Of Nuggets Original Artyfacts From The Second Psychedelic Era 1976-1996 (Disc 2).wav

Peak level 99.8 %
Range quality 100.0 %
Copy CRC E25CBA4E
Copy OK

No errors occurred


AccurateRip summary

Track 1 accurately ripped (confidence 19) [4632950F]
Track 2 accurately ripped (confidence 20) [EE8B436C]
Track 3 accurately ripped (confidence 20) [B2ABF705]
Track 4 accurately ripped (confidence 20) [2AFE1920]
Track 5 accurately ripped (confidence 19) [E9464312]
Track 6 accurately ripped (confidence 19) [0DBC696F]
Track 7 accurately ripped (confidence 19) [446B47AA]
Track 8 accurately ripped (confidence 19) [B71BAA62]
Track 9 accurately ripped (confidence 19) [8C7443E4]
Track 10 accurately ripped (confidence 19) [AE2582DE]
Track 11 accurately ripped (confidence 18) [5C5E0011]
Track 12 accurately ripped (confidence 18) [A8A75F00]
Track 13 accurately ripped (confidence 17) [8CDF2296]
Track 14 accurately ripped (confidence 18) [6C147215]
Track 15 accurately ripped (confidence 19) [507CF0E1]
Track 16 accurately ripped (confidence 19) [767CC59B]
Track 17 accurately ripped (confidence 19) [F5CA0F0E]
Track 18 accurately ripped (confidence 19) [A81460F5]
Track 19 accurately ripped (confidence 19) [2CBA7E0A]
Track 20 accurately ripped (confidence 19) [0F98D1AA]
Track 21 accurately ripped (confidence 19) [B3BEA1A5]
Track 22 accurately ripped (confidence 19) [937E2200]
Track 23 accurately ripped (confidence 19) [011341D3]
Track 24 cannot be verified as accurate (confidence 19) [F4549790], AccurateRip returned [B2910A03]

23 track(s) accurately ripped
1 track(s) could not be verified as accurate

Some tracks could not be verified as accurate

End of status report


Exact Audio Copy V0.99 prebeta 5 from 4. May 2009

EAC extraction logfile from 16. November 2009, 20:10

Various / Children Of Nuggets: Original Artyfacts From The Second Psychedelic Era 1976-1996 (Disc 3)

Used drive : HP DVD Writer 1040r Adapter: 1 ID: 0

Read mode : Secure
Utilize accurate stream : Yes
Defeat audio cache : Yes
Make use of C2 pointers : No

Read offset correction : 6
Overread into Lead-In and Lead-Out : No
Fill up missing offset samples with silence : Yes
Delete leading and trailing silent blocks : No
Null samples used in CRC calculations : Yes
Used interface : Native Win32 interface for Win NT & 2000

Used output format : User Defined Encoder
Selected bitrate : 1024 kBit/s
Quality : High
Add ID3 tag : No
Command line compressor : C:\Program Files\Exact Audio Copy\FLAC\FLAC.EXE
Additional command line options : -5 -V -T "ARTIST=%a" -T "TITLE=%t" -T "ALBUM=%g" -T "DATE=%y" -T "TRACKNUMBER=%n" -T "GENRE=%m" -T "COMMENT=EAC Flac 1.1.2 -5" %s


TOC of the extracted CD

Track | Start | Length | Start sector | End sector
––––––––––––––––––––––––––––-
1 | 0:00.00 | 3:10.46 | 0 | 14295
2 | 3:10.46 | 2:31.52 | 14296 | 25672
3 | 5:42.23 | 4:07.51 | 25673 | 44248
4 | 9:49.74 | 2:27.61 | 44249 | 55334
5 | 12:17.60 | 2:14.33 | 55335 | 65417
6 | 14:32.18 | 3:32.00 | 65418 | 81317
7 | 18:04.18 | 3:22.60 | 81318 | 96527
8 | 21:27.03 | 2:15.61 | 96528 | 106713
9 | 23:42.64 | 4:00.10 | 106714 | 124723
10 | 27:42.74 | 3:59.37 | 124724 | 142685
11 | 31:42.36 | 2:18.32 | 142686 | 153067
12 | 34:00.68 | 3:24.69 | 153068 | 168436
13 | 37:25.62 | 1:29.40 | 168437 | 175151
14 | 38:55.27 | 3:22.69 | 175152 | 190370
15 | 42:18.21 | 3:15.25 | 190371 | 205020
16 | 45:33.46 | 2:27.33 | 205021 | 216078
17 | 48:01.04 | 2:55.59 | 216079 | 229262
18 | 50:56.63 | 2:05.44 | 229263 | 238681
19 | 53:02.32 | 4:56.10 | 238682 | 260891
20 | 57:58.42 | 2:32.58 | 260892 | 272349
21 | 60:31.25 | 2:49.73 | 272350 | 285097
22 | 63:21.23 | 3:10.70 | 285098 | 299417
23 | 66:32.18 | 2:28.05 | 299418 | 310522
24 | 69:00.23 | 2:24.23 | 310523 | 321345
25 | 71:24.46 | 4:25.00 | 321346 | 341220


Range status and errors

Selected range

Filename C:\Users\Mike3\Desktop\Children of Nuggets - Original Artyfacts from the Second Psychedelic Era 1976-1996 (Flac)\Disc 3\Various - Children Of Nuggets Original Artyfacts From The Second Psychedelic Era 1976-1996 (Disc 3).wav

Peak level 99.8 %
Range quality 99.9 %
Copy CRC B5C772E7
Copy OK

No errors occurred


AccurateRip summary

Track 1 accurately ripped (confidence 19) [685849CA]
Track 2 accurately ripped (confidence 20) [CBF2665F]
Track 3 accurately ripped (confidence 21) [424013B3]
Track 4 accurately ripped (confidence 21) [2972E708]
Track 5 accurately ripped (confidence 20) [1500F240]
Track 6 accurately ripped (confidence 20) [7E6D5CC4]
Track 7 accurately ripped (confidence 20) [58755B0A]
Track 8 accurately ripped (confidence 20) [9E9ABFB0]
Track 9 accurately ripped (confidence 20) [B23712F6]
Track 10 accurately ripped (confidence 20) [60507D58]
Track 11 accurately ripped (confidence 20) [B8FED912]
Track 12 accurately ripped (confidence 20) [C4AC089F]
Track 13 accurately ripped (confidence 20) [75EA1504]
Track 14 accurately ripped (confidence 20) [DA51E0A1]
Track 15 accurately ripped (confidence 20) [559B1441]
Track 16 accurately ripped (confidence 20) [65B7EDD4]
Track 17 accurately ripped (confidence 20) [00BEBC9E]
Track 18 accurately ripped (confidence 20) [30FA5171]
Track 19 accurately ripped (confidence 20) [1BF502F0]
Track 20 accurately ripped (confidence 20) [22F69B00]
Track 21 accurately ripped (confidence 20) [65016E31]
Track 22 accurately ripped (confidence 20) [F58C1FAE]
Track 23 accurately ripped (confidence 19) [9CA94EBE]
Track 24 accurately ripped (confidence 20) [642B624D]
Track 25 cannot be verified as accurate (confidence 18) [964A0064], AccurateRip returned [1E2C577E]

24 track(s) accurately ripped
1 track(s) could not be verified as accurate

Some tracks could not be verified as accurate

End of status report


Exact Audio Copy V0.99 prebeta 5 from 4. May 2009

EAC extraction logfile from 15. November 2009, 21:29

Various / Children Of Nuggets: Original Artyfacts From The Second Psychedelic Era 1976-1996 (Disc 4)

Used drive : HP DVD Writer 1040r Adapter: 1 ID: 0

Read mode : Secure
Utilize accurate stream : Yes
Defeat audio cache : Yes
Make use of C2 pointers : No

Read offset correction : 6
Overread into Lead-In and Lead-Out : No
Fill up missing offset samples with silence : Yes
Delete leading and trailing silent blocks : No
Null samples used in CRC calculations : Yes
Used interface : Native Win32 interface for Win NT & 2000

Used output format : User Defined Encoder
Selected bitrate : 1024 kBit/s
Quality : High
Add ID3 tag : No
Command line compressor : C:\Program Files\Exact Audio Copy\FLAC\FLAC.EXE
Additional command line options : -5 -V -T "ARTIST=%a" -T "TITLE=%t" -T "ALBUM=%g" -T "DATE=%y" -T "TRACKNUMBER=%n" -T "GENRE=%m" -T "COMMENT=EAC Flac 1.1.2 -5" %s


TOC of the extracted CD

Track | Start | Length | Start sector | End sector
––––––––––––––––––––––––––––-
1 | 0:00.00 | 3:47.09 | 0 | 17033
2 | 3:47.09 | 2:52.73 | 17034 | 30006
3 | 6:40.07 | 3:12.41 | 30007 | 44447
4 | 9:52.48 | 2:41.72 | 44448 | 56594
5 | 12:34.45 | 3:45.62 | 56595 | 73531
6 | 16:20.32 | 2:15.56 | 73532 | 83712
7 | 18:36.13 | 1:44.32 | 83713 | 91544
8 | 20:20.45 | 4:12.53 | 91545 | 110497
9 | 24:33.23 | 2:44.41 | 110498 | 122838
10 | 27:17.64 | 3:55.60 | 122839 | 140523
11 | 31:13.49 | 2:32.66 | 140524 | 151989
12 | 33:46.40 | 2:15.61 | 151990 | 162175
13 | 36:02.26 | 2:26.31 | 162176 | 173156
14 | 38:28.57 | 3:20.18 | 173157 | 188174
15 | 41:49.00 | 2:45.54 | 188175 | 200603
16 | 44:34.54 | 4:18.07 | 200604 | 219960
17 | 48:52.61 | 3:07.71 | 219961 | 234056
18 | 52:00.57 | 2:23.17 | 234057 | 244798
19 | 54:23.74 | 5:23.07 | 244799 | 269030
20 | 59:47.06 | 2:37.14 | 269031 | 280819
21 | 62:24.20 | 2:50.46 | 280820 | 293615
22 | 65:14.66 | 3:54.67 | 293616 | 311232
23 | 69:09.58 | 2:10.60 | 311233 | 321042
24 | 71:20.43 | 4:48.61 | 321043 | 342703


Range status and errors

Selected range

Filename C:\Users\Mike3\Desktop\Children of Nuggets - Original Artyfacts from the Second Psychedelic Era 1976-1996 (Flac)\Disc 4\Various - Children Of Nuggets Original Artyfacts From The Second Psychedelic Era 1976-1996 (Disc 4).wav

Peak level 99.8 %
Range quality 100.0 %
Copy CRC 0D339AA8
Copy OK

No errors occurred


AccurateRip summary

Track 1 accurately ripped (confidence 17) [A4499096]
Track 2 accurately ripped (confidence 20) [C6B3D009]
Track 3 accurately ripped (confidence 20) [EA54051F]
Track 4 accurately ripped (confidence 20) [ADFE453C]
Track 5 accurately ripped (confidence 19) [B73ECD8D]
Track 6 accurately ripped (confidence 19) [442A26F8]
Track 7 accurately ripped (confidence 19) [FBF0A6E1]
Track 8 accurately ripped (confidence 19) [C6C0A43F]
Track 9 accurately ripped (confidence 19) [4E5F8B2D]
Track 10 accurately ripped (confidence 19) [045D1CCC]
Track 11 accurately ripped (confidence 19) [9F4AAB19]
Track 12 accurately ripped (confidence 19) [AE7BB005]
Track 13 accurately ripped (confidence 19) [048EE4E1]
Track 14 accurately ripped (confidence 19) [3E21A90A]
Track 15 accurately ripped (confidence 19) [BEAFAC62]
Track 16 accurately ripped (confidence 19) [D6F33B86]
Track 17 accurately ripped (confidence 19) [2EE4794D]
Track 18 accurately ripped (confidence 19) [604A426C]
Track 19 accurately ripped (confidence 19) [620C10B4]
Track 20 accurately ripped (confidence 19) [F6D96416]
Track 21 accurately ripped (confidence 19) [5000CBF6]
Track 22 accurately ripped (confidence 19) [7C0763FD]
Track 23 accurately ripped (confidence 19) [E81BD75E]
Track 24 accurately ripped (confidence 19) [1C31737D]

All tracks accurately ripped

End of status report

Files
Flac (983 Kbps ABR) = 2.12GB
400 dpi jpeg Scans = 35MB
400 dpi png Scans = 206MB
100 Page 300 dpi pdf booklet = 742MB (Yes! 742MB and it's worth it!)





No mirrors