Subcategories

Cedar Walton - Animation/Soundscapes (2010) {2 Albums One 1 CD, Remastered}

Posted By: popsakov
Cedar Walton - Animation/Soundscapes (2010) {2 Albums One 1 CD, Remastered}

Cedar Walton - Animation/Soundscapes (2010)
EAC Rip | FLAC (Img) + Cue + Log ~ 620 Mb | MP3 CBR320 ~ 233 Mb
Scans Included (JPG, 300 dpi) | RAR 5% Recovery
Jazz-Funk, Post-Bop, Fusion | Soul Brother Records #CD SBPJ 43

Digitally remastered two-fer containing a pair of albums from the Jazz pianist on one CD: Animation (1978) and Soundscapes (1980). These albums feature a stellar line up including Miles Davis longtime drummer Al Foster, and future solo artists Bob Berg and Steve Turre alongside Freddie Hubbard and other great session players. Animation includes the subtle Jazz Funk of 'Jacob's Ladder' a memorable track with a really nice feel that really gets you hooked. 'Charmed Circle' shows Cedar's deeper Jazz roots. Soundscapes includes the fabulous 'Latin America' which is widely recognized as a Latin Jazz-Funk classic. 'Warm To The Touch' is an overlooked serene laid back track featuring the exquisite vocals of Leon Thomas. 'Early Generation' features some good solo's from Bob Berg and Freddie Hubbard.
~ Soul Brother Records


A long-overdue reissue – both of Cedar Walton's fusion albums for Columbia – back to back on a single CD! Animation is one of Cedar Walton's mid 70s funky jazz efforts – acoustic keys often traded for electric piano, grooving with a funky bigger band, almost in a Ramsey Lewis mode – a really great shift that makes the record a nice change from the usual Walton groove! Cedar's a lot busier on the keys than Ramsey was at the time, though – not as kicked-back Fender Rhodes as he is keeping up a tight and soulful fusion groove. The approach is quite different from Walton's other albums of earlier years, but actually works quite well – and the album's a tasty set of smoother soul and funk-infused numbers, with a hint of Brazilian touches as well! Tracks include "Another Star", "Charmed Circle", "Jacob's Ladder", "Precious Mountain", "If It Could Happen", and "Ala Eduardo". Soundscapes is brilliant work from Cedar Walton – a wonderful bit of soulful fusion from the crucially overlooked late 70s years of Columbia Jazz. The album's got a blend of soul and jazz that's similar to work at the time by Bobby Hutcherson or Freddie Hubbard – occasional vocals, larger lusher production, and a style that was really well suited to bringing together the best of fusion and soul, without resorting to tricks or gimmicks. The album's filled with really wonderful cuts that are completely unlike most of Walton's other work – and which show him to be an amazing talent in the soul end of the spectrum, not just in the soul jazz one that we're used to. Tunes are wonderful, arrangements are brilliant – and the album manages to be smooth without losing any depth. Titles include the great groover "Latin America", plus "Warm To The Touch", "NPS", "Sixth Avenue", and "Naturally".
~ Dusty Groove America, Inc.

***************

Cedar Walton - Animation/Soundscapes (2010) {2 Albums One 1 CD, Remastered}

Track List:

Animations (1978)
01. Animations [0:05:01.44]
02. Jacob's Ladder [0:05:45.62]
03. Charmed Circle [0:05:22.51]
04. Another Star [0:05:44.31]
05. Precious Mountain [0:04:59.67]
06. March Of The Fishman [0:04:37.67]
07. If It Could Happen [0:05:20.14]
08. Ala Eduardo [0:05:00.22]
Soundscapes (1980)
09. Warm To The Touch [0:07:01.16]
10. The Early Generation [0:07:59.30]
11. N.P.S. [0:05:10.65]
12. Latin America [0:06:36.14]
13. Sixth Avenue [0:07:21.16]
14. Naturally [0:06:55.67]

Personnel:

Cedar Walton - Producer, Arranger, Conductor, Piano, Piano (Electric)
Tony Dumas - Bass (Electric), Guitar (Electric)
Steve Turre - Trombone, Trombone (Bass)
Bob Berg - Saxophone (Tenor)
Buddy Williams - Drums
Freddie Hubbard - Trumpet
Paulinho Da Costa - Percussion
Al Foster - Drums
Ray Mantilla - Percussion
Rubens Bassini - Percussion
Emmanuel Boyd - Flute
Leon Thomas - Vocals
Don Hahn - Engineer
John Curcio - Engineer
Bernie Grundman - Mastering
Dr. George Butler - Producer

Exact Audio Copy V1.0 beta 6 from 9. April 2015

EAC extraction logfile from 8. November 2015, 15:28

Cedar Walton / Animations/Soundscapes

Used drive : Memorex 52MAXX 3252AJ1 Adapter: 1 ID: 1

Read mode : Secure
Utilize accurate stream : Yes
Defeat audio cache : Yes
Make use of C2 pointers : No

Read offset correction : 6
Overread into Lead-In and Lead-Out : No
Fill up missing offset samples with silence : Yes
Delete leading and trailing silent blocks : No
Null samples used in CRC calculations : Yes
Used interface : Native Win32 interface for Win NT & 2000

Used output format : User Defined Encoder
Selected bitrate : 1024 kBit/s
Quality : High
Add ID3 tag : No
Command line compressor : C:\Program Files (x86)\Exact Audio Copy\Flac\flac.exe
Additional command line options : %ishigh%-V -p -l 12 -b 4096 -m -e -r 8%ishigh%%islow%-5%islow% –replay-gain -T "ARTIST=%artist%" -T "ALBUM=%albumtitle%" -T "TITLE=%title%" -T "DATE=%year%" -T "TRACKNUMBER=%tracknr%" -T "GENRE=%genre%" -T "ENSEMBLE=%albuminterpret%" -T "ALBUMARTIST=%albumartist%" -T "COMPOSER=%albumcomposer%" -T "DISCNUMBER=%cdnumber%" -T "TOTALDISCS=%totalcds%" -T "TOTALTRACKS=%numtracks%" -T "SOURCEMEDIA=CD" -T "COMMENT=%comment%" %hascover%-T "PICTURE=%coverfile%"%hascover% %source%


TOC of the extracted CD

Track | Start | Length | Start sector | End sector
––––––––––––––––––––––––––––-
1 | 0:00.00 | 5:01.44 | 0 | 22618
2 | 5:01.44 | 5:45.62 | 22619 | 48555
3 | 10:47.31 | 5:22.51 | 48556 | 72756
4 | 16:10.07 | 5:44.31 | 72757 | 98587
5 | 21:54.38 | 4:59.67 | 98588 | 121079
6 | 26:54.30 | 4:37.67 | 121080 | 141921
7 | 31:32.22 | 5:20.14 | 141922 | 165935
8 | 36:52.36 | 5:00.22 | 165936 | 188457
9 | 41:52.58 | 7:01.16 | 188458 | 220048
10 | 48:53.74 | 7:59.30 | 220049 | 256003
11 | 56:53.29 | 5:10.65 | 256004 | 279318
12 | 62:04.19 | 6:36.14 | 279319 | 309032
13 | 68:40.33 | 7:21.16 | 309033 | 342123
14 | 76:01.49 | 6:55.67 | 342124 | 373315


Range status and errors

Selected range

Filename C:\Users\M@ce\Music\Archives\Rips\Cedar Walton - Animations,Soundscapes.wav

Peak level 100.0 %
Extraction speed 7.0 X
Range quality 100.0 %
Test CRC C1619E23
Copy CRC C1619E23
Copy OK

No errors occurred


AccurateRip summary

Track 1 accurately ripped (confidence 3) [D5497A5C] (AR v2)
Track 2 accurately ripped (confidence 3) [A8453BD8] (AR v2)
Track 3 accurately ripped (confidence 3) [AA5477A3] (AR v2)
Track 4 accurately ripped (confidence 3) [8B0FDBAB] (AR v2)
Track 5 accurately ripped (confidence 3) [2C0BFEA4] (AR v2)
Track 6 accurately ripped (confidence 3) [A1E1C58A] (AR v2)
Track 7 accurately ripped (confidence 3) [226A1E9D] (AR v2)
Track 8 accurately ripped (confidence 3) [900F4A5A] (AR v2)
Track 9 accurately ripped (confidence 3) [227623AB] (AR v2)
Track 10 accurately ripped (confidence 3) [38EDD939] (AR v2)
Track 11 accurately ripped (confidence 2) [81433DD1] (AR v2)
Track 12 accurately ripped (confidence 3) [BF35FD08] (AR v2)
Track 13 accurately ripped (confidence 3) [36E20F4C] (AR v2)
Track 14 accurately ripped (confidence 3) [E5F1A02C] (AR v2)

All tracks accurately ripped

End of status report

–– CUETools DB Plugin V2.1.6

[CTDB TOCID: hqqqrPdJmCo5J6.BXOpc8q6NOKY-] found
Submit result: hqqqrPdJmCo5J6.BXOpc8q6NOKY- has been confirmed
Track | CTDB Status
1 | (1/1) Accurately ripped
2 | (1/1) Accurately ripped
3 | (1/1) Accurately ripped
4 | (1/1) Accurately ripped
5 | (1/1) Accurately ripped
6 | (1/1) Accurately ripped
7 | (1/1) Accurately ripped
8 | (1/1) Accurately ripped
9 | (1/1) Accurately ripped
10 | (1/1) Accurately ripped
11 | (1/1) Accurately ripped
12 | (1/1) Accurately ripped
13 | (1/1) Accurately ripped
14 | (1/1) Accurately ripped


==== Log checksum 9AEA919E21D740D4A9B38D3C317C50419F643A242A6CCF7C596A97026AAC913D ====

foobar2000 1.2.6 / Dynamic Range Meter 1.1.1
log date: 2016-01-21 17:18:51

––––––––––––––––––––––––––––––––––––––––
Analyzed: Cedar Walton / Animations/Soundscapes
––––––––––––––––––––––––––––––––––––––––

DR Peak RMS Duration Track
––––––––––––––––––––––––––––––––––––––––
DR7 0.00 dB -8.61 dB 5:02 01-Animations
DR7 0.00 dB -9.20 dB 5:46 02-Jacob's Ladder
DR7 0.00 dB -8.02 dB 5:23 03-Charmed Circle
DR8 0.00 dB -9.37 dB 5:44 04-Another Star
DR8 0.00 dB -9.06 dB 5:00 05-Precious Mountain
DR8 0.00 dB -9.99 dB 4:38 06-March Of The Fishman
DR7 0.00 dB -8.84 dB 5:20 07-If It Could Happen
DR7 0.00 dB -7.96 dB 5:00 08-Ala Eduardo
DR8 0.00 dB -10.61 dB 7:01 09-Warm To The Touch
DR8 0.00 dB -9.81 dB 7:59 10-The Early Generation
DR9 0.00 dB -11.15 dB 5:11 11-N.P.S.
DR9 0.00 dB -10.79 dB 6:36 12-Latin America
DR8 0.00 dB -10.04 dB 7:21 13-Sixth Avenue
DR9 0.00 dB -11.24 dB 6:56 14-Naturally
––––––––––––––––––––––––––––––––––––––––

Number of tracks: 14
Official DR value: DR8

Samplerate: 44100 Hz
Channels: 2
Bits per sample: 16
Bitrate: 941 kbps
Codec: FLAC
================================================================================

[CUETools log; Date: 21.01.2016 17:18:51; Version: 2.1.5]
[CTDB TOCID: hqqqrPdJmCo5J6.BXOpc8q6NOKY-] found.
Track | CTDB Status
1 | (2/2) Accurately ripped
2 | (2/2) Accurately ripped
3 | (2/2) Accurately ripped
4 | (2/2) Accurately ripped
5 | (2/2) Accurately ripped
6 | (2/2) Accurately ripped
7 | (2/2) Accurately ripped
8 | (2/2) Accurately ripped
9 | (2/2) Accurately ripped
10 | (2/2) Accurately ripped
11 | (2/2) Accurately ripped
12 | (2/2) Accurately ripped
13 | (2/2) Accurately ripped
14 | (2/2) Accurately ripped
[AccurateRip ID: 00284791-01b2c776-be13710e] found.
Track [ CRC | V2 ] Status
01 [30749903|d5497a5c] (0+4/4) Accurately ripped
02 [833f5fa3|a8453bd8] (0+4/4) Accurately ripped
03 [94abbc2d|aa5477a3] (0+4/4) Accurately ripped
04 [921dc19d|8b0fdbab] (0+4/4) Accurately ripped
05 [07aac798|2c0bfea4] (0+4/4) Accurately ripped
06 [76f4e447|a1e1c58a] (0+4/4) Accurately ripped
07 [4ac569cc|226a1e9d] (0+4/4) Accurately ripped
08 [e9a16219|900f4a5a] (0+4/4) Accurately ripped
09 [e32c17be|227623ab] (0+4/4) Accurately ripped
10 [788b3814|38edd939] (0+4/4) Accurately ripped
11 [b2ebe306|81433dd1] (0+3/3) Accurately ripped
12 [c25b7650|bf35fd08] (0+4/4) Accurately ripped
13 [5e063b8d|36e20f4c] (0+4/4) Accurately ripped
14 [e164d84c|e5f1a02c] (0+4/4) Accurately ripped

Track Peak [ CRC32 ] [W/O NULL] [ LOG ]
– 100,0 [C1619E23] [56E299E7] CRC32
01 100,0 [1414248B] [8E47014F]
02 100,0 [EF97CB93] [52BE7F06]
03 100,0 [1C2D2FCE] [BFBC68D3]
04 100,0 [7A0A51DC] [7CDBD2F2]
05 100,0 [006CE534] [C71060C4]
06 100,0 [5099A3C1] [C6A3F163]
07 100,0 [31F250E2] [1D1372D3]
08 100,0 [6D678C9D] [810E8D11]
09 100,0 [BE31F4E4] [01CB520A]
10 100,0 [9D2E6780] [DF43E546]
11 100,0 [147CE2F4] [B8CAC507]
12 100,0 [6F6502FE] [6396D822]
13 100,0 [BB91705D] [3917ACBA]
14 100,0 [8B5DC887] [FF9A1609]

Cedar Walton - Animation/Soundscapes (2010) {2 Albums One 1 CD, Remastered}

Cedar Walton - Animation/Soundscapes (2010) {2 Albums One 1 CD, Remastered}

All thanks go to RunawayTrane

Visit my blog!

Download: