Camembert — Schnörgl Attahk (2011)

Posted By: hill0
Camembert — Schnörgl Attahk (2011)

Camembert — Schnörgl Attahk (2011)
EAC Rip | FLAC (image & cue & log) | 315 MB | MP3 CBR 320 kbps | 117 MB | Scans (JPG) | 39 MB | 51:18
Genre: Progressive rock / Jazz Rock / Fusion | Country: France/Italy | Label: AltrOck Productions | ALT 022

Great debut from French fusioneers Camembert. Obviously endebted in title to the pothead pixies, this album plays like an easy listening Frank Zappa record. Big Band riffs, xylophone runs, incessant tempo changes trademark the package. A fabulous record that's thrilling and easy listening all at the same time. If I ran a department store this record would be on repeat.

At times aggressive, this record is very surprising. The electric and acoustic guitar create a luxurious sonic palette which allow the other instruments to thrive. An extremely creative set, let's hope there's more coming out in the near future from these guys.
Camembert is a french Progressive Jazz Fusion band from Strasbourg (France). The band is articulated around very original instruments such as Harp, Xylophone and Vibraphone. The band's aim is to abolish frontiers between musical styles by including some world music arrangements. The best definition of their music heard in the press as the meeting between Henry Cow and Herbie Hancock for the writing of a blaxploitation movie soundtrack.
You will hear blends of Zappa, King Crimson, Pat Metheny, George Duke, Hemeto Pascoal, Ennio Morricone and Gentle Giant in the Cheese very uncommon compositions.
Signed on Altrock Label, the band released its first album Schnörgl Attahk in September 2011. This first opus is based on a delirious story of an alien invasion (The dirty stupid Schnörgls commanded by the abominable Dr Frankenschnörgl) on Earth. Then, a giant starship made Cheese enters Earth Orbit and abducts people and animals on Earth to transform them into super soldiers and resist against the Schnörgl oppression. With a featuring from Francesco Zago from Yugen and a zappaian style booklet made by Paolo Ske Botta from Ske, Schnörgl Attahk is a pamphlet for the reniewing of modern progressive rock and Jazz Fusion.
Enjoy the smell of this cheese!
Camembert — Schnörgl Attahk (2011)




Tracklist

1. Infinicheese (1:35)
2. Clacos Zero (0:35)
3.Untung Untungan (11:13)
4. Clacos 1 : Notre Mere ? Tous (1:58)
5. El Ruotuav Ed Sram (8:16)
6. Clacos 2 : Die Experimente Von Dr Frankenschnoergl (0:48)
7. Le Meurtrier Volant (9:01)
8. La Danse du Chameau - Batifolade (Part1) (5:29)
9. Soif! (Part2) (1:17)
10. La Tempete De Sable (Part3) (4:51)
11. Reveries Lubriques (Part 4) (1:09)
12. The Final Run (Part5) (5:01)

Exact Audio Copy V0.99 prebeta 4 from 23. January 2008

Отчёт EAC об извлечении, выполненном 14. октября 2011, 19:52

CAMEMBERT / Schnorgl Attahk

Дисковод: TSSTcorpCD/DVDW SH-S183A Adapter: 4 ID: 1

Режим чтения : Достоверность
Использование точного потока : Да
Отключение кэша аудио : Да
Использование указателей C2 : Нет

Коррекция смещения при чтении : 6
Способность читать области Lead-in и Lead-out : Нет
Заполнение пропущенных сэмплов тишиной : Да
Удаление блоков с тишиной в начале и конце : Нет
При вычислениях CRC использовались нулевые сэмплы : Да
Интерфейс : Встроенный Win32-интерфейс для Win NT/2000

Выходной формат : Внутренние WAV-операции
Формат сэмплов : 44.100 Гц; 16 бит; стерео


TOC извлечённого CD

Трек | Старт | Длительность | Начальный сектор | Конечный сектор
––––––––––––––––––––––––––––––––––-
1 | 0:00.00 | 1:35.24 | 0 | 7148
2 | 1:35.24 | 0:34.54 | 7149 | 9752
3 | 2:10.03 | 11:13.57 | 9753 | 60284
4 | 13:23.60 | 1:58.60 | 60285 | 69194
5 | 15:22.45 | 8:16.07 | 69195 | 106401
6 | 23:38.52 | 0:48.37 | 106402 | 110038
7 | 24:27.14 | 9:01.24 | 110039 | 150637
8 | 33:28.38 | 5:29.59 | 150638 | 175371
9 | 38:58.22 | 1:17.65 | 175372 | 181211
10 | 40:16.12 | 4:51.67 | 181212 | 203103
11 | 45:08.04 | 1:09.29 | 203104 | 208307
12 | 46:17.33 | 5:01.38 | 208308 | 230920


Характеристики диапазона извлечения и сообщения об ошибках

Выбранный диапазон

Имя файла D:\TEMP\CAMEMBERT - 2011 - Schnorgl Attahk.wav

Пиковый уровень 97.7 %
Качество диапазона 100.0 %
CRC теста 593C2AD7
CRC копии 593C2AD7
Копирование… OK

Ошибок не произошло


AccurateRip: сводка

Трек 1 нет в базе данных
Трек 2 нет в базе данных
Трек 3 нет в базе данных
Трек 4 нет в базе данных
Трек 5 нет в базе данных
Трек 6 нет в базе данных
Трек 7 нет в базе данных
Трек 8 нет в базе данных
Трек 9 нет в базе данных
Трек 10 нет в базе данных
Трек 11 нет в базе данных
Трек 12 нет в базе данных

Ни одного трека нет в базе AccurateRip

Конец отчёта

[CUETools log; Date: 24.09.2016 14:46:30; Version: 2.1.5]
[CTDB TOCID: kkWzRvKsW1U_n85KgrSvWzV2Lq0-] found.
Track | CTDB Status
1 | (3/3) Accurately ripped
2 | (3/3) Accurately ripped
3 | (3/3) Accurately ripped
4 | (3/3) Accurately ripped
5 | (3/3) Accurately ripped
6 | (3/3) Accurately ripped
7 | (3/3) Accurately ripped
8 | (3/3) Accurately ripped
9 | (3/3) Accurately ripped
10 | (3/3) Accurately ripped
11 | (3/3) Accurately ripped
12 | (3/3) Accurately ripped
[AccurateRip ID: 001713ba-00db47b7-8d0c060c] found.
Track [ CRC | V2 ] Status
01 [c41c06d7|2383e0cd] (0+5/5) Accurately ripped
02 [0cda487e|2b8a0bea] (0+5/5) Accurately ripped
03 [3c5ef138|c015cad8] (0+5/5) Accurately ripped
04 [52473dd6|225a895a] (0+5/5) Accurately ripped
05 [69c514ed|00d73f25] (0+5/5) Accurately ripped
06 [080938da|14cfc57e] (0+5/5) Accurately ripped
07 [39fe5209|45b32e19] (0+5/5) Accurately ripped
08 [b991a1d3|eb1241b9] (0+5/5) Accurately ripped
09 [b351744c|c225a578] (0+5/5) Accurately ripped
10 [d81e5abb|02518421] (0+5/5) Accurately ripped
11 [6474bfe6|95f1f3bc] (0+5/5) Accurately ripped
12 [e4f1f876|2c6d9f34] (0+5/5) Accurately ripped

Track Peak [ CRC32 ] [W/O NULL] [ LOG ]
– 97,7 [593C2AD7] [B173ED8E] CRC32
01 77,6 [C41C800D] [EE13EEEC]
02 97,7 [193BB79E] [8907E64E]
03 95,0 [4A2EE0EB] [3D2775EE]
04 97,7 [78F6A116] [AC6D951F]
05 94,3 [85ABB189] [C1E3608C]
06 94,9 [36715A7A] [A580491E]
07 97,7 [08DBCBBE] [F2ED2A60]
08 94,3 [BA2ABAFF] [2FAFF497]
09 94,4 [A5B93B05] [53DA7763]
10 97,7 [4552EF3E] [0FC6EFA4]
11 86,0 [0673EC1D] [EE0BC1A7]
12 95,4 [8359CEF3] [A82A025E]


Musicians

- Bertrand Eber / trumpet, didgeridoo, cowbell, voices, whistle
- Vincent Sexauer / electric guitar
- Francesco Zago / electric guitar
- Guillaume Gravelin / harp
- Julien Travelletti / bass trombone, tuba
- Pierre Wawrzyniak / bass, acoustic guitar, voices
- Fabrice Toussaint / tenor trombone, xybraphone, congas, tam-tam, triangle, many other percussions
- Philémon Walter / drums

Camembert — Schnörgl Attahk (2011)

All thanks goes to spAceLover
=====