Subcategories

VA - Country Sweet 'N' Sentimental (4CD) (1993) {Reader's Digest}

Posted By: TestTickles
VA - Country Sweet 'N' Sentimental (4CD) (1993) {Reader's Digest}

VA - Country Sweet 'N' Sentimental (4CD) (1993) {Reader's Digest}
EAC Rip | FLAC with CUE and log | scans | 1.19 gb (615 mb + 606 mb)
MP3 CBR 320kbps | RAR | 532 mb
Genre: country

Country Sweet 'N' Sentimental is a 4CD box set/compilation released in 1993 by Reader's Digest. It features an incredible amount of classic country songs by the genre's most influential and respected artists.

VA - Country Sweet 'N' Sentimental (4CD) (1993) {Reader's Digest}

DISC 1
Thinkin' 'Bout Love
1. Ronnie Milsap with Nashville Edition And Strings - I Honestly Love You (3:25)
2. Crystal Gayle - Somebody Loves You (2:25)
3. Eddy Arnold - Mary In The Morning (3:05)
4. Barbara Mandrell - I Love You Because (3:09)
5. Loretta Lynn & Conway Twitty - Never Ending Song Of Love (2:18)
6. Patsy Cline - That's My Desire (3:01)
7. Jim Ed Brown & Helen Cornelius - Have I Told You Lately That I Love You? (3:00)
8. Bobby Goldsboro - Roses Are Red (My Love) (3:09)
9. Dolly Parton - Think About Love (3:17)
10. Charley Pride with The Jordanaires - I Can't Help It (If I'm Still In Love With You) (2:31)
11. The Statler Brothers - All I Have To Offer You Is Me (3:25)
Thinkin' 'Bout The Lonely Times
12. Elvis Presley - It Keeps Right On A-Hurtin' (2:37)
13. Patsy Cline - Have You Ever Been Lonely (Have You Ever Been Blue?) (2:11)
14. Loretta Lynn - She's Got You (3:05)
15. Johnny Cash - Oh, Lonesome Me (2:28)
16. Jeannie C. Riley - Help Me Make It Through The Night (2:18)
17. Merle Haggard - Walking The Floor Over You (1:46)
18. Donna Fargo - Before The Next Teardrop Falls (2:40)
19. Patsy Cline - Someday (You'll Want Me To Want You) (2:51)
20. Johnny Cash - Cold, Cold Heart (2:19)
21. Dottie West with The Jordanaires - I'm So Lonely I Could Cry (3:01)

DISC 2
Thinkin' 'Bout Her
1. Lee Greenwood - I Don't Mind The Thorns (If You're The Rose) (3:21)
2. Marty Robbins - Walking Piece Of Heaven (3:04)
3. Conway Twitty - The Tip Of My Fingers (2:36)
4. Steve Wariner with The Shelly Kurland Strings - All Roads Lead To You (3:27)
5. Keith Whitley - I Wonder Do You Think Of Me (3:15)
6. Kenny Rogers & The First Edition - But You Know I Love You (3:00)
7. Sonny James - Born To Be With You (2:35)
8. Jim Reeves - I Can't Stop Loving You (2:46)
9. Marty Robbins - Love Me (4:19)
10. Merle Haggard - Today I Started Loving You Again (2:20)
Thinkin' 'Bout The Good Times
11. Jim Reeves - Dear Hearts And Gentle People (2:04)
12. Patsy Cline - Love Letters In The Sand (2:23)
13. The Statler Brothers - I Believe In Music (3:05)
14. Tanya Tucker - San Antonio Stroll (2:48)
15. Eddy Arnold - What A Wonderful World (2:28)
16. George Hamilton IV - Gentle On My Mind (2:29)
17. Dickey Lee - Mountain Of Love (2:32)
18. Bill Anderson - Little Green Apples (3:10)
19. George Jones - Hey, Good Lookin' (2:17)
20. Brenda Lee - Jambalaya (On The Bayou) (2:43)

DISC 3
Thinkin' 'Bout Him
1. Dolly Parton - Send Me The Pillow You Dream On (2:57
2. Reba McEntire - Only You (And You Alone) (2:48
3. Kathy Mattea - Eighteen Wheels And A Dozen Roses (3:21
4. Tanya Tucker - Love Me Like You Used To (2:45
5. Patsy Cline - I Love You So Much It Hurts (2:12
6. Patti Page - Please Help Me, I'm Falling (In Love With You) (2:29
7. K.T. Oslin - Hold Me (4:40
8. Loretta Lynn - My Shoes Keep Walking Back To You (2:34
9. Dottie West - You Don't Know Me (2:39
10. Jeannie C. Riley - Wish You Were Here (2:08
Thinkin' 'Bout This 'N' That
11. Conway Twitty - By The Time I Get To Phoenix (2:38
12. Ferlin Husky - Just For Old Times' Sake (3:06
13. Jimmy Dean & Dottie West with The Jordanaires - For The Good Times (3:40
14. Jerry Lee Lewis - She Even Woke Me Up To Say Goodbye (2:41
15. Charley Pride - Guess Things Happen That Way (1:53
16. Don Gibson with The Jordanaires - Funny, Familiar, Forgotten Feelings (2:10
17. Crystal Gayle - The Wayward Wind (2:52
18. Red Foley - That Lucky Old Sun (Just Rolls Around Heaven All Day) (3:10
19. Skeeter Davis - Both Sides Now (3:26
20. Webb Pierce - Gotta Travel On (3:07

DISC 4
Thinkin' 'Bout Home
01. The Statler Brothers - Take Me Home, Country Roads (2:53)
02. Jim Ed Brown - Detroit City (2:43)
03. Alabama - Song Of The South (3:13)
04. Glen Campbell - Homeward Bound (2:41)
05. Dolly Parton - Tennessee Homesick Blues (3:23)
06. Bill Anderson - Saginaw, Michigan (3:14)
07. Conway Twitty - Green, Green, Grass Of Home (2:30)
08. Merle Haggard - The Roots Of My Raising (2:47)
09. Earl Thomas Conley - Smokey Mountain Memories (3:26)
Thinkin' 'Bout The Lord
10. Charley Pride - Wings Of A Dove (2:29)
11. Skeeter Davis - Precious Memories (2:48)
12. Jimmy Dean - Mama Sang A Song (3:20)
13. Loretta Lynn - He Got The Whole World In His Hands (2:29)
14. The Browns featuring Jim Ed Brown - The Great Speckled Bird (2:36)
15. Jimmy Dean - Just A Closer Walk With Thee (3:01)
16. Connie Smith - How Great Thou Art (4:13)
17. Elvis Presley - Put Your Hand In The Hand (3:17)
18. Jim Reeves - In The Garden (2:20)
19. Red Foley - The Church In The Wildwood (2:10)
20. Loretta Lynn - I Believe (2:32)

VA - Country Sweet 'N' Sentimental (4CD) (1993) {Reader's Digest}


Exact Audio Copy V1.1 from 23. June 2015

EAC extraction logfile from 5. August 2016, 13:21

Various Artists / Country Sweet 'N' Sentimental (Disc 1)

Used drive : TEAC DVD-ROM DV-28SW Adapter: 1 ID: 0

Read mode : Secure
Utilize accurate stream : Yes
Defeat audio cache : Yes
Make use of C2 pointers : No

Read offset correction : 6
Overread into Lead-In and Lead-Out : No
Fill up missing offset samples with silence : Yes
Delete leading and trailing silent blocks : No
Null samples used in CRC calculations : Yes
Used interface : Native Win32 interface for Win NT & 2000
Gap handling : Appended to previous track

Used output format : Internal WAV Routines
Sample format : 44.100 Hz; 16 Bit; Stereo


TOC of the extracted CD

Track | Start | Length | Start sector | End sector
––––––––––––––––––––––––––––-
1 | 0:00.37 | 3:28.00 | 37 | 15636
2 | 3:28.37 | 2:27.23 | 15637 | 26684
3 | 5:55.60 | 3:07.55 | 26685 | 40764
4 | 9:03.40 | 3:11.62 | 40765 | 55151
5 | 12:15.27 | 2:21.00 | 55152 | 65726
6 | 14:36.27 | 3:03.63 | 65727 | 79514
7 | 17:40.15 | 3:02.17 | 79515 | 93181
8 | 20:42.32 | 3:12.43 | 93182 | 107624
9 | 23:55.00 | 3:19.25 | 107625 | 122574
10 | 27:14.25 | 2:34.15 | 122575 | 134139
11 | 29:48.40 | 3:27.25 | 134140 | 149689
12 | 33:15.65 | 2:39.72 | 149690 | 161686
13 | 35:55.62 | 2:13.55 | 161687 | 171716
14 | 38:09.42 | 3:07.23 | 171717 | 185764
15 | 41:16.65 | 2:31.30 | 185765 | 197119
16 | 43:48.20 | 2:20.50 | 197120 | 207669
17 | 46:08.70 | 1:47.52 | 207670 | 215746
18 | 47:56.47 | 2:42.53 | 215747 | 227949
19 | 50:39.25 | 2:53.20 | 227950 | 240944
20 | 53:32.45 | 2:21.27 | 240945 | 251546
21 | 55:53.72 | 3:02.40 | 251547 | 265236


Track 1

Filename C:\My Documents\My FLAC\VA - Country Sweet 'N' Sentimental (4CD) (1993) [FLAC] {Reader's Digest}\Disc 1\01 - Ronnie Milsap With The Nashville Edition & Strings - I Honestly Love You.wav

Pre-gap length 0:00:02.37

Peak level 90.3 %
Extraction speed 1.2 X
Track quality 100.0 %
Test CRC 4B1EBD46
Copy CRC 4B1EBD46
Accurately ripped (confidence 2) [6FCC036F] (AR v2)
Copy OK

Track 2

Filename C:\My Documents\My FLAC\VA - Country Sweet 'N' Sentimental (4CD) (1993) [FLAC] {Reader's Digest}\Disc 1\02 - Crystal Gayle - Somebody Loves You.wav

Pre-gap length 0:00:02.55

Peak level 69.4 %
Extraction speed 1.2 X
Track quality 100.0 %
Test CRC BBF14826
Copy CRC BBF14826
Accurately ripped (confidence 2) [16AAAED2] (AR v2)
Copy OK

Track 3

Filename C:\My Documents\My FLAC\VA - Country Sweet 'N' Sentimental (4CD) (1993) [FLAC] {Reader's Digest}\Disc 1\03 - Eddy Arnold - Mary In The Morning.wav

Pre-gap length 0:00:03.12

Peak level 68.7 %
Extraction speed 1.3 X
Track quality 100.0 %
Test CRC A5EEFF50
Copy CRC A5EEFF50
Accurately ripped (confidence 2) [32F68C70] (AR v2)
Copy OK

Track 4

Filename C:\My Documents\My FLAC\VA - Country Sweet 'N' Sentimental (4CD) (1993) [FLAC] {Reader's Digest}\Disc 1\04 - Barbara Mandrell - I Love You Because.wav

Pre-gap length 0:00:02.32

Peak level 76.5 %
Extraction speed 1.4 X
Track quality 100.0 %
Test CRC B5FDB2D8
Copy CRC B5FDB2D8
Accurately ripped (confidence 2) [242B051E] (AR v2)
Copy OK

Track 5

Filename C:\My Documents\My FLAC\VA - Country Sweet 'N' Sentimental (4CD) (1993) [FLAC] {Reader's Digest}\Disc 1\05 - Loretta Lynn & Conway Twitty - Never Ending Song Of Love.wav

Pre-gap length 0:00:02.62

Peak level 75.9 %
Extraction speed 1.4 X
Track quality 100.0 %
Test CRC 51C33AD0
Copy CRC 51C33AD0
Accurately ripped (confidence 2) [ED894EE3] (AR v2)
Copy OK

Track 6

Filename C:\My Documents\My FLAC\VA - Country Sweet 'N' Sentimental (4CD) (1993) [FLAC] {Reader's Digest}\Disc 1\06 - Patsy Cline - That's My Desire.wav

Pre-gap length 0:00:02.47

Peak level 79.9 %
Extraction speed 1.5 X
Track quality 100.0 %
Test CRC BD4DEE15
Copy CRC BD4DEE15
Accurately ripped (confidence 2) [4933D5DF] (AR v2)
Copy OK

Track 7

Filename C:\My Documents\My FLAC\VA - Country Sweet 'N' Sentimental (4CD) (1993) [FLAC] {Reader's Digest}\Disc 1\07 - Jim Ed Brown & Helen Cornelius - Have I Told You Lately That I Love You.wav

Pre-gap length 0:00:02.32

Peak level 77.8 %
Extraction speed 1.4 X
Track quality 99.9 %
Test CRC DF17D1EE
Copy CRC DF17D1EE
Accurately ripped (confidence 2) [996892BB] (AR v2)
Copy OK

Track 8

Filename C:\My Documents\My FLAC\VA - Country Sweet 'N' Sentimental (4CD) (1993) [FLAC] {Reader's Digest}\Disc 1\08 - Bobby Goldsboro - Roses Are Red (My Love).wav

Pre-gap length 0:00:02.57

Peak level 82.4 %
Extraction speed 1.5 X
Track quality 99.9 %
Test CRC 28D42F02
Copy CRC 28D42F02
Accurately ripped (confidence 2) [96E175DF] (AR v2)
Copy OK

Track 9

Filename C:\My Documents\My FLAC\VA - Country Sweet 'N' Sentimental (4CD) (1993) [FLAC] {Reader's Digest}\Disc 1\09 - Dolly Parton - Think About Love.wav

Pre-gap length 0:00:02.72

Peak level 81.8 %
Extraction speed 1.8 X
Track quality 100.0 %
Test CRC 4B9BECE9
Copy CRC 4B9BECE9
Accurately ripped (confidence 2) [B7C4F1CD] (AR v2)
Copy OK

Track 10

Filename C:\My Documents\My FLAC\VA - Country Sweet 'N' Sentimental (4CD) (1993) [FLAC] {Reader's Digest}\Disc 1\10 - Charley Pride with The Jordanaires - I Can't Help It.wav

Pre-gap length 0:00:02.70

Peak level 78.6 %
Extraction speed 1.7 X
Track quality 100.0 %
Test CRC FB56CEDE
Copy CRC FB56CEDE
Accurately ripped (confidence 2) [F6A25B55] (AR v2)
Copy OK

Track 11

Filename C:\My Documents\My FLAC\VA - Country Sweet 'N' Sentimental (4CD) (1993) [FLAC] {Reader's Digest}\Disc 1\11 - The Statler Brothers - All I Have To Offer You Is Me.wav

Pre-gap length 0:00:02.72

Peak level 81.0 %
Extraction speed 1.9 X
Track quality 100.0 %
Test CRC 4AA8678B
Copy CRC 4AA8678B
Accurately ripped (confidence 2) [3A3D05C7] (AR v2)
Copy OK

Track 12

Filename C:\My Documents\My FLAC\VA - Country Sweet 'N' Sentimental (4CD) (1993) [FLAC] {Reader's Digest}\Disc 1\12 - Elvis Presley - It Keeps Right On Hurtin'.wav

Pre-gap length 0:00:02.55

Peak level 86.4 %
Extraction speed 1.9 X
Track quality 100.0 %
Test CRC 717F6636
Copy CRC 717F6636
Accurately ripped (confidence 2) [BD4E79F3] (AR v2)
Copy OK

Track 13

Filename C:\My Documents\My FLAC\VA - Country Sweet 'N' Sentimental (4CD) (1993) [FLAC] {Reader's Digest}\Disc 1\13 - Patsy Cline - Have You Ever Been Lonely.wav

Pre-gap length 0:00:02.62

Peak level 65.9 %
Extraction speed 1.9 X
Track quality 100.0 %
Test CRC C245FD92
Copy CRC C245FD92
Accurately ripped (confidence 2) [19F25C8B] (AR v2)
Copy OK

Track 14

Filename C:\My Documents\My FLAC\VA - Country Sweet 'N' Sentimental (4CD) (1993) [FLAC] {Reader's Digest}\Disc 1\14 - Loretta Lynn - SHes Got You.wav

Pre-gap length 0:00:03.10

Peak level 78.6 %
Extraction speed 2.0 X
Track quality 100.0 %
Test CRC B9609150
Copy CRC B9609150
Accurately ripped (confidence 2) [2CCC7E19] (AR v2)
Copy OK

Track 15

Filename C:\My Documents\My FLAC\VA - Country Sweet 'N' Sentimental (4CD) (1993) [FLAC] {Reader's Digest}\Disc 1\15 - Johnny Cash - Oh, Lonesome Mee.wav

Pre-gap length 0:00:02.32

Peak level 69.0 %
Extraction speed 1.7 X
Track quality 99.9 %
Test CRC F48AEF7E
Copy CRC F48AEF7E
Accurately ripped (confidence 2) [AEE5FFDC] (AR v2)
Copy OK

Track 16

Filename C:\My Documents\My FLAC\VA - Country Sweet 'N' Sentimental (4CD) (1993) [FLAC] {Reader's Digest}\Disc 1\16 - Jeannie C. Riley - Help Me Make It Through The Night.wav

Pre-gap length 0:00:03.07

Peak level 77.9 %
Extraction speed 2.0 X
Track quality 100.0 %
Test CRC 665C84C3
Copy CRC 665C84C3
Accurately ripped (confidence 2) [BA69AD67] (AR v2)
Copy OK

Track 17

Filename C:\My Documents\My FLAC\VA - Country Sweet 'N' Sentimental (4CD) (1993) [FLAC] {Reader's Digest}\Disc 1\17 - Merle Haggard - Walking The Floor Over You.wav

Pre-gap length 0:00:02.55

Peak level 64.0 %
Extraction speed 1.9 X
Track quality 100.0 %
Test CRC A3D530A4
Copy CRC A3D530A4
Accurately ripped (confidence 2) [A66813E2] (AR v2)
Copy OK

Track 18

Filename C:\My Documents\My FLAC\VA - Country Sweet 'N' Sentimental (4CD) (1993) [FLAC] {Reader's Digest}\Disc 1\18 - Donna Fargo - Before The Next Teardrop Falls.wav

Pre-gap length 0:00:03.00

Peak level 81.7 %
Extraction speed 2.1 X
Track quality 100.0 %
Test CRC 8C3AD3A3
Copy CRC 8C3AD3A3
Accurately ripped (confidence 2) [7B7E9CA3] (AR v2)
Copy OK

Track 19

Filename C:\My Documents\My FLAC\VA - Country Sweet 'N' Sentimental (4CD) (1993) [FLAC] {Reader's Digest}\Disc 1\19 - Patsy Cline - Someday.wav

Pre-gap length 0:00:02.50

Peak level 75.5 %
Extraction speed 1.9 X
Track quality 99.9 %
Test CRC 6E0FAB16
Copy CRC 6E0FAB16
Accurately ripped (confidence 2) [BD73141A] (AR v2)
Copy OK

Track 20

Filename C:\My Documents\My FLAC\VA - Country Sweet 'N' Sentimental (4CD) (1993) [FLAC] {Reader's Digest}\Disc 1\20 - Johnny Cash - Cold, Cold Heart.wav

Pre-gap length 0:00:02.47

Peak level 78.9 %
Extraction speed 1.7 X
Track quality 100.0 %
Test CRC 6E5D9BC1
Copy CRC 6E5D9BC1
Accurately ripped (confidence 2) [AC3F9515] (AR v2)
Copy OK

Track 21

Filename C:\My Documents\My FLAC\VA - Country Sweet 'N' Sentimental (4CD) (1993) [FLAC] {Reader's Digest}\Disc 1\21 - Dottie West with The Jordanaires - I'm So Lonesome I Could Cry.wav

Pre-gap length 0:00:02.72

Peak level 71.7 %
Extraction speed 2.2 X
Track quality 100.0 %
Test CRC 0F380228
Copy CRC 0F380228
Accurately ripped (confidence 2) [05B2F1C0] (AR v2)
Copy OK


All tracks accurately ripped

No errors occurred

End of status report

–– CUETools DB Plugin V2.1.6

[CTDB TOCID: UxDYyqSr4OYXvoGiqaan9AU0E3M-] disk not present in database
Submit result: UxDYyqSr4OYXvoGiqaan9AU0E3M- has been uploaded


==== Log checksum A3242AF7A3A8F26F1DA75C76F8B4A1338F94C5E335DF9C338EE69ED55E49D015 ====







Exact Audio Copy V1.1 from 23. June 2015

EAC extraction logfile from 5. August 2016, 14:06

Various Artists / Country Sweet'N' Sentimental (Disc 2)

Used drive : TEAC DVD-ROM DV-28SW Adapter: 1 ID: 0

Read mode : Secure
Utilize accurate stream : Yes
Defeat audio cache : Yes
Make use of C2 pointers : No

Read offset correction : 6
Overread into Lead-In and Lead-Out : No
Fill up missing offset samples with silence : Yes
Delete leading and trailing silent blocks : No
Null samples used in CRC calculations : Yes
Used interface : Native Win32 interface for Win NT & 2000
Gap handling : Appended to previous track

Used output format : Internal WAV Routines
Sample format : 44.100 Hz; 16 Bit; Stereo


TOC of the extracted CD

Track | Start | Length | Start sector | End sector
––––––––––––––––––––––––––––-
1 | 0:00.37 | 3:25.43 | 37 | 15454
2 | 3:26.05 | 3:06.35 | 15455 | 29439
3 | 6:32.40 | 2:38.05 | 29440 | 41294
4 | 9:10.45 | 3:30.47 | 41295 | 57091
5 | 12:41.17 | 3:17.35 | 57092 | 71901
6 | 15:58.52 | 3:02.45 | 71902 | 85596
7 | 19:01.22 | 2:38.00 | 85597 | 97446
8 | 21:39.22 | 2:49.10 | 97447 | 110131
9 | 24:28.32 | 4:22.00 | 110132 | 129781
10 | 28:50.32 | 2:23.15 | 129782 | 140521
11 | 31:13.47 | 2:06.73 | 140522 | 150044
12 | 33:20.45 | 2:26.20 | 150045 | 161014
13 | 35:46.65 | 3:07.32 | 161015 | 175071
14 | 38:54.22 | 2:51.13 | 175072 | 187909
15 | 41:45.35 | 2:31.05 | 187910 | 199239
16 | 44:16.40 | 2:29.57 | 199240 | 210471
17 | 46:46.22 | 2:34.13 | 210472 | 222034
18 | 49:20.35 | 3:11.67 | 222035 | 236426
19 | 52:32.27 | 2:19.23 | 236427 | 246874
20 | 54:51.50 | 2:45.62 | 246875 | 259311


Track 1

Filename C:\My Documents\My FLAC\VA - Country Sweet 'N' Sentimental (4CD) (1993) [FLAC] {Reader's Digest}\Disc 2\01 - Lee Greenwood - I Don't Mind The Thorns (If You're The Rose).wav

Pre-gap length 0:00:02.37

Peak level 91.7 %
Extraction speed 2.8 X
Track quality 100.0 %
Test CRC 0E46C6E1
Copy CRC 0E46C6E1
Accurately ripped (confidence 1) [1845099C] (AR v2)
Copy OK

Track 2

Filename C:\My Documents\My FLAC\VA - Country Sweet 'N' Sentimental (4CD) (1993) [FLAC] {Reader's Digest}\Disc 2\02 - Marty Robbins - Walking Piece Of Heaven.wav

Pre-gap length 0:00:03.05

Peak level 94.5 %
Extraction speed 2.9 X
Track quality 100.0 %
Test CRC B4988E93
Copy CRC B4988E93
Accurately ripped (confidence 1) [6051CC4F] (AR v2)
Copy OK

Track 3

Filename C:\My Documents\My FLAC\VA - Country Sweet 'N' Sentimental (4CD) (1993) [FLAC] {Reader's Digest}\Disc 2\03 - Conway Twitty - The Tips Of My Fingers.wav

Pre-gap length 0:00:03.05

Peak level 80.4 %
Extraction speed 3.0 X
Track quality 100.0 %
Test CRC 21A8D89F
Copy CRC 21A8D89F
Accurately ripped (confidence 1) [519AB051] (AR v2)
Copy OK

Track 4

Filename C:\My Documents\My FLAC\VA - Country Sweet 'N' Sentimental (4CD) (1993) [FLAC] {Reader's Digest}\Disc 2\04 - Steve Wariner with The Shelly Kurland Strings - All Roads Lead To You.wav

Pre-gap length 0:00:02.72

Peak level 82.8 %
Extraction speed 3.4 X
Track quality 100.0 %
Test CRC FAA1F7BE
Copy CRC FAA1F7BE
Accurately ripped (confidence 1) [A8D3ED87] (AR v2)
Copy OK

Track 5

Filename C:\My Documents\My FLAC\VA - Country Sweet 'N' Sentimental (4CD) (1993) [FLAC] {Reader's Digest}\Disc 2\05 - Keith Whitley - I Wonder Do You Think Of Me.wav

Pre-gap length 0:00:02.70

Peak level 83.4 %
Extraction speed 3.6 X
Track quality 100.0 %
Test CRC 825E663C
Copy CRC 825E663C
Accurately ripped (confidence 1) [A35B88D0] (AR v2)
Copy OK

Track 6

Filename C:\My Documents\My FLAC\VA - Country Sweet 'N' Sentimental (4CD) (1993) [FLAC] {Reader's Digest}\Disc 2\06 - Kenny Rogers & The First Edition - But You Know I Love You.wav

Pre-gap length 0:00:03.00

Peak level 82.6 %
Extraction speed 3.0 X
Track quality 99.9 %
Test CRC 9323B6F4
Copy CRC 9323B6F4
Accurately ripped (confidence 1) [9A558919] (AR v2)
Copy OK

Track 7

Filename C:\My Documents\My FLAC\VA - Country Sweet 'N' Sentimental (4CD) (1993) [FLAC] {Reader's Digest}\Disc 2\07 - Sonny James - Born To Be With You.wav

Pre-gap length 0:00:02.65

Peak level 72.0 %
Extraction speed 2.9 X
Track quality 99.9 %
Test CRC B894338B
Copy CRC B894338B
Accurately ripped (confidence 1) [B4C97710] (AR v2)
Copy OK

Track 8

Filename C:\My Documents\My FLAC\VA - Country Sweet 'N' Sentimental (4CD) (1993) [FLAC] {Reader's Digest}\Disc 2\08 - Jim Reeves - I Can't Stop Loving You.wav

Pre-gap length 0:00:03.22

Peak level 75.8 %
Extraction speed 3.9 X
Track quality 100.0 %
Test CRC B6132DA9
Copy CRC B6132DA9
Accurately ripped (confidence 1) [62A8A70C] (AR v2)
Copy OK

Track 9

Filename C:\My Documents\My FLAC\VA - Country Sweet 'N' Sentimental (4CD) (1993) [FLAC] {Reader's Digest}\Disc 2\09 - Marty Robbins - Love Me.wav

Pre-gap length 0:00:02.70

Peak level 70.6 %
Extraction speed 4.3 X
Track quality 100.0 %
Test CRC 9C6DE346
Copy CRC 9C6DE346
Accurately ripped (confidence 1) [8328BCA9] (AR v2)
Copy OK

Track 10

Filename C:\My Documents\My FLAC\VA - Country Sweet 'N' Sentimental (4CD) (1993) [FLAC] {Reader's Digest}\Disc 2\10 - Merle Haggard - Today I Started Loving You Again.wav

Pre-gap length 0:00:03.20

Peak level 74.7 %
Extraction speed 3.8 X
Track quality 100.0 %
Test CRC 8808E833
Copy CRC 8808E833
Accurately ripped (confidence 1) [C46A7FE5] (AR v2)
Copy OK

Track 11

Filename C:\My Documents\My FLAC\VA - Country Sweet 'N' Sentimental (4CD) (1993) [FLAC] {Reader's Digest}\Disc 2\11 - Jim Reeves - Dear Hearts And Gentle People.wav

Pre-gap length 0:00:03.02

Peak level 75.2 %
Extraction speed 3.7 X
Track quality 100.0 %
Test CRC F239BEA7
Copy CRC F239BEA7
Accurately ripped (confidence 1) [986D358F] (AR v2)
Copy OK

Track 12

Filename C:\My Documents\My FLAC\VA - Country Sweet 'N' Sentimental (4CD) (1993) [FLAC] {Reader's Digest}\Disc 2\12 - Patsy Cline - Love Letters In The Sand.wav

Pre-gap length 0:00:03.15

Peak level 77.4 %
Extraction speed 4.3 X
Track quality 100.0 %
Test CRC 4E0C8978
Copy CRC 4E0C8978
Accurately ripped (confidence 1) [2EFF6350] (AR v2)
Copy OK

Track 13

Filename C:\My Documents\My FLAC\VA - Country Sweet 'N' Sentimental (4CD) (1993) [FLAC] {Reader's Digest}\Disc 2\13 - The Statler Brothers - I Believe In Music.wav

Pre-gap length 0:00:02.32

Peak level 78.4 %
Extraction speed 4.0 X
Track quality 100.0 %
Test CRC B032C01C
Copy CRC B032C01C
Accurately ripped (confidence 1) [BC1AA2DB] (AR v2)
Copy OK

Track 14

Filename C:\My Documents\My FLAC\VA - Country Sweet 'N' Sentimental (4CD) (1993) [FLAC] {Reader's Digest}\Disc 2\14 - Tanya Tucker - San Antonio Stroll.wav

Pre-gap length 0:00:03.02

Peak level 92.6 %
Extraction speed 4.5 X
Track quality 100.0 %
Test CRC B3E56006
Copy CRC B3E56006
Accurately ripped (confidence 1) [3429BF11] (AR v2)
Copy OK

Track 15

Filename C:\My Documents\My FLAC\VA - Country Sweet 'N' Sentimental (4CD) (1993) [FLAC] {Reader's Digest}\Disc 2\15 - Eddy Arnold - What A Wonderful World.wav

Pre-gap length 0:00:03.10

Peak level 84.6 %
Extraction speed 3.5 X
Track quality 99.9 %
Test CRC A3971602
Copy CRC A3971602
Accurately ripped (confidence 1) [45468228] (AR v2)
Copy OK

Track 16

Filename C:\My Documents\My FLAC\VA - Country Sweet 'N' Sentimental (4CD) (1993) [FLAC] {Reader's Digest}\Disc 2\16 - George Hamilton IV - Gentle On My Mind.wav

Pre-gap length 0:00:02.65

Peak level 73.1 %
Extraction speed 4.0 X
Track quality 100.0 %
Test CRC A2BB0494
Copy CRC A2BB0494
Accurately ripped (confidence 1) [4EB24D4C] (AR v2)
Copy OK

Track 17

Filename C:\My Documents\My FLAC\VA - Country Sweet 'N' Sentimental (4CD) (1993) [FLAC] {Reader's Digest}\Disc 2\17 - Dickey Lee - Mountain Of Love.wav

Pre-gap length 0:00:02.52

Peak level 92.8 %
Extraction speed 4.6 X
Track quality 100.0 %
Test CRC 8F8E6A47
Copy CRC 8F8E6A47
Accurately ripped (confidence 1) [4367E973] (AR v2)
Copy OK

Track 18

Filename C:\My Documents\My FLAC\VA - Country Sweet 'N' Sentimental (4CD) (1993) [FLAC] {Reader's Digest}\Disc 2\18 - Bill Anderson - Little Green Apples.wav

Pre-gap length 0:00:02.72

Peak level 78.2 %
Extraction speed 4.1 X
Track quality 99.9 %
Test CRC 2DD1296C
Copy CRC 2DD1296C
Accurately ripped (confidence 1) [4A03F65E] (AR v2)
Copy OK

Track 19

Filename C:\My Documents\My FLAC\VA - Country Sweet 'N' Sentimental (4CD) (1993) [FLAC] {Reader's Digest}\Disc 2\19 - George Jones - Hey, Good Lookin'.wav

Pre-gap length 0:00:02.50

Peak level 69.2 %
Extraction speed 4.6 X
Track quality 100.0 %
Test CRC 71F1AD5C
Copy CRC 71F1AD5C
Accurately ripped (confidence 1) [C84D2C38] (AR v2)
Copy OK

Track 20

Filename C:\My Documents\My FLAC\VA - Country Sweet 'N' Sentimental (4CD) (1993) [FLAC] {Reader's Digest}\Disc 2\20 - Brenda Lee - Jambalaya.wav

Pre-gap length 0:00:02.67

Peak level 73.3 %
Extraction speed 0.4 X
Track quality 100.0 %
Test CRC DA73F4EC
Copy CRC DA73F4EC
Accurately ripped (confidence 1) [38E679EA] (AR v2)
Copy OK


All tracks accurately ripped

No errors occurred

End of status report

–– CUETools DB Plugin V2.1.6

[CTDB TOCID: 5PDtNLVVskYEPy_8r5F1EqYDN1g-] disk not present in database
Submit result: 5PDtNLVVskYEPy_8r5F1EqYDN1g- has been uploaded


==== Log checksum ECEE028944213002134D28B7A87E1B04C87D7E8173ECC2EC64ABA516E356C7FD ====







Exact Audio Copy V1.1 from 23. June 2015

EAC extraction logfile from 5. August 2016, 15:00

Various Artists / Country Sweet'N'Sentimental (Disc 3)

Used drive : TEAC DVD-ROM DV-28SW Adapter: 1 ID: 0

Read mode : Secure
Utilize accurate stream : Yes
Defeat audio cache : Yes
Make use of C2 pointers : No

Read offset correction : 6
Overread into Lead-In and Lead-Out : No
Fill up missing offset samples with silence : Yes
Delete leading and trailing silent blocks : No
Null samples used in CRC calculations : Yes
Used interface : Native Win32 interface for Win NT & 2000
Gap handling : Appended to previous track

Used output format : Internal WAV Routines
Sample format : 44.100 Hz; 16 Bit; Stereo


TOC of the extracted CD

Track | Start | Length | Start sector | End sector
––––––––––––––––––––––––––––-
1 | 0:00.37 | 3:00.28 | 37 | 13564
2 | 3:00.65 | 2:50.62 | 13565 | 26376
3 | 5:51.52 | 3:23.40 | 26377 | 41641
4 | 9:15.17 | 3:48.38 | 41642 | 58779
5 | 13:03.55 | 2:14.32 | 58780 | 68861
6 | 15:18.12 | 2:32.13 | 68862 | 80274
7 | 17:50.25 | 4:42.62 | 80275 | 101486
8 | 22:33.12 | 2:36.45 | 101487 | 113231
9 | 25:09.57 | 2:39.45 | 113232 | 125201
10 | 27:49.27 | 2:10.60 | 125202 | 135011
11 | 30:00.12 | 2:41.03 | 135012 | 147089
12 | 32:41.15 | 3:08.70 | 147090 | 161259
13 | 35:50.10 | 3:42.15 | 161260 | 177924
14 | 39:32.25 | 2:43.47 | 177925 | 190196
15 | 42:15.72 | 1:56.30 | 190197 | 198926
16 | 44:12.27 | 2:13.60 | 198927 | 208961
17 | 46:26.12 | 2:55.08 | 208962 | 222094
18 | 49:21.20 | 3:12.42 | 222095 | 236536
19 | 52:33.62 | 3:28.38 | 236537 | 252174
20 | 56:02.25 | 3:08.12 | 252175 | 266286


Track 1

Filename C:\My Documents\My FLAC\VA - Country Sweet 'N' Sentimental (4CD) (1993) [FLAC] {Reader's Digest}\Disc 3\01 - Dolly Parton - Send Me The Pillow You Dream On.wav

Pre-gap length 0:00:02.37

Peak level 72.7 %
Extraction speed 2.6 X
Track quality 100.0 %
Test CRC 58273F04
Copy CRC 58273F04
Accurately ripped (confidence 1) [2B226817] (AR v2)
Copy OK

Track 2

Filename C:\My Documents\My FLAC\VA - Country Sweet 'N' Sentimental (4CD) (1993) [FLAC] {Reader's Digest}\Disc 3\02 - Reba McEntire - Only You (And You Alone).wav

Pre-gap length 0:00:03.07

Peak level 84.2 %
Extraction speed 2.9 X
Track quality 100.0 %
Test CRC 22D22E87
Copy CRC 22D22E87
Accurately ripped (confidence 1) [78242E7D] (AR v2)
Copy OK

Track 3

Filename C:\My Documents\My FLAC\VA - Country Sweet 'N' Sentimental (4CD) (1993) [FLAC] {Reader's Digest}\Disc 3\03 - Kathy Mattea - 18 Wheels And A Dozen Roses.wav

Pre-gap length 0:00:02.57

Peak level 83.8 %
Extraction speed 2.6 X
Track quality 99.9 %
Test CRC B059117E
Copy CRC B059117E
Accurately ripped (confidence 1) [A27B01BA] (AR v2)
Copy OK

Track 4

Filename C:\My Documents\My FLAC\VA - Country Sweet 'N' Sentimental (4CD) (1993) [FLAC] {Reader's Digest}\Disc 3\04 - Tanya Tucker - Love Me Like You Used To.wav

Pre-gap length 0:00:03.32

Peak level 88.7 %
Extraction speed 3.4 X
Track quality 100.0 %
Test CRC 0FA10842
Copy CRC 0FA10842
Accurately ripped (confidence 1) [EECC4C24] (AR v2)
Copy OK

Track 5

Filename C:\My Documents\My FLAC\VA - Country Sweet 'N' Sentimental (4CD) (1993) [FLAC] {Reader's Digest}\Disc 3\05 - Patsy Cline - I Love You So Much It Hurts.wav

Pre-gap length 0:00:03.30

Peak level 94.4 %
Extraction speed 2.4 X
Track quality 99.9 %
Test CRC 9D9E47AF
Copy CRC 9D9E47AF
Accurately ripped (confidence 1) [F6BFC303] (AR v2)
Copy OK

Track 6

Filename C:\My Documents\My FLAC\VA - Country Sweet 'N' Sentimental (4CD) (1993) [FLAC] {Reader's Digest}\Disc 3\06 - Patti Page - Please Help Me, I'm Falling (In Love With You).wav

Pre-gap length 0:00:02.62

Peak level 77.1 %
Extraction speed 3.5 X
Track quality 100.0 %
Test CRC C0A040D9
Copy CRC C0A040D9
Accurately ripped (confidence 1) [19174921] (AR v2)
Copy OK

Track 7

Filename C:\My Documents\My FLAC\VA - Country Sweet 'N' Sentimental (4CD) (1993) [FLAC] {Reader's Digest}\Disc 3\07 - K.T. Oslin - Hold Me.wav

Pre-gap length 0:00:03.15

Peak level 91.6 %
Extraction speed 3.4 X
Track quality 99.9 %
Test CRC C73A341E
Copy CRC C73A341E
Accurately ripped (confidence 1) [68A82AE3] (AR v2)
Copy OK

Track 8

Filename C:\My Documents\My FLAC\VA - Country Sweet 'N' Sentimental (4CD) (1993) [FLAC] {Reader's Digest}\Disc 3\08 - Loretta Lynn - My Shoes Keep Walking Back To You.wav

Pre-gap length 0:00:02.52

Peak level 82.1 %
Extraction speed 3.8 X
Track quality 100.0 %
Test CRC 41EC606B
Copy CRC 41EC606B
Accurately ripped (confidence 1) [DAA353EF] (AR v2)
Copy OK

Track 9

Filename C:\My Documents\My FLAC\VA - Country Sweet 'N' Sentimental (4CD) (1993) [FLAC] {Reader's Digest}\Disc 3\09 - Dottie West - You Don't Know Me.wav

Pre-gap length 0:00:02.70

Peak level 78.2 %
Extraction speed 3.8 X
Track quality 100.0 %
Test CRC 9F955031
Copy CRC 9F955031
Accurately ripped (confidence 1) [5ED82CBB] (AR v2)
Copy OK

Track 10

Filename C:\My Documents\My FLAC\VA - Country Sweet 'N' Sentimental (4CD) (1993) [FLAC] {Reader's Digest}\Disc 3\10 - Jeannie C. Riley - Wish You Were Here.wav

Pre-gap length 0:00:03.07

Peak level 75.7 %
Extraction speed 2.7 X
Track quality 99.9 %
Test CRC 18CC206C
Copy CRC 18CC206C
Accurately ripped (confidence 1) [405F742B] (AR v2)
Copy OK

Track 11

Filename C:\My Documents\My FLAC\VA - Country Sweet 'N' Sentimental (4CD) (1993) [FLAC] {Reader's Digest}\Disc 3\11 - Conway Twitty - By The Time I Get To Phoenix.wav

Pre-gap length 0:00:03.10

Peak level 72.7 %
Extraction speed 3.9 X
Track quality 100.0 %
Test CRC CD15CFED
Copy CRC CD15CFED
Accurately ripped (confidence 1) [9A24D834] (AR v2)
Copy OK

Track 12

Filename C:\My Documents\My FLAC\VA - Country Sweet 'N' Sentimental (4CD) (1993) [FLAC] {Reader's Digest}\Disc 3\12 - Ferlin Husky - Just For Old Time Sake.wav

Pre-gap length 0:00:03.23

Peak level 92.8 %
Extraction speed 3.9 X
Track quality 100.0 %
Test CRC C098F97A
Copy CRC C098F97A
Accurately ripped (confidence 1) [E3078BBC] (AR v2)
Copy OK

Track 13

Filename C:\My Documents\My FLAC\VA - Country Sweet 'N' Sentimental (4CD) (1993) [FLAC] {Reader's Digest}\Disc 3\13 - Jimmy Dean & Dottie West with The Jordanaires - For The Good Times.wav

Pre-gap length 0:00:02.65

Peak level 68.6 %
Extraction speed 4.8 X
Track quality 100.0 %
Test CRC EB873905
Copy CRC EB873905
Accurately ripped (confidence 1) [E7472C57] (AR v2)
Copy OK

Track 14

Filename C:\My Documents\My FLAC\VA - Country Sweet 'N' Sentimental (4CD) (1993) [FLAC] {Reader's Digest}\Disc 3\14 - Jerry Lee Lewis - She Even Woke Me Up To Say Goodbye.wav

Pre-gap length 0:00:02.57

Peak level 70.7 %
Extraction speed 4.5 X
Track quality 100.0 %
Test CRC C4C7FC89
Copy CRC C4C7FC89
Accurately ripped (confidence 1) [15F79337] (AR v2)
Copy OK

Track 15

Filename C:\My Documents\My FLAC\VA - Country Sweet 'N' Sentimental (4CD) (1993) [FLAC] {Reader's Digest}\Disc 3\15 - Charley Pride - Guess Things Happen That Way.wav

Pre-gap length 0:00:03.20

Peak level 74.9 %
Extraction speed 4.4 X
Track quality 100.0 %
Test CRC DB86C978
Copy CRC DB86C978
Accurately ripped (confidence 1) [9212AEC9] (AR v2)
Copy OK

Track 16

Filename C:\My Documents\My FLAC\VA - Country Sweet 'N' Sentimental (4CD) (1993) [FLAC] {Reader's Digest}\Disc 3\16 - Don Gibson With The Jordanaires - Funny, Familar, Forgotten Feelings.wav

Pre-gap length 0:00:03.12

Peak level 81.3 %
Extraction speed 3.3 X
Track quality 99.9 %
Test CRC 27F1B95F
Copy CRC 27F1B95F
Accurately ripped (confidence 1) [67EB4906] (AR v2)
Copy OK

Track 17

Filename C:\My Documents\My FLAC\VA - Country Sweet 'N' Sentimental (4CD) (1993) [FLAC] {Reader's Digest}\Disc 3\17 - Crystal Gayle - The Wayward Wind.wav

Pre-gap length 0:00:02.67

Peak level 79.8 %
Extraction speed 4.8 X
Track quality 100.0 %
Test CRC 0E07DE25
Copy CRC 0E07DE25
Accurately ripped (confidence 1) [91AD9254] (AR v2)
Copy OK

Track 18

Filename C:\My Documents\My FLAC\VA - Country Sweet 'N' Sentimental (4CD) (1993) [FLAC] {Reader's Digest}\Disc 3\18 - Red Foley - That Lucky Old Sun (Just Rolls Around Heaven All Day).wav

Pre-gap length 0:00:02.72

Peak level 77.6 %
Extraction speed 4.2 X
Track quality 99.9 %
Test CRC 2A2CD10C
Copy CRC 2A2CD10C
Accurately ripped (confidence 1) [2DB37BCD] (AR v2)
Copy OK

Track 19

Filename C:\My Documents\My FLAC\VA - Country Sweet 'N' Sentimental (4CD) (1993) [FLAC] {Reader's Digest}\Disc 3\19 - Skeeter Davis - Both Sides Now.wav

Pre-gap length 0:00:03.05

Peak level 85.7 %
Extraction speed 4.1 X
Track quality 99.9 %
Test CRC 7E43816B
Copy CRC 7E43816B
Accurately ripped (confidence 1) [E410C36C] (AR v2)
Copy OK

Track 20

Filename C:\My Documents\My FLAC\VA - Country Sweet 'N' Sentimental (4CD) (1993) [FLAC] {Reader's Digest}\Disc 3\20 - Webb Pierce - Gotta Travel On.wav

Pre-gap length 0:00:02.72

Peak level 78.3 %
Extraction speed 5.2 X
Track quality 100.0 %
Test CRC 1210A45B
Copy CRC 1210A45B
Accurately ripped (confidence 1) [94822661] (AR v2)
Copy OK


All tracks accurately ripped

No errors occurred

End of status report

–– CUETools DB Plugin V2.1.6

[CTDB TOCID: uJvLzLkfmdTRQ09S3Hjc85sGRo4-] disk not present in database
Submit result: uJvLzLkfmdTRQ09S3Hjc85sGRo4- has been uploaded


==== Log checksum AC2837A7E37A9E3195F50282E48E747E7335D4F9F5752FAD158A4E06E1798569 ====







Exact Audio Copy V1.1 from 23. June 2015

EAC extraction logfile from 5. August 2016, 17:14

Various Artists / Country Sweet'N'Sentimental (Disc 4)

Used drive : TEAC DVD-ROM DV-28SW Adapter: 1 ID: 0

Read mode : Secure
Utilize accurate stream : Yes
Defeat audio cache : Yes
Make use of C2 pointers : No

Read offset correction : 6
Overread into Lead-In and Lead-Out : No
Fill up missing offset samples with silence : Yes
Delete leading and trailing silent blocks : No
Null samples used in CRC calculations : Yes
Used interface : Native Win32 interface for Win NT & 2000
Gap handling : Appended to previous track

Used output format : Internal WAV Routines
Sample format : 44.100 Hz; 16 Bit; Stereo


TOC of the extracted CD

Track | Start | Length | Start sector | End sector
––––––––––––––––––––––––––––-
1 | 0:00.37 | 2:53.65 | 37 | 13076
2 | 2:54.27 | 2:42.73 | 13077 | 25299
3 | 5:37.25 | 3:13.47 | 25300 | 39821
4 | 8:50.72 | 2:41.35 | 39822 | 51931
5 | 11:32.32 | 3:23.08 | 51932 | 67164
6 | 14:55.40 | 3:14.17 | 67165 | 81731
7 | 18:09.57 | 2:30.15 | 81732 | 92996
8 | 20:39.72 | 2:47.08 | 92997 | 105529
9 | 23:27.05 | 3:26.32 | 105530 | 121011
10 | 26:53.37 | 2:29.33 | 121012 | 132219
11 | 29:22.70 | 2:48.22 | 132220 | 144841
12 | 32:11.17 | 3:20.63 | 144842 | 159904
13 | 35:32.05 | 2:29.67 | 159905 | 171146
14 | 38:01.72 | 2:35.68 | 171147 | 182839
15 | 40:37.65 | 3:01.55 | 182840 | 196469
16 | 43:39.45 | 4:13.52 | 196470 | 215496
17 | 47:53.22 | 3:17.50 | 215497 | 230321
18 | 51:10.72 | 2:20.45 | 230322 | 240866
19 | 53:31.42 | 2:09.73 | 240867 | 250614
20 | 55:41.40 | 2:32.10 | 250615 | 262024


Track 1

Filename C:\My Documents\My FLAC\VA - Country Sweet 'N' Sentimental (4CD) (1993) [FLAC] {Reader's Digest}\Disc 4\01 - The Statler Brothers - Take Me Home, Country Roads.wav

Pre-gap length 0:00:02.37

Peak level 80.4 %
Extraction speed 1.8 X
Track quality 100.0 %
Test CRC 1F07B641
Copy CRC 1F07B641
Accurately ripped (confidence 1) [44354951] (AR v2)
Copy OK

Track 2

Filename C:\My Documents\My FLAC\VA - Country Sweet 'N' Sentimental (4CD) (1993) [FLAC] {Reader's Digest}\Disc 4\02 - Jim Ed Brown - Detroit City.wav

Pre-gap length 0:00:02.65

Peak level 81.4 %
Extraction speed 1.6 X
Track quality 99.9 %
Test CRC 528B02BC
Copy CRC 528B02BC
Accurately ripped (confidence 1) [C69C5F68] (AR v2)
Copy OK

Track 3

Filename C:\My Documents\My FLAC\VA - Country Sweet 'N' Sentimental (4CD) (1993) [FLAC] {Reader's Digest}\Disc 4\03 - Alabama - Song Of The South.wav

Pre-gap length 0:00:02.52

Peak level 78.5 %
Extraction speed 2.1 X
Track quality 100.0 %
Test CRC 0B572339
Copy CRC 0B572339
Accurately ripped (confidence 1) [F6FBD9FB] (AR v2)
Copy OK

Track 4

Filename C:\My Documents\My FLAC\VA - Country Sweet 'N' Sentimental (4CD) (1993) [FLAC] {Reader's Digest}\Disc 4\04 - Glen Campbell - Homeward Bound.wav

Pre-gap length 0:00:03.32

Peak level 77.6 %
Extraction speed 2.1 X
Track quality 100.0 %
Test CRC E571358F
Copy CRC E571358F
Accurately ripped (confidence 1) [3006A2C3] (AR v2)
Copy OK

Track 5

Filename C:\My Documents\My FLAC\VA - Country Sweet 'N' Sentimental (4CD) (1993) [FLAC] {Reader's Digest}\Disc 4\05 - Dolly Parton - Tennessee Homesick Blues.wav

Pre-gap length 0:00:03.17

Peak level 90.3 %
Extraction speed 2.3 X
Track quality 100.0 %
Test CRC 2C05FB76
Copy CRC 2C05FB76
Accurately ripped (confidence 1) [6AB84083] (AR v2)
Copy OK

Track 6

Filename C:\My Documents\My FLAC\VA - Country Sweet 'N' Sentimental (4CD) (1993) [FLAC] {Reader's Digest}\Disc 4\06 - Bill Anderson - Saginaw, Michigan.wav

Pre-gap length 0:00:02.62

Peak level 84.0 %
Extraction speed 2.1 X
Track quality 99.9 %
Test CRC DF2B6E98
Copy CRC DF2B6E98
Accurately ripped (confidence 1) [A586A077] (AR v2)
Copy OK

Track 7

Filename C:\My Documents\My FLAC\VA - Country Sweet 'N' Sentimental (4CD) (1993) [FLAC] {Reader's Digest}\Disc 4\07 - Conway Twitty - Green, Green, Grass Of Home.wav

Pre-gap length 0:00:03.01

Peak level 78.3 %
Extraction speed 2.5 X
Track quality 100.0 %
Test CRC 60E58B69
Copy CRC 60E58B69
Accurately ripped (confidence 1) [0055A4E8] (AR v2)
Copy OK

Track 8

Filename C:\My Documents\My FLAC\VA - Country Sweet 'N' Sentimental (4CD) (1993) [FLAC] {Reader's Digest}\Disc 4\08 - Merle Haggard - The Roots Of My Raising.wav

Pre-gap length 0:00:02.52

Peak level 73.4 %
Extraction speed 2.5 X
Track quality 100.0 %
Test CRC 246C2176
Copy CRC 246C2176
Accurately ripped (confidence 1) [63D89389] (AR v2)
Copy OK

Track 9

Filename C:\My Documents\My FLAC\VA - Country Sweet 'N' Sentimental (4CD) (1993) [FLAC] {Reader's Digest}\Disc 4\09 - Earl Thomas Conley - Smokey Mountain Memories.wav

Pre-gap length 0:00:02.57

Peak level 78.0 %
Extraction speed 2.6 X
Track quality 100.0 %
Test CRC 7041F430
Copy CRC 7041F430
Accurately ripped (confidence 1) [D4C76806] (AR v2)
Copy OK

Track 10

Filename C:\My Documents\My FLAC\VA - Country Sweet 'N' Sentimental (4CD) (1993) [FLAC] {Reader's Digest}\Disc 4\10 - Charley Pride - Wings Of A Dove.wav

Pre-gap length 0:00:02.52

Peak level 79.5 %
Extraction speed 2.7 X
Track quality 100.0 %
Test CRC 70BAD1D6
Copy CRC 70BAD1D6
Accurately ripped (confidence 1) [912A0A9C] (AR v2)
Copy OK

Track 11

Filename C:\My Documents\My FLAC\VA - Country Sweet 'N' Sentimental (4CD) (1993) [FLAC] {Reader's Digest}\Disc 4\11 - Skeeter Davis - Precious Memories.wav

Pre-gap length 0:00:04.02

Peak level 78.6 %
Extraction speed 2.4 X
Track quality 99.9 %
Test CRC 74DFABF2
Copy CRC 74DFABF2
Accurately ripped (confidence 1) [2EEB31AE] (AR v2)
Copy OK

Track 12

Filename C:\My Documents\My FLAC\VA - Country Sweet 'N' Sentimental (4CD) (1993) [FLAC] {Reader's Digest}\Disc 4\12 - Jimmy Dean - Mama Sang A Song.wav

Pre-gap length 0:00:02.62

Peak level 85.5 %
Extraction speed 0.5 X
Track quality 99.9 %
Test CRC B0FA947D
Copy CRC B0FA947D
Accurately ripped (confidence 1) [8232D09A] (AR v2)
Copy OK

Track 13

Filename C:\My Documents\My FLAC\VA - Country Sweet 'N' Sentimental (4CD) (1993) [FLAC] {Reader's Digest}\Disc 4\13 - Loretta Lynn - He Got The Whole World In His Hands.wav

Pre-gap length 0:00:02.67

Peak level 78.3 %
Extraction speed 3.0 X
Track quality 100.0 %
Test CRC ABA946EF
Copy CRC ABA946EF
Accurately ripped (confidence 1) [F3F7F654] (AR v2)
Copy OK

Track 14

Filename C:\My Documents\My FLAC\VA - Country Sweet 'N' Sentimental (4CD) (1993) [FLAC] {Reader's Digest}\Disc 4\14 - The Browns featuring Jim Ed Brown - The Great Speckled Bird.wav

Pre-gap length 0:00:03.00

Peak level 70.2 %
Extraction speed 3.1 X
Track quality 100.0 %
Test CRC 605D4B6C
Copy CRC 605D4B6C
Accurately ripped (confidence 1) [95A1D710] (AR v2)
Copy OK

Track 15

Filename C:\My Documents\My FLAC\VA - Country Sweet 'N' Sentimental (4CD) (1993) [FLAC] {Reader's Digest}\Disc 4\15 - Jimmy Dean - Just A Closer Walk With Thee.wav

Pre-gap length 0:00:02.70

Peak level 82.0 %
Extraction speed 3.3 X
Track quality 100.0 %
Test CRC 3183592C
Copy CRC 3183592C
Accurately ripped (confidence 1) [FA03244C] (AR v2)
Copy OK

Track 16

Filename C:\My Documents\My FLAC\VA - Country Sweet 'N' Sentimental (4CD) (1993) [FLAC] {Reader's Digest}\Disc 4\16 - Connie Smith - How Great Thou Art.wav

Pre-gap length 0:00:02.62

Peak level 84.2 %
Extraction speed 3.6 X
Track quality 100.0 %
Test CRC A8AE1DC5
Copy CRC A8AE1DC5
Accurately ripped (confidence 1) [6A77EBBF] (AR v2)
Copy OK

Track 17

Filename C:\My Documents\My FLAC\VA - Country Sweet 'N' Sentimental (4CD) (1993) [FLAC] {Reader's Digest}\Disc 4\17 - Elvis Presley - Put Your Hand In The Hand.wav

Pre-gap length 0:00:02.62

Peak level 84.2 %
Extraction speed 3.6 X
Track quality 100.0 %
Test CRC DDBF5EFD
Copy CRC DDBF5EFD
Accurately ripped (confidence 1) [2728A435] (AR v2)
Copy OK

Track 18

Filename C:\My Documents\My FLAC\VA - Country Sweet 'N' Sentimental (4CD) (1993) [FLAC] {Reader's Digest}\Disc 4\18 - Jim Reeves - In The Garden.wav

Pre-gap length 0:00:02.55

Peak level 69.9 %
Extraction speed 3.4 X
Track quality 100.0 %
Test CRC E2515D0F
Copy CRC E2515D0F
Accurately ripped (confidence 1) [BA63EB24] (AR v2)
Copy OK

Track 19

Filename C:\My Documents\My FLAC\VA - Country Sweet 'N' Sentimental (4CD) (1993) [FLAC] {Reader's Digest}\Disc 4\19 - Red Foley - The Church In The Wildwood.wav

Pre-gap length 0:00:02.45

Peak level 78.6 %
Extraction speed 3.4 X
Track quality 100.0 %
Test CRC 10782C8A
Copy CRC 10782C8A
Accurately ripped (confidence 1) [34BEDAEC] (AR v2)
Copy OK

Track 20

Filename C:\My Documents\My FLAC\VA - Country Sweet 'N' Sentimental (4CD) (1993) [FLAC] {Reader's Digest}\Disc 4\20 - Loretta Lynn - I Believe.wav

Pre-gap length 0:00:02.50

Peak level 74.9 %
Extraction speed 3.6 X
Track quality 100.0 %
Test CRC 45A8D04C
Copy CRC 45A8D04C
Accurately ripped (confidence 1) [A9C11FB3] (AR v2)
Copy OK


All tracks accurately ripped

No errors occurred

End of status report

–– CUETools DB Plugin V2.1.6

[CTDB TOCID: iXhQNifpmMLw4KIW7GIRQpTrd_4-] disk not present in database
Submit result: iXhQNifpmMLw4KIW7GIRQpTrd_4- has been uploaded


==== Log checksum C09EAAA1421C538873F689AA4DBD248A13570596E43607F7243167B73523CB56 ====