Black Sabbath. 1980-1983 - Dio & Ian Gillan Years. 4 Albums

Posted By: Necromandus
Black Sabbath. 1980-1983 - Dio & Ian Gillan Years. 4 Albums

Black Sabbath. 1980-1983 - Dio & Ian Gillan Years. 4 Albums
EAC Rip | FLAC, IMG+CUE+LOG | ~ 3 GB | MP3 CBR 320 Kbps | 1 MB | Complete HQ Scans | PNG -> 700 MB
Hard Rock/Hard Rock/Heavy Metal | Label: Universal Music/Sanctuary | RAR 3% Rec. | Uploaded.net
… 8 CD, Deluxe Expanded Edition, Remastered by Andy Pearce at 2010/2011 …




Black Sabbath. 1980-1983 - Dio & Ian Gillan Years. 4 Albums

Black Sabbath - Heaven And Hell (1980) (Deluxe Expanded Edition, 2CD)
EAC Rip | FLAC, IMG+CUE+LOG | 290+310 MB | MP3 CBR 320 Kbps | 110+120 MB | Complete HQ Scans | PNG -> 140 MB
Label: Sanctuary Records Group Ltd./Universal Music #2735073 | RAR 3% Rec.
… 2010 Re-Issue, Deluxe Expanded Edition, 2CD …

Many had left Black Sabbath for dead at the dawn of the '80s, and with good reason – the band's last few albums were not even close to their early classics, and original singer Ozzy Osbourne had just split from the band. But the Sabs had found a worthy replacement in former Elf and Rainbow singer Ronnie James Dio, and bounced back to issue their finest album since the early '70s, 1980's Heaven and Hell. The band sounds reborn and re-energized throughout. Several tracks easily rank among Sabbath's all-time best, such as the vicious album opener, "Neon Knights," the moody, mid-paced epic "Children of the Sea," and the title track, which features one of Tony Iommi 's best guitar riffs. With Heaven and Hell, Black Sabbath were obviously back in business. Unfortunately, the Dio-led version of the band would only record one more studio album before splitting up (although Dio would return briefly in the early '90s). One of Sabbath's finest records.

~ by Eduardo Rivadavia, allmusic.com
CD1 Tracklist:

1. Neon Knights - 3:54
2. Children Of The Sea - 5:35
3. Lady Evil - 4:26
4. Heaven And Hell - 6:58
5. Wishing Well - 4:08
6. Die Young - 4:45
7. Walk Away - 4:26
8. Lonely Is The Word - 5:50

Exact Audio Copy V1.0 beta 1 from 15. November 2010

EAC extraction logfile from 16. June 2011, 18:38

Black Sabbath / Heaven And Hell (Deluxe Expanded Edition, CD1)

Used drive : SONY DVD RW AW-G170A Adapter: 1 ID: 0

Read mode : Secure
Utilize accurate stream : Yes
Defeat audio cache : Yes
Make use of C2 pointers : No

Read offset correction : 48
Overread into Lead-In and Lead-Out : No
Fill up missing offset samples with silence : Yes
Delete leading and trailing silent blocks : No
Null samples used in CRC calculations : Yes
Used interface : Native Win32 interface for Win NT & 2000

Used output format : Internal WAV Routines
Sample format : 44.100 Hz; 16 Bit; Stereo


TOC of the extracted CD

Track | Start | Length | Start sector | End sector
––––––––––––––––––––––––––––-
1 | 0:00.00 | 3:54.29 | 0 | 17578
2 | 3:54.29 | 5:34.52 | 17579 | 42680
3 | 9:29.06 | 4:26.12 | 42681 | 62642
4 | 13:55.18 | 6:58.12 | 62643 | 94004
5 | 20:53.30 | 4:07.62 | 94005 | 112591
6 | 25:01.17 | 4:45.27 | 112592 | 133993
7 | 29:46.44 | 4:25.47 | 133994 | 153915
8 | 34:12.16 | 5:50.21 | 153916 | 180186


Range status and errors

Selected range

Filename F:\.www.AvaxHome.ru.lossless\Black Sabbath - Heaven And Hell (Deluxe Expanded Edition, CD1).wav

Peak level 95.9 %
Extraction speed 0.2 X
Range quality 99.9 %
Test CRC 70BE884E
Copy CRC 70BE884E
Copy OK

No errors occurred


AccurateRip summary

Track 1 accurately ripped (confidence 8) [01C5CE21]
Track 2 accurately ripped (confidence 8) [CFCB2BC5]
Track 3 accurately ripped (confidence 7) [311C5699]
Track 4 accurately ripped (confidence 8) [4325DA62]
Track 5 accurately ripped (confidence 8) [A25FFA02]
Track 6 accurately ripped (confidence 7) [84F99CDE]
Track 7 accurately ripped (confidence 8) [A6A2FCBE]
Track 8 accurately ripped (confidence 8) [D9566B62]

All tracks accurately ripped

End of status report

==== Log checksum 2F2A32250C21CDC94B8620472E4B98D696CE38A1886968DA17A531805D593F72 ====

CD2 Tracklist:

1. Children Of The Sea (Live, Single B-Side) - 6:26
2. Heaven And Hell (Live, Single B-Side) - 7:20
3. Lady Evil (Mono Edit, 7' Single) - 3:58
4. Neon Knights (Live 1980) - 4:50
5. Children Of The Sea (Live 1980) - 5:58
6. Heaven And Hell (Live 1980) - 12:35
7. Die Young (Live 1980) - 4:37

Exact Audio Copy V1.0 beta 1 from 15. November 2010

EAC extraction logfile from 16. June 2011, 19:01

Black Sabbath / Heaven And Hell (Deluxe Expanded Edition, CD2)

Used drive : SONY DVD RW AW-G170A Adapter: 1 ID: 0

Read mode : Secure
Utilize accurate stream : Yes
Defeat audio cache : Yes
Make use of C2 pointers : No

Read offset correction : 48
Overread into Lead-In and Lead-Out : No
Fill up missing offset samples with silence : Yes
Delete leading and trailing silent blocks : No
Null samples used in CRC calculations : Yes
Used interface : Native Win32 interface for Win NT & 2000

Used output format : Internal WAV Routines
Sample format : 44.100 Hz; 16 Bit; Stereo


TOC of the extracted CD

Track | Start | Length | Start sector | End sector
––––––––––––––––––––––––––––-
1 | 0:00.00 | 6:25.56 | 0 | 28930
2 | 6:25.56 | 7:20.01 | 28931 | 61931
3 | 13:45.57 | 3:58.11 | 61932 | 79792
4 | 17:43.68 | 4:49.61 | 79793 | 101528
5 | 22:33.54 | 5:58.36 | 101529 | 128414
6 | 28:32.15 | 12:34.69 | 128415 | 185033
7 | 41:07.09 | 4:36.72 | 185034 | 205805


Range status and errors

Selected range

Filename F:\.www.AvaxHome.ru.lossless\Black Sabbath - Heaven And Hell (Deluxe Expanded Edition, CD2).wav

Peak level 91.2 %
Extraction speed 0.4 X
Range quality 99.9 %
Test CRC 90E29D1F
Copy CRC 90E29D1F
Copy OK

No errors occurred


AccurateRip summary

Track 1 accurately ripped (confidence 8) [D780664E]
Track 2 accurately ripped (confidence 8) [CF75F278]
Track 3 accurately ripped (confidence 8) [28DD5ED0]
Track 4 accurately ripped (confidence 8) [2FBE5AFA]
Track 5 accurately ripped (confidence 8) [7D445879]
Track 6 accurately ripped (confidence 8) [05B8F342]
Track 7 accurately ripped (confidence 8) [50C499B1]

All tracks accurately ripped

End of status report

==== Log checksum 20549E671AC84D5DACC8A9CC37DBF89C5ED8E9A09E34F7501BDC8BCB9D7402F8 ====

• Tony Iommi - lead guitar
• Geezer Butler - bass guitar
• Ronnie James Dio - vocals
• Bill Ward - drums

Original album credits:
Produced and engineered by Martin Birch.
Music written and arranged by Butler/Dio/Iommi/Ward. Lyrics by Ronnie James Dio.
All songs published by Westminster Music Ltd.
All keyboards played by Geoff Nicholls.

2010 Re-issue credits:
Project co-ordinated for Sacntuary Records Ltd./Universal Music Catalogue by Steve Hammonds
Product management by Jon Richards. Re-mastered by Andy Pearce.
Sleevenotes by Dave Ling, courtesy of Rhino Entertainment/Warner Bros. Records.
Disc Two (tracks 3-7) recorded live in Hartford, CN, USA, 1980.





Black Sabbath. 1980-1983 - Dio & Ian Gillan Years. 4 Albums

Black Sabbath - Mob Rules (1981) (Deluxe Expanded Edition, 2CD)
EAC Rip | FLAC, IMG+CUE+LOG | 340+600 MB | MP3 CBR 320 Kbps | 130+200 MB | Complete HQ Scans | PNG -> 140 MB
Label: Sanctuary Records Group Ltd./Universal Music #2735070 | RAR 3% Rec.
… 2010 Re-Issue, Deluxe Expanded Edition, 2CD …

1981's Mob Rules was the second Black Sabbath album to feature vertically challenged singer Ronnie James Dio, whose powerful pipes and Dungeons and Dragons lyrics initially seemed like the perfect replacement for the recently departed and wildly popular Ozzy Osbourne. In fact, all the ingredients which had made their first outing, Heaven and Hell, so successful are re-utilized on this album, including legendary metal producer Martin Birch (Deep Purple, Whitesnake, etc.) and supporting keyboard player Geoff Nichols. And while it lacks some of its predecessor's inspired songwriting, Mob Rules was given a much punchier, in-your-face mix by Birch, who seemed re-energized after his work on New Wave of British Heavy Metal upstarts Iron Maiden's Killers album. Essentially, Mob Rules is a magnificent record, with the only serious problem being the sequencing of the material, which mirrors Heaven and Hell's almost to a tee. In that light, one can't help but compare otherwise compelling tracks like "Turn Up the Night" and "Voodoo" to their more impressive Heaven and Hell counterparts, "Neon Knights" and "Children of the Sea." This unhappy streak is finally snapped by the unconventional "E5150," a synthesizer-driven instrumental. Then, the unbelievably heavy, seven-minute epic "The Sign of the Southern Cross" delivers one of the album's best moments before unleashing the roaring title track. Side two is less consistent, hiding the awesome "Falling off the Edge of the World" (perhaps the most overlooked secret gem to come from the Dio lineup) amongst rather average tracks like "Slipping Away" and "Over and Over." Over the next year, the sh*t would hit the fan for Black Sabbath, and Dio's exit would mark Mob Rules as the last widely respected studio release of the band's storied career.

~ by Eduardo Rivadavia, allmusic.com
CD1 Tracklist:

1. Turn Up The Night - 3:43
2. Voodoo - 4:32
3. The Sign Of The Southern Cross - 7:48
4. E5150 - 2:51
5. The Mob Rules - 3:17
6. Country Girl - 4:03
7. Slipping Away - 3:46
8. Falling Off The Edge Of The World - 5:04
9. Over And Over - 5:32
10. Die Young (Live, 12' Single B-Side of Mob Rules) (Bonus Track) - 4:04
11. The Mob Rules (Heavy Metal Soundtrack Version) (Bonus Track) - 3:14

Exact Audio Copy V1.0 beta 1 from 15. November 2010

EAC extraction logfile from 13. June 2011, 22:15

Black Sabbath / Mob Rules (Deluxe Expanded Edition, CD1)

Used drive : SONY DVD RW AW-G170A Adapter: 1 ID: 0

Read mode : Secure
Utilize accurate stream : Yes
Defeat audio cache : Yes
Make use of C2 pointers : No

Read offset correction : 48
Overread into Lead-In and Lead-Out : No
Fill up missing offset samples with silence : Yes
Delete leading and trailing silent blocks : No
Null samples used in CRC calculations : Yes
Used interface : Native Win32 interface for Win NT & 2000

Used output format : Internal WAV Routines
Sample format : 44.100 Hz; 16 Bit; Stereo


TOC of the extracted CD

Track | Start | Length | Start sector | End sector
––––––––––––––––––––––––––––-
1 | 0:00.00 | 3:43.16 | 0 | 16740
2 | 3:43.16 | 4:32.31 | 16741 | 37171
3 | 8:15.47 | 7:47.63 | 37172 | 72259
4 | 16:03.35 | 2:51.22 | 72260 | 85106
5 | 18:54.57 | 3:16.51 | 85107 | 99857
6 | 22:11.33 | 4:02.55 | 99858 | 118062
7 | 26:14.13 | 3:46.14 | 118063 | 135026
8 | 30:00.27 | 5:03.40 | 135027 | 157791
9 | 35:03.67 | 5:31.45 | 157792 | 182661
10 | 40:35.37 | 4:03.54 | 182662 | 200940
11 | 44:39.16 | 3:13.40 | 200941 | 215455


Range status and errors

Selected range

Filename F:\.www.AvaxHome.ru.lossless\Black Sabbath - Mob Rules (Deluxe Expanded Edition, CD1).wav

Peak level 97.0 %
Extraction speed 0.3 X
Range quality 100.0 %
Test CRC 0AA9C166
Copy CRC 0AA9C166
Copy OK

No errors occurred


AccurateRip summary

Track 1 accurately ripped (confidence 8) [C5C1E82F]
Track 2 accurately ripped (confidence 8) [78220DFB]
Track 3 accurately ripped (confidence 8) [57137EB9]
Track 4 accurately ripped (confidence 8) [94DE2CBF]
Track 5 accurately ripped (confidence 8) [82A528E6]
Track 6 accurately ripped (confidence 8) [CC263BE4]
Track 7 accurately ripped (confidence 8) [A21327EF]
Track 8 accurately ripped (confidence 8) [B0AC243D]
Track 9 accurately ripped (confidence 8) [E616BED2]
Track 10 accurately ripped (confidence 7) [A5E6682E]
Track 11 accurately ripped (confidence 7) [13DA2504]

All tracks accurately ripped

End of status report

==== Log checksum 6701FC3146FF95EBEACCC8A75ACBC141CB726F9DFFE609061DDF921EADBFFD2E ====

CD2 Tracklist (Live):

1. E5150 - 1:18
2. Neon Knights - 4:38
3. N.I.B. - 5:16
4. Children Of The Sea - 6:08
5. Country Girl - 3:53
6. Black Sabbath - 8:25
7. War Pigs - 7:40
8. Slipping Away - 3:19
9. Iron Man - 7:04
10. The Mob Rules - 3:35
11. Heaven And Hell - 14:25
12. Paranoid - 3:22
13. Voodoo - 5:45
14. Children Of The Grave - 5:05

Exact Audio Copy V1.0 beta 1 from 15. November 2010

EAC extraction logfile from 14. June 2011, 19:25

Black Sabbath / Mob Rules (Deluxe Expanded Edition, CD2)

Used drive : SONY DVD RW AW-G170A Adapter: 1 ID: 0

Read mode : Secure
Utilize accurate stream : Yes
Defeat audio cache : Yes
Make use of C2 pointers : No

Read offset correction : 48
Overread into Lead-In and Lead-Out : No
Fill up missing offset samples with silence : Yes
Delete leading and trailing silent blocks : No
Null samples used in CRC calculations : Yes
Used interface : Native Win32 interface for Win NT & 2000

Used output format : Internal WAV Routines
Sample format : 44.100 Hz; 16 Bit; Stereo


TOC of the extracted CD

Track | Start | Length | Start sector | End sector
––––––––––––––––––––––––––––-
1 | 0:00.00 | 1:18.09 | 0 | 5858
2 | 1:18.09 | 4:37.49 | 5859 | 26682
3 | 5:55.58 | 5:16.19 | 26683 | 50401
4 | 11:12.02 | 6:07.45 | 50402 | 77971
5 | 17:19.47 | 3:53.05 | 77972 | 95451
6 | 21:12.52 | 8:24.54 | 95452 | 133305
7 | 29:37.31 | 7:40.23 | 133306 | 167828
8 | 37:17.54 | 3:18.49 | 167829 | 182727
9 | 40:36.28 | 7:04.34 | 182728 | 214561
10 | 47:40.62 | 3:35.00 | 214562 | 230686
11 | 51:15.62 | 14:24.40 | 230687 | 295526
12 | 65:40.27 | 3:21.44 | 295527 | 310645
13 | 69:01.71 | 5:45.00 | 310646 | 336520
14 | 74:46.71 | 5:05.07 | 336521 | 359402


Range status and errors

Selected range

Filename F:\.www.AvaxHome.ru.lossless\Black Sabbath - Mob Rules (Deluxe Expanded Edition, CD2).wav

Peak level 74.9 %
Extraction speed 0.3 X
Range quality 100.0 %
Test CRC D46EC744
Copy CRC D46EC744
Copy OK

No errors occurred


AccurateRip summary

Track 1 accurately ripped (confidence 8) [A25062CD]
Track 2 accurately ripped (confidence 8) [3D8157E7]
Track 3 accurately ripped (confidence 8) [C6C53803]
Track 4 accurately ripped (confidence 8) [728F8C74]
Track 5 accurately ripped (confidence 8) [4EFBA51D]
Track 6 accurately ripped (confidence 8) [426F207B]
Track 7 accurately ripped (confidence 8) [1FAD89FF]
Track 8 accurately ripped (confidence 8) [B3FFE556]
Track 9 accurately ripped (confidence 8) [15D0D67A]
Track 10 accurately ripped (confidence 8) [437975C2]
Track 11 accurately ripped (confidence 8) [11E68ADA]
Track 12 accurately ripped (confidence 8) [1639EC78]
Track 13 accurately ripped (confidence 8) [11881CD5]
Track 14 accurately ripped (confidence 8) [25F680EF]

All tracks accurately ripped

End of status report

==== Log checksum 55EC97EB47D405B1FB8448B08DB3DD5EC3D12F07D78AF4AF913F279711D54D45 ====

• Ronnie James Dio - vocals
• Tony Iommi - lead guitar
• Terrance "Geezer" Butler - bass guitar
• Vinny Appice - drums
• Geoff Nicholls - keyboards

Original album credits:
All songs written and arranged by Geezer Butler, Ronnie James Dio and Tony Iommi.
Lyrics by Ronnie James Dio.
Produced and engineered by Martin Birch.
Recorded with The Recrods Plant L.A.

2010 Re-issue credits:
Project co-ordinated for Sacntuary Records Ltd./Universal Music Catalogue by Steve Hammonds
Product management by Jon Richards. Re-mastered by Andy Pearce.
Sleevenotes by Bryan Reesman, courtesy of Rhino Entertainment/WB Records.
Disc Two recorded live at Hammersmith Odeon, London, 31st December 1981 ~ January 2nd 1982





Black Sabbath. 1980-1983 - Dio & Ian Gillan Years. 4 Albums

Black Sabbath - Live Evil (1982) (Deluxe Expanded Edition, 2CD)
EAC Rip | FLAC, IMG+CUE+LOG | 350+240 MB | MP3 CBR 320 Kbps | 130+90 MB | Complete HQ Scans | PNG -> 200 MB
Label: Sanctuary Records Group Ltd./Universal Music #2733929 | RAR 3% Rec.
… 2010 Re-Issue, Deluxe Expanded Edition, 2CD …

Black Sabbath's first attempt at an official live album, 1982's Live Evil was also the straw that broke the camel's back – or rather, split the legendary group's second lineup right down the middle. Band tensions were already at an all-time high leading into the album's mixing sessions, but when founding members Tony Iommi and Geezer Butler accused singer Ronnie James Dio of sneaking into the studio to raise the volume on his vocal tracks, the pint-sized warbler decided he'd had enough and, guilty or not, departed to pursue a solo career, taking drummer Vinny Appice with him. Fateful accusations aside, Live Evil does benefit from a crystal clear, in-your-face sound, and by showcasing even amounts of both Ozzy and Dio material, effectively documents Black Sabbath's renascent tours of the early '80s. Ronnie certainly has the vocal chops, if not the same everyman charm, to handle the Osbourne classics, but his incessant banter between (and during!) songs sometimes verges on the unbearable. And even though the album's only truly transcendent moments may be the vicious introductory pairing of "E5150"/"Neon Knights" and the extended "Heaven and Hell"/"Sign of the Southern Cross" suite, there's also nothing really amiss with solid interpretations of such all-time metal classics as "Children of the Sea," "Black Sabbath," "War Pigs," and "Children of the Grave" either. And considering the as yet unknown travails awaiting Black Sabbath in the post-Dio era, Live Evil's troubled gestation has come to seem positively idyllic in retrospect.

~ by Eduardo Rivadavia, allmusic.com
CD1 Tracklist:

1. E5150 - 2:22
2. Neon Knights - 4:37
3. N.I.B. - 5:14
4. Children Of The Sea - 6:13
5. Voodoo - 5:52
6. Black Sabbath - 8:39
7. War Pigs - 9:20
8. Iron Man - 7:37

Exact Audio Copy V1.0 beta 1 from 15. November 2010

EAC extraction logfile from 7. June 2011, 19:08

Black Sabbath / Live Evil (Deluxe Expanded Edition, CD1)

Used drive : SONY DVD RW AW-G170A Adapter: 1 ID: 0

Read mode : Secure
Utilize accurate stream : Yes
Defeat audio cache : Yes
Make use of C2 pointers : No

Read offset correction : 48
Overread into Lead-In and Lead-Out : No
Fill up missing offset samples with silence : Yes
Delete leading and trailing silent blocks : No
Null samples used in CRC calculations : Yes
Used interface : Native Win32 interface for Win NT & 2000

Used output format : Internal WAV Routines
Sample format : 44.100 Hz; 16 Bit; Stereo


TOC of the extracted CD

Track | Start | Length | Start sector | End sector
––––––––––––––––––––––––––––-
1 | 0:00.00 | 2:21.40 | 0 | 10614
2 | 2:21.40 | 4:36.40 | 10615 | 31354
3 | 6:58.05 | 5:14.04 | 31355 | 54908
4 | 12:12.09 | 6:13.31 | 54909 | 82914
5 | 18:25.40 | 5:52.09 | 82915 | 109323
6 | 24:17.49 | 8:38.62 | 109324 | 148235
7 | 32:56.36 | 9:19.61 | 148236 | 190221
8 | 42:16.22 | 7:36.46 | 190222 | 224467


Range status and errors

Selected range

Filename F:\.www.AvaxHome.ru.lossless\Black Sabbath - Live Evil (Deluxe Expanded Edition, CD1).wav

Peak level 97.0 %
Extraction speed 0.7 X
Range quality 99.9 %
Test CRC 1CC2515A
Copy CRC 1CC2515A
Copy OK

No errors occurred


AccurateRip summary

Track 1 accurately ripped (confidence 5) [528B1021]
Track 2 accurately ripped (confidence 5) [230882B2]
Track 3 accurately ripped (confidence 5) [B3F8839D]
Track 4 accurately ripped (confidence 5) [F1EAD6E8]
Track 5 accurately ripped (confidence 5) [9E8494D7]
Track 6 accurately ripped (confidence 5) [1C3BA5B0]
Track 7 accurately ripped (confidence 5) [2DF3C126]
Track 8 accurately ripped (confidence 5) [976DFCDE]

All tracks accurately ripped

End of status report

==== Log checksum 601F8ADC1C9C6E3B6CFCDC9EC73D3324B7B4B9A5BF367DAE697DDC4E5A5DDE34 ====

CD2 Tracklist:

1. The Mob Rules - 4:13
2. Heaven And Hell - 12:10
3. The Sign Of The Southern Cross/Heaven And Hell (Continued) - 7:16
4. Paranoid - 3:47
5. Children Of The Grave - 5:50
6. Fluff - 1:00

Exact Audio Copy V1.0 beta 1 from 15. November 2010

EAC extraction logfile from 7. June 2011, 19:50

Black Sabbath / Live Evil (Deluxe Expanded Edition, CD2)

Used drive : SONY DVD RW AW-G170A Adapter: 1 ID: 0

Read mode : Secure
Utilize accurate stream : Yes
Defeat audio cache : Yes
Make use of C2 pointers : No

Read offset correction : 48
Overread into Lead-In and Lead-Out : No
Fill up missing offset samples with silence : Yes
Delete leading and trailing silent blocks : No
Null samples used in CRC calculations : Yes
Used interface : Native Win32 interface for Win NT & 2000

Used output format : Internal WAV Routines
Sample format : 44.100 Hz; 16 Bit; Stereo


TOC of the extracted CD

Track | Start | Length | Start sector | End sector
––––––––––––––––––––––––––––-
1 | 0:00.00 | 4:12.61 | 0 | 18960
2 | 4:12.61 | 12:09.48 | 18961 | 73683
3 | 16:22.34 | 7:16.10 | 73684 | 106393
4 | 23:38.44 | 3:46.71 | 106394 | 123414
5 | 27:25.40 | 5:50.21 | 123415 | 149685
6 | 33:15.61 | 0:59.73 | 149686 | 154183


Range status and errors

Selected range

Filename F:\.www.AvaxHome.ru.lossless\Black Sabbath - Live Evil (Deluxe Expanded Edition, CD2).wav

Peak level 97.0 %
Extraction speed 0.0 X
Range quality 99.9 %
Test CRC 2550B59E
Copy CRC 2550B59E
Copy OK

No errors occurred


AccurateRip summary

Track 1 accurately ripped (confidence 5) [924DDFA9]
Track 2 accurately ripped (confidence 5) [9BD1BA7C]
Track 3 accurately ripped (confidence 5) [1FE3F584]
Track 4 accurately ripped (confidence 5) [7F2D9C56]
Track 5 accurately ripped (confidence 5) [1F500F5E]
Track 6 accurately ripped (confidence 5) [9BD4288C]

All tracks accurately ripped

End of status report

==== Log checksum 53A6250B45948308F12B20E4CE3FCEAEF1C5AA7BB47F27E28717D857B5287931 ====

• Ronnie James Dio - vocals
• Tony Iommi - lead guitar
• Terrance "Geezer" Butler - bass guitar
• Vinny Appice - drums
• Geoff Nicholls - keyboards

Original album credits:
Produced by Tony Iommi and Geezer Butler.
Recorded live in Seattle, San Antonio and Dallas.
Recorded with The Recrods Plant Mobile, Los Angeles
Engineered by Lee De Carlo and Bill Freseh.

2010 Re-issue credits:
Project co-ordinated for Sacntuary Records Ltd./Universal Music Catalogue by Steve Hammonds
Product management by Jon Richards
Sleevenotes by Steffan Chirazi, coutesy of Rhino Entertainment
Re-mastered by Andy Pearce





Black Sabbath. 1980-1983 - Dio & Ian Gillan Years. 4 Albums

Black Sabbath - Born Again (1983) (Deluxe Expanded Edition, 2CD)
EAC Rip | FLAC, IMG+CUE+LOG | 280+390 MB | MP3 CBR 320 Kbps | 100+150 MB | Complete HQ Scans | PNG -> 190 MB
Label: Sanctuary Records Group Ltd./Universal Music #2770406 | RAR 3% Rec.
… 2011 Re-Issue, Deluxe Expanded Edition with Bonus CD …

The idea sure looked good on paper, but when former Deep Purple frontman Ian Gillan joined Black Sabbath for 1983's dreadful Born Again album, the grim reality was that Gillan's bluesy vocal style and oftentimes humorous lyrics were completely incompatible with the lords of doom and gloom. Widely deemed the band's creative nadir (although a few later efforts like Cross Purposes and Forbidden give it a run for its money), Born Again also featured one of the worst album covers ever (it's been voted!), and the subsequent world tour was so troubled and tragicomic that the band's Stonehenge stage set wound up serving as inspiration for the ultimate rock & roll spoof movie, This Is Spinal Tap, when it was discovered to be too large to fit inside most venues! Born Again's equally atrocious "production" leaves one with the distinct impression that, in a misguided attempt to record the heaviest album ever, Black Sabbath came away with the muddiest instead. Among the smoking ruins that pass for its songs, one might find it possible to appreciate Gillan's trademarked double entendres on "Disturbing the Priest," pick out a decent melody within the messy title track, and get down to some mercifully straightforward headbanging with "Digital Bitch" and the album's lone classic, "Trashed." But the remaining detritus, composed of embarrassing numbers like "Zero the Hero," "Hot Line," and "Keep It Warm" and pointless sound effect interludes "Stonehenge" and "The Dark," is simply beyond painful. By comparison, even the barely-recognizable-as-Sabbath material found on 1986's belated comeback, Seventh Star – originally planned as a Tony Iommi solo effort, to be fair – sounds pretty damn good. But by then, Black Sabbath's greatly anticipated association with Ian Gillan had gone down as one of heavy metal's all-time greatest disappointments, and nearly killed the genre's founding fathers in the process.

~ by Eduardo Rivadavia, allmusic.com
CD1 - Original Album:

1. Trashed - 4:18
2. Stonehenge - 1:58
3. Disturbing The Priest - 5:52
4. The Dark - 0:45
5. Zero The Hero - 7:38
6. Digital Bitch - 3:40
7. Born Again - 6:37
8. Hot Line - 4:53
9. Keep It Warm - 5:38

Exact Audio Copy V1.0 beta 1 from 15. November 2010

EAC extraction logfile from 3. June 2011, 9:29

Black Sabbath / Born Again (Deluxe Expanded Edition, CD1- Original Album)

Used drive : TSSTcorpCDDVDW SH-S223F Adapter: 3 ID: 0

Read mode : Secure
Utilize accurate stream : Yes
Defeat audio cache : Yes
Make use of C2 pointers : No

Read offset correction : 6
Overread into Lead-In and Lead-Out : No
Fill up missing offset samples with silence : Yes
Delete leading and trailing silent blocks : No
Null samples used in CRC calculations : Yes
Used interface : Native Win32 interface for Win NT & 2000

Used output format : Internal WAV Routines
Sample format : 44.100 Hz; 16 Bit; Stereo


TOC of the extracted CD

Track | Start | Length | Start sector | End sector
––––––––––––––––––––––––––––-
1 | 0:00.00 | 4:17.56 | 0 | 19330
2 | 4:17.56 | 1:57.51 | 19331 | 28156
3 | 6:15.32 | 5:51.49 | 28157 | 54530
4 | 12:07.06 | 0:45.21 | 54531 | 57926
5 | 12:52.27 | 7:38.02 | 57927 | 92278
6 | 20:30.29 | 3:39.46 | 92279 | 108749
7 | 24:10.00 | 6:37.06 | 108750 | 138530
8 | 30:47.06 | 4:53.04 | 138531 | 160509
9 | 35:40.10 | 5:38.28 | 160510 | 185887


Range status and errors

Selected range

Filename D:\.www.AvaxHome.ru.lossless\Black Sabbath - Born Again (Deluxe Expanded Edition, CD1- Original Album).wav

Peak level 96.4 %
Extraction speed 0.9 X
Range quality 99.9 %
Test CRC 6F15268B
Copy CRC 6F15268B
Copy OK

No errors occurred


AccurateRip summary

Track 1 not present in database
Track 2 not present in database
Track 3 not present in database
Track 4 not present in database
Track 5 not present in database
Track 6 not present in database
Track 7 not present in database
Track 8 not present in database
Track 9 not present in database

None of the tracks are present in the AccurateRip database

End of status report

==== Log checksum 0458097E25A7202250B8FC9FF758624AE1BE4B66523280878CBF38B02A987E9F ====

CD2 - Bonus Tracks:

1. The Fallen (Album Session Outtake) - 4:30
2. Stonehenge (Extended Version) - 4:47
3. Hot Line (Live) - 4:55
4. War Pigs (Live) - 7:25
5. Black Sabbath (Live) - 7:11
6. The Dark (Live) - 1:05
7. Zero The Hero (Live) - 6:55
8. Digital Bitch (Live) - 3:34
9. Iron Man (Live) - 7:41
0. Smoke On The Water (Live) - 4:56
11. Paranoid (Live) - 4:18

Exact Audio Copy V1.0 beta 1 from 15. November 2010

EAC extraction logfile from 3. June 2011, 10:04

Black Sabbath / Born Again (Deluxe Expanded Edition, CD2- Bonus Tracks)

Used drive : TSSTcorpCDDVDW SH-S223F Adapter: 3 ID: 0

Read mode : Secure
Utilize accurate stream : Yes
Defeat audio cache : Yes
Make use of C2 pointers : No

Read offset correction : 6
Overread into Lead-In and Lead-Out : No
Fill up missing offset samples with silence : Yes
Delete leading and trailing silent blocks : No
Null samples used in CRC calculations : Yes
Used interface : Native Win32 interface for Win NT & 2000

Used output format : Internal WAV Routines
Sample format : 44.100 Hz; 16 Bit; Stereo


TOC of the extracted CD

Track | Start | Length | Start sector | End sector
––––––––––––––––––––––––––––-
1 | 0:00.00 | 4:30.32 | 0 | 20281
2 | 4:30.32 | 4:46.38 | 20282 | 41769
3 | 9:16.70 | 4:54.68 | 41770 | 63887
4 | 14:11.63 | 7:25.05 | 63888 | 97267
5 | 21:36.68 | 7:10.52 | 97268 | 129569
6 | 28:47.45 | 1:05.08 | 129570 | 134452
7 | 29:52.53 | 6:54.45 | 134453 | 165547
8 | 36:47.23 | 3:33.66 | 165548 | 181588
9 | 40:21.14 | 7:40.72 | 181589 | 216160
10 | 48:02.11 | 4:56.29 | 216161 | 238389
11 | 52:58.40 | 4:17.41 | 238390 | 257705


Range status and errors

Selected range

Filename D:\.www.AvaxHome.ru.lossless\Black Sabbath - Born Again (Deluxe Expanded Edition, CD2- Bonus Tracks).wav

Peak level 97.0 %
Extraction speed 0.4 X
Range quality 100.0 %
Test CRC 33E8BEFE
Copy CRC 33E8BEFE
Copy OK

No errors occurred


AccurateRip summary

Track 1 not present in database
Track 2 not present in database
Track 3 not present in database
Track 4 not present in database
Track 5 not present in database
Track 6 not present in database
Track 7 not present in database
Track 8 not present in database
Track 9 not present in database
Track 10 not present in database
Track 11 not present in database

None of the tracks are present in the AccurateRip database

End of status report

==== Log checksum 0851A9355602988114A263C1965B2FAC4378F733D14180A33E638CB4A080AA07 ====

• Ian Gillan - vocals
• Tony Iommi - guitars
• Terrance "Geezer" Butler - bass
• Bill Ward - drums
• Geoff Nicholls - keyboards
• Bev Bevan - drums (Disc 2, tracks 3-11)

Original album credits:
Recorded at The Manor Studio, Shipton on Cherwell Oxfordshire, England.
Produced by Robin Black and Black Sabbath.
Engineered by Robin Black.

2011 Re-issue credits:
Project co-ordinated by Steve Hammonds for Sacntuary Records Ltd.
Product management by Jon Richards, sleevenotes by Alex Milas and Steve 'Krusher' Toule.
Re-mastered by Andy Pearce and Matt Worthan.
Tracks 3-11 recorded live at the Reading Festival, August 27th 1983.

**********************************************************

Black Sabbath - Heaven And Hell (1980)
Lossless (FLAC)*
CD1 - http://uploaded.net/file/fy8zgwse/BS80HAHDLXCD1LOS.rar
CD2 - http://uploaded.net/file/yhauocp5/BS80HAHDLXCD2LOS.rar

All Covers.png
http://uploaded.net/file/ygtfm0pw/BS80HAHDLXCOV.rar

Lossy HQ (320 Kbps CBR)
CD1 - http://uploaded.net/file/dismign9/BS80HAHDLXCD1MP3.rar
CD2 - http://uploaded.net/file/v5a4k65l/BS80HAHDLXCD2MP3.rar

**********************************************************

Black Sabbath - Mob Rules (1981)
Lossless (FLAC)*
CD1 - http://uploaded.net/file/i74zvpm0/BS81MRDLXCD1LOS.rar
CD2 - http://uploaded.net/file/7o0dygbg/BS81MRDLXCD2LOS.rar

All Covers.png
http://uploaded.net/file/uza62myr/BS81MRDLXCOV.rar

Lossy HQ (320 Kbps CBR)
CD1 - http://uploaded.net/file/8xzvlz4t/BS81MRDLXCD1MP3.rar
CD2 - http://uploaded.net/file/qjhmofrx/BS81MRDLXCD2MP3.rar

**********************************************************

Black Sabbath - Live Evil (1982)
Lossless (FLAC)*
CD1 - http://uploaded.net/file/2x7e4gn6/BS82LEDLXCD1LOS.rar
CD2 - http://uploaded.net/file/x3tvra1t/BS82LEDLXCD2LOS.rar

All Covers.png
http://uploaded.net/file/tknwbxl0/BS82LEDLXCOV.rar

Lossy HQ (320 Kbps CBR)
CD1 - http://uploaded.net/file/ybo67nko/BS82LEDLXCD1MP3.rar
CD2 - http://uploaded.net/file/rh3eue33/BS82LEDLXCD2MP3.rar

**********************************************************

Black Sabbath - Born Again (1983)
Lossless (FLAC)*
CD1 - http://uploaded.net/file/iyero8ko/BS83BADLXCD1LOS.rar
CD2 - http://uploaded.net/file/ett8n9ae/BS83BADLXCD2LOS.rar

All Covers.png
http://uploaded.net/file/ebmvucn3/BS83BADLXCOV.rar

Lossy HQ (320 Kbps CBR)
CD1 - http://uploaded.net/file/sqqt4tvf/BS83BADLXCD1MP3.rar
CD2 - http://uploaded.net/file/gct9vcyy/BS83BADLXCD2MP3.rar

* Original CD -> EAC image, embedded cuesheet & more, foobar2000 ready, etc.
(all CUEs, LOGs and other technical info includes in the internal "CD_Support" archive).

Please, do not write these links at any web pages. Enjoy & keep the files alive!