Black Sabbath - Studio Albums (1970-1986, 12CD) RE-UPPED

Posted By: apocalipsys2014
Black Sabbath - Studio Albums (1970-1986, 12CD) RE-UPPED

Black Sabbath - Studio Albums (1970-1986, 12CD)
Year & Label: 1989/90, Vertigo/Nippon Phonogram Co., Ltd. Japan | CD#: 23DP-123~127, 134~137, PHCR-2053~55
Flac (image) | MP3 CBR 320 Kbps | Artwork (JPG, 300 dpi) | File-hosts: Nitroflare.com
Hard Rock/Heavy Metal | FLAC: 3 GB | Artwork: 200 MB | MP3: 1.2 GB | 5% WinRAR Recovery

EAC Secure-rip with LOG+CUE+COVERS | Source: eMule/torrents
Non-remastered Japanese early pressing




Black Sabbath - Studio Albums (1970-1986, 12CD) RE-UPPED

Black Sabbath - Black Sabbath (1970)
Year & Label: 1989, Vertigo/Nippon Phonogram Co., Ltd. Japan | CD#: 23DP-133
FLAC: 260 MB | Artwork: 15 MB | MP3: 100 MB

Black Sabbath's debut album is given over to lengthy songs and suite-like pieces where individual songs blur together and riffs pound away one after another, frequently under extended jams. There isn't much variety in tempo, mood, or the band's simple, blues-derived musical vocabulary, but that's not the point; Sabbath's slowed-down, murky guitar rock bludgeons the listener in an almost hallucinatory fashion, reveling in its own dazed, druggy state of consciousness. Songs like the apocalyptic title track, "N.I.B.," and "The Wizard" make their obsessions with evil and black magic seem like more than just stereotypical heavy metal posturing because of the dim, suffocating musical atmosphere the band frames them in. This blueprint would be refined and occasionally elaborated upon over the band's next few albums, but there are plenty of metal classics already here.

www.allmusic.com
Musicians:

Vocals : Ozzy Osbourne
Guitars : Tomy Iommi
Bass : Geezer Butler
Drums : Bill Ward

Produced by Rodger Bain of Tuesday Production for Tony Hall Enterprises.
Engineer - Tom Allom & Barry Sheffield.

Track List:

01. Black Sabbath [6:20]
02. The Wizard [4:23]
03. Behind The Wall Of Sleep [3:38]
04. N.I.B. [6:06]
05. Evil Woman [3:26]
06. Sleeping Village [3:46]
07. Warning [10:30]

Exact Audio Copy V0.99 prebeta 5 from 4. May 2009

Archivo Log de extracciones desde 30. Julio 2014, 13:09

BLACK SABBATH / Black Sabbath - Japan (23PD-133)

Usar unidad : HL-DT-STDVDRAM GH22NS70 Adapter: 0 ID: 0

Modo de Lectura : Seguro
Utilizar Corriente Exacta : Sн
Descartar Audio cachй : Sн
Utilizar los punteros C2 : No

Correcciуn de Desplazamiento de Lectura : 667
Sobreleer tanto en Lead-In como en Lead-Out : No
Rellenar las muestras faltantes con silencios : Sн
Eliminar silencios inicial y final : No
Se han usado muestras nulas en los cбlculos CRC : Sн
Interfaz usada : Interfaz propio de Win32 para Windowns NT y 2000

Formato de Salida utilizado : Compresor definido por el usuario
Bitrate seleccionado : 32 kBit/s
Calidad : Alta
Aсadir Etiqueta ID3 : No
Compresor de linea de comandos : C:\Program Files (x86)\Exact Audio Copy\Flac\flac.exe
Opciones adicionales en lнnea de comandos : -6 -V %s


TOC del CD extraido

Pista | Inicio | Duraciуn | Sector inicial | Sector final
––––––––––––––––––––––––––––––-
1 | 0:00.37 | 6:20.05 | 37 | 28541
2 | 6:20.42 | 4:23.28 | 28542 | 48294
3 | 10:43.70 | 3:37.57 | 48295 | 64626
4 | 14:21.52 | 6:05.60 | 64627 | 92061
5 | 20:27.37 | 3:25.63 | 92062 | 107499
6 | 23:53.25 | 3:46.35 | 107500 | 124484
7 | 27:39.60 | 10:30.17 | 124485 | 171751


Gama de estados y errores

Seleccionar gama

Nombre de Archivo E:\Mъsica\EAC\Black Sabbath\01 Black Sabbath\BLACK SABBATH - Black Sabbath - Japan (23PD-133).wav

Nivel Pico 100.0 %
Gama de Calidad 100.0 %
Test CRC E541ED6B
Copiar CRC E541ED6B
Copia OK

Sin Errores


Resumen AccurateRip

Pista 1 no se puede verificar como preciso (confianza 2) [126EA3DB], AccurateRip devuelto [328764E9]
Pista 2 no se puede verificar como preciso (confianza 2) [92C8B383], AccurateRip devuelto [659A3B52]
Pista 3 no se puede verificar como preciso (confianza 2) [829E6BEA], AccurateRip devuelto [9EF78F64]
Pista 4 no se puede verificar como preciso (confianza 2) [F9FDCEA6], AccurateRip devuelto [E614DA86]
Pista 5 no se puede verificar como preciso (confianza 2) [A3FA93F5], AccurateRip devuelto [702610AC]
Pista 6 no se puede verificar como preciso (confianza 2) [3630B735], AccurateRip devuelto [62A333B6]
Pista 7 no se puede verificar como preciso (confianza 2) [BB96F493], AccurateRip devuelto [644E7EAA]

No se verificarб ninguna pista como precisa
Puede que tengas una ediciуn diferente a la(s) de la base de datos

Final del Informe





Black Sabbath - Studio Albums (1970-1986, 12CD) RE-UPPED

Black Sabbath - Paranoid (1970)
Year & Label: 1989, Vertigo/Nippon Phonogram Co., Ltd. Japan | CD#: 23DP-134
FLAC: 260 MB | Artwork: 15 MB | MP3: 100 MB

Paranoid was not only Black Sabbath's most popular record (it was a number one smash in the U.K., and "Paranoid" and "Iron Man" both scraped the U.S. charts despite virtually nonexistent radio play), it also stands as one of the greatest and most influential heavy metal albums of all time. Paranoid refined Black Sabbath's signature sound — crushingly loud, minor-key dirges loosely based on heavy blues-rock — and applied it to a newly consistent set of songs with utterly memorable riffs, most of which now rank as all-time metal classics. Where the extended, multi-sectioned songs on the debut sometimes felt like aimless jams, their counterparts on Paranoid have been given focus and direction, lending an epic drama to now-standards like "War Pigs" and "Iron Man" (which sports one of the most immediately identifiable riffs in metal history). The subject matter is unrelentingly, obsessively dark, covering both supernatural/sci-fi horrors and the real-life traumas of death, war, nuclear annihilation, mental illness, drug hallucinations, and narcotic abuse. Yet Sabbath makes it totally convincing, thanks to the crawling, muddled bleakness and bad-trip depression evoked so frighteningly well by their music. Even the qualities that made critics deplore the album (and the group) for years increase the overall effect — the technical simplicity of Ozzy Osbourne's vocals and Tony Iommi's lead guitar vocabulary; the spots when the lyrics sink into melodrama or awkwardness; the lack of subtlety and the infrequent dynamic contrast. Everything adds up to more than the sum of its parts, as though the anxieties behind the music simply demanded that the band achieve catharsis by steamrolling everything in its path, including its own limitations. Monolithic and primally powerful, Paranoid defined the sound and style of heavy metal more than any other record in rock history.

www.allmusic.com
Musicians:

Vocals : Ozzy Osbourne
Guitars : Tomy Iommi
Bass : Geezer Butler
Drums : Bill Ward

Produced by Rodger Bain for Tony Hall Enterprises.
Engineers - Tom Allom & Brian Humphries.

Track List:

01. War Pigs [7:59]
02. Paranoid [2:53]
03. Planet Caravan [4:35]
04. Iron Man [5:59]
05. Electric Funeral [4:53]
06. Hand Of Doom [7:10]
07. Rat Salad [2:30]
08. Fairies Wear Boots [6:15]

Exact Audio Copy V0.99 prebeta 5 from 4. May 2009

EAC extraction logfile from 5. July 2014, 18:43

BLACK SABBATH / Paranoid - Japan (23PD-134)

Used drive : TSSTcorpCDDVDW TS-L633C Adapter: 0 ID: 0

Read mode : Secure
Utilize accurate stream : Yes
Defeat audio cache : Yes
Make use of C2 pointers : No

Read offset correction : 6
Overread into Lead-In and Lead-Out : No
Fill up missing offset samples with silence : Yes
Delete leading and trailing silent blocks : No
Null samples used in CRC calculations : Yes
Used interface : Native Win32 interface for Win NT & 2000

Used output format : User Defined Encoder
Selected bitrate : 32 kBit/s
Quality : High
Add ID3 tag : No
Command line compressor : C:\Program Files (x86)\Exact Audio Copy\Flac\flac.exe
Additional command line options : -6 -V %s


TOC of the extracted CD

Track | Start | Length | Start sector | End sector
––––––––––––––––––––––––––––-
1 | 0:00.37 | 7:58.50 | 37 | 35936
2 | 7:59.12 | 2:52.63 | 35937 | 48899
3 | 10:52.00 | 4:34.57 | 48900 | 69506
4 | 15:26.57 | 5:58.45 | 69507 | 96401
5 | 21:25.27 | 4:52.73 | 96402 | 118374
6 | 26:18.25 | 7:09.45 | 118375 | 150594
7 | 33:27.70 | 2:30.10 | 150595 | 161854
8 | 35:58.05 | 6:15.02 | 161855 | 189981


Range status and errors

Selected range

Filename C:\Users\Pedro\Documents\Musica\Black Sabbath\Sabbath Bloody Sabbath\BLACK SABBATH - Paranoid - Japan (23PD-134).wav

Peak level 100.0 %
Range quality 100.0 %
Test CRC 10E223CA
Copy CRC 10E223CA
Copy OK

No errors occurred


AccurateRip summary

Track 1 accurately ripped (confidence 2) [189D9ED6]
Track 2 accurately ripped (confidence 2) [7B8BC334]
Track 3 accurately ripped (confidence 3) [D4A134B8]
Track 4 accurately ripped (confidence 2) [E30D02DE]
Track 5 accurately ripped (confidence 2) [620E8A33]
Track 6 accurately ripped (confidence 2) [20F4BE69]
Track 7 accurately ripped (confidence 2) [B8F7A991]
Track 8 accurately ripped (confidence 2) [CDE5DEC3]

All tracks accurately ripped

End of status report





Black Sabbath - Studio Albums (1970-1986, 12CD) RE-UPPED

Black Sabbath - Master Of Reality (1971)
Year & Label: 1989, Vertigo/Nippon Phonogram Co., Ltd. Japan | CD#: 23DP-135
FLAC: 220 MB | Artwork: 15 MB | MP3: 90 MB

With Paranoid, Black Sabbath perfected the formula for their lumbering heavy metal. On its follow-up, Master of Reality, the group merely repeated the formula, setting the stage for a career of recycling the same sounds and riffs. But on Master of Reality Sabbath still were fresh and had a seemingly endless supply of crushingly heavy riffs to bludgeon their audiences into sweet, willing oblivion. If the album is a showcase for anyone, it is Tony Iommi, who keeps the album afloat with a series of slow, loud riffs, the best of which — "Sweet Leaf" and "Children of the Grave" among them — rank among his finest playing. Taken in tandem with the more consistent Paranoid, Master of Reality forms the core of Sabbath's canon. There are a few stray necessary tracks scattered throughout the group's other early-'70s albums, but Master of Reality is the last time they delivered a consistent album and its influence can be heard throughout the generations of heavy metal bands that followed.

www.allmusic.com
Musicians:

Vocals : Ozzy Osbourne
Guitars : Tomy Iommi
Bass : Geezer Butler
Drums : Bill Ward

Produced by Rodger Bain for Tony Hall Enterprises.
Art Direction: Mike Stanford. Design: Bloomsbury Group.

Track List:

01. Sweet Leaf [5:06]
02. After Forever [5:27]
03. Embryo [0:28]
04. Children Of The Grave [5:17]
05. Orchid [1:31]
06. Lord Of This World [5:27]
07. Solitude [5:02]
08. Into The Void [6:14]

Exact Audio Copy V0.99 prebeta 4 from 23. January 2008

Отчёт EAC об извлечении, выполненном 30. января 2011, 15:04

Black Sabbath / Master Of Reality (23PD-135)

Дисковод: PLEXTOR DVDR PX-760A Adapter: 0 ID: 0

Режим чтения : Достоверность
Использование точного потока : Да
Отключение кэша аудио : Да
Использование указателей C2 : Нет

Коррекция смещения при чтении : 30
Способность читать области Lead-in и Lead-out : Нет
Заполнение пропущенных сэмплов тишиной : Да
Удаление блоков с тишиной в начале и конце : Нет
При вычислениях CRC использовались нулевые сэмплы : Да
Интерфейс : Установленный внешний ASPI-интерфейс

Выходной формат : Внутренние WAV-операции
Формат сэмплов : 44.100 Гц; 16 бит; стерео


TOC извлечённого CD

Трек | Старт | Длительность | Начальный сектор | Конечный сектор
––––––––––––––––––––––––––––––––––-
1 | 0:00.37 | 5:05.45 | 37 | 22956
2 | 5:06.07 | 5:26.63 | 22957 | 47469
3 | 10:32.70 | 0:28.30 | 47470 | 49599
4 | 11:01.25 | 5:16.67 | 49600 | 73366
5 | 16:18.17 | 1:31.08 | 73367 | 80199
6 | 17:49.25 | 5:26.52 | 80200 | 104701
7 | 23:16.02 | 5:02.13 | 104702 | 127364
8 | 28:18.15 | 6:14.35 | 127365 | 155449


Характеристики диапазона извлечения и сообщения об ошибках

Выбранный диапазон

Имя файла D:\kos1871\Black Sabbath - Master Of Reality (23PD-135).wav

Пиковый уровень 100.0 %
Качество диапазона 100.0 %
CRC теста F30749C8
CRC копии F30749C8
Копирование… OK

Ошибок не произошло


AccurateRip: сводка

Трек 1 нет в базе данных
Трек 2 нет в базе данных
Трек 3 нет в базе данных
Трек 4 нет в базе данных
Трек 5 нет в базе данных
Трек 6 нет в базе данных
Трек 7 нет в базе данных
Трек 8 нет в базе данных

Ни одного трека нет в базе AccurateRip

Конец отчёта





Black Sabbath - Studio Albums (1970-1986, 12CD) RE-UPPED

Black Sabbath - Vol. 4 (1972)
Year & Label: 1989, Vertigo/Nippon Phonogram Co., Ltd. Japan | CD#: 23DP-136
FLAC: 280 MB | Artwork: 20 MB | MP3: 110 MB

Black Sabbath, Vol. 4 is just a cut below its two indisputably classic predecessors, as it begins to run out of steam — and memorable riffs — toward the end. However, it finds Sabbath beginning to experiment successfully with their trademark sound on tracks like the ambitious, psychedelic-tinged, multi-part "Wheels of Confusion," the concise, textured "Tomorrow's Dream," and the orchestrated piano ballad "Changes" (even if the latter's lyrics cross the line into triteness). But the classic Sabbath sound is still very much in evidence; the crushing "Supernaut" is one of the heaviest tracks the band ever recorded.

www.allmusic.com
Musicians:

Vocals : Ozzy Osbourne
Guitars : Tomy Iommi
Bass : Geezer Butler
Drums : Bill Ward

All arangement by Blac Sabbath. Produced by Patrick Meehan and Black Sabbath.
Engineers: Colin Caldwell/Vic Smith. Recorded at Record Plant Los Angeles.

Track List:

01. Wheels Of Confusion [8:03]
02. Tomorrow's Dream [3:13]
03. Changes [4:46]
04. FX [1:44]
05. Supernaut [4:39]
06. Snowblind [5:34]
07. Cornucopia [3:55]
08. Laguna Sunrise [2:56]
09. St. Vitus Dance [2:30]
10. Under The Sun [5:53]

Exact Audio Copy V0.99 prebeta 4 from 23. January 2008

Отчёт EAC об извлечении, выполненном 30. января 2011, 2:02

Black Sabbath / Vol. 4 (23PD-136)

Дисковод: PLEXTOR DVDR PX-760A Adapter: 0 ID: 0

Режим чтения : Достоверность
Использование точного потока : Да
Отключение кэша аудио : Да
Использование указателей C2 : Нет

Коррекция смещения при чтении : 30
Способность читать области Lead-in и Lead-out : Нет
Заполнение пропущенных сэмплов тишиной : Да
Удаление блоков с тишиной в начале и конце : Нет
При вычислениях CRC использовались нулевые сэмплы : Да
Интерфейс : Установленный внешний ASPI-интерфейс

Выходной формат : Внутренние WAV-операции
Формат сэмплов : 44.100 Гц; 16 бит; стерео


TOC извлечённого CD

Трек | Старт | Длительность | Начальный сектор | Конечный сектор
––––––––––––––––––––––––––––––––––-
1 | 0:00.37 | 8:02.50 | 37 | 36236
2 | 8:03.12 | 3:13.30 | 36237 | 50741
3 | 11:16.42 | 4:45.48 | 50742 | 72164
4 | 16:02.15 | 1:43.50 | 72165 | 79939
5 | 17:45.65 | 4:39.37 | 79940 | 100901
6 | 22:25.27 | 5:34.05 | 100902 | 125956
7 | 27:59.32 | 3:54.60 | 125957 | 143566
8 | 31:54.17 | 2:56.23 | 143567 | 156789
9 | 34:50.40 | 2:29.65 | 156790 | 168029
10 | 37:20.30 | 5:52.40 | 168030 | 194469


Характеристики диапазона извлечения и сообщения об ошибках

Выбранный диапазон

Имя файла D:\kos1871\Black Sabbath - Vol. 4 (23PD-136).wav

Пиковый уровень 100.0 %
Качество диапазона 100.0 %
CRC теста 9D4D8AA9
CRC копии 9D4D8AA9
Копирование… OK

Ошибок не произошло


AccurateRip: сводка

Трек 1 точное извлечение (доверие 1) [F75DC43C]
Трек 2 точное извлечение (доверие 1) [83D98ECB]
Трек 3 точное извлечение (доверие 1) [5C640C09]
Трек 4 точное извлечение (доверие 1) [75110EF3]
Трек 5 точное извлечение (доверие 1) [048E176F]
Трек 6 точное извлечение (доверие 1) [46F3C956]
Трек 7 точное извлечение (доверие 1) [DDEACE62]
Трек 8 точное извлечение (доверие 1) [8A827F7D]
Трек 9 точное извлечение (доверие 1) [C200777A]
Трек 10 точное извлечение (доверие 1) [0EDEBD06]

Все треки извлечены точно

Конец отчёта





Black Sabbath - Studio Albums (1970-1986, 12CD) RE-UPPED

Black Sabbath - Sabbath Bloody Sabbath (1973)
Year & Label: 1989, Vertigo/Nippon Phonogram Co., Ltd. Japan | CD#: 23DP-125
FLAC: 290 MB | Artwork: 15 MB | MP3: 110 MB

Many consider Black Sabbath's 1973 release, Sabbath Bloody Sabbath, to be the original lineup's last true classic album. Drug use and alcoholism were beginning to overtake the band (leading to Ozzy Osbourne's eventual departure by decade's end), yet they were still firing on all cylinders. While the casual fan may only be familiar with one selection (the storming title track), Sabbath Bloody Sabbath follows in the tradition of its predecessors, delivering a consistent set of songs from beginning to end. Tony Iommi's riff for "A National Acrobat" remains one of his best and heaviest, while other highlights include the strangely uplifting "Sabbra Cadabra" (which Metallica would cover 25 years later for their Garage Inc. compilation), the cautionary tales "Killing Yourself to Live" and "Who Are You," plus the sci-fi-tinged "Spiral Architect." As with past albums, a tranquil selection is included as a break from all the metallic fury; in this case, it's the gorgeous yet melancholic instrumental "Fluff." Sabbath Bloody Sabbath remains one of Sabbath's all-time best albums.

www.allmusic.com
Musicians:

Vocals : Ozzy Osbourne
Guitars : Tomy Iommi
Bass : Geezer Butler
Drums : Bill Ward

Produced by Black Sabbath for Excellency Production.
Engineered by Mike Butcher. Coordination by Mark Forster. Direction: Patric Meehan.

Track List:

01. Sabbath Bloody Sabbath [5:44]
02. A National Acrobat [6:13]
03. Fluff [4:10]
04. Sabbra Cadabra [5:54]
05. Killing Yourself to Live [5:39]
06. Who Are You? [4:10]
07. Looking for Today [5:05]
08. Spiral Architect [5:32]

Exact Audio Copy V0.99 prebeta 4 from 23. January 2008

Отчёт EAC об извлечении, выполненном 31. января 2011, 19:37

Black Sabbath / Sabbath Bloody Sabbath (23PD-125)

Дисковод: PLEXTOR DVDR PX-760A Adapter: 0 ID: 0

Режим чтения : Достоверность
Использование точного потока : Да
Отключение кэша аудио : Да
Использование указателей C2 : Нет

Коррекция смещения при чтении : 30
Способность читать области Lead-in и Lead-out : Нет
Заполнение пропущенных сэмплов тишиной : Да
Удаление блоков с тишиной в начале и конце : Нет
При вычислениях CRC использовались нулевые сэмплы : Да
Интерфейс : Установленный внешний ASPI-интерфейс

Выходной формат : Внутренние WAV-операции
Формат сэмплов : 44.100 Гц; 16 бит; стерео


TOC извлечённого CD

Трек | Старт | Длительность | Начальный сектор | Конечный сектор
––––––––––––––––––––––––––––––––––-
1 | 0:00.37 | 5:44.08 | 37 | 25844
2 | 5:44.45 | 6:13.27 | 25845 | 53846
3 | 11:57.72 | 4:09.48 | 53847 | 72569
4 | 16:07.45 | 5:54.25 | 72570 | 99144
5 | 22:01.70 | 5:39.30 | 99145 | 124599
6 | 27:41.25 | 4:10.35 | 124600 | 143384
7 | 31:51.60 | 5:04.45 | 143385 | 166229
8 | 36:56.30 | 5:31.65 | 166230 | 191119


Характеристики диапазона извлечения и сообщения об ошибках

Выбранный диапазон

Имя файла D:\kos1871\Black Sabbath - Sabbath Bloody Sabbath (23PD-125).wav

Пиковый уровень 100.0 %
Качество диапазона 99.9 %
CRC теста 0FD4623D
CRC копии 0FD4623D
Копирование… OK

Ошибок не произошло


AccurateRip: сводка

Трек 1 нет в базе данных
Трек 2 нет в базе данных
Трек 3 нет в базе данных
Трек 4 нет в базе данных
Трек 5 нет в базе данных
Трек 6 нет в базе данных
Трек 7 нет в базе данных
Трек 8 нет в базе данных

Ни одного трека нет в базе AccurateRip

Конец отчёта





Black Sabbath - Studio Albums (1970-1986, 12CD) RE-UPPED

Black Sabbath - Sabotage (1975)
Year & Label: 1989, Vertigo/Nippon Phonogram Co., Ltd. Japan | CD#: 23DP-127
FLAC: 300 MB | Artwork: 20 MB | MP3: 110 MB

Years of constant touring, alcoholism, and drug abuse finally began to affect Black Sabbath around the time of their sixth release, 1975's Sabotage. While it's not a bad album (in fact, it's one of their most underrated), you can sense that the magical chemistry that made such albums as Paranoid and Vol. 4 so special was beginning to disintegrate. But guitarist Tony Iommi again comes equipped with an arsenal of sturdy, ultra-heavy riffs, as evidenced by the raucous album opener, "Hole in the Sky," as well as the drug-induced anthem "Symptom of the Universe" – both tracks coming as close to garage rock as Sabbath ever got. But the album's biggest surprise is the melodic, synth-laced "Am I Going Insane (Radio)," which is more akin to '70s power pop than to the band's patented doom metal (although the lyrics are what you'd expect – detailing a person's downward spiral into dementia). Although often overlooked, Sabotage remains an interesting and challenging release.

www.allmusic.com
Musicians:

Vocals : Ozzy Osbourne
Guitars : Tomy Iommi
Bass : Geezer Butler
Drums : Bill Ward

Produced by Black Sabbath with Mike Butcher.
Engineered by Mike Butcher and Robin Black. Tape Operator ans saboteur - David Harris
Recorded at Morgan Studios, London and Brussels. Mastered at Sterling Sound, New York.

Track List:

01. Hole In The Sky [4:00]
02. Don't Start (Too Late) [0:49]
03. Symptom Of The Universe [6:29]
04. Megalomania [9:42]
05. Thrill Of It All [5:56]
06. Supertzar [3:44]
07. Am I Going Insane (Radio) [4:10]
08. The Writ [8:19]

Exact Audio Copy V0.99 prebeta 5 from 4. May 2009

Archivo Log de extracciones desde 19. Junio 2014, 11:51

Black Sabbath / Sabotage - Japan (23PD-127 )

Usar unidad : HL-DT-STDVDRAM GH22NS70 Adapter: 0 ID: 0

Modo de Lectura : Seguro
Utilizar Corriente Exacta : Sн
Descartar Audio cachй : Sн
Utilizar los punteros C2 : No

Correcciуn de Desplazamiento de Lectura : 667
Sobreleer tanto en Lead-In como en Lead-Out : No
Rellenar las muestras faltantes con silencios : Sн
Eliminar silencios inicial y final : No
Se han usado muestras nulas en los cбlculos CRC : Sн
Interfaz usada : Interfaz propio de Win32 para Windowns NT y 2000

Formato de Salida utilizado : Compresor definido por el usuario
Bitrate seleccionado : 32 kBit/s
Calidad : Alta
Aсadir Etiqueta ID3 : No
Compresor de linea de comandos : C:\Program Files (x86)\Exact Audio Copy\Flac\flac.exe
Opciones adicionales en lнnea de comandos : -6 -V %s


TOC del CD extraido

Pista | Inicio | Duraciуn | Sector inicial | Sector final
––––––––––––––––––––––––––––––-
1 | 0:00.37 | 4:00.30 | 37 | 18066
2 | 4:00.67 | 0:49.28 | 18067 | 21769
3 | 4:50.20 | 6:29.30 | 21770 | 50974
4 | 11:19.50 | 9:41.50 | 50975 | 94599
5 | 21:01.25 | 5:55.50 | 94600 | 121274
6 | 26:57.00 | 3:43.67 | 121275 | 138066
7 | 30:40.67 | 4:10.00 | 138067 | 156816
8 | 34:50.67 | 8:18.45 | 156817 | 194211


Gama de estados y errores

Seleccionar gama

Nombre de Archivo E:\Mъsica\EAC\Black Sabbath\Sabotage\Black Sabbath - Sabotage - Japan (23PD-127 ).wav

Nivel Pico 100.0 %
Gama de Calidad 100.0 %
Test CRC 8E94D897
Copiar CRC 8E94D897
Copia OK

Sin Errores


Resumen AccurateRip

Pista 1 no se puede verificar como preciso (confianza 2) [3BF5F28A], AccurateRip devuelto [121A7CFE]
Pista 2 no se puede verificar como preciso (confianza 2) [031BD0EC], AccurateRip devuelto [8131A749]
Pista 3 no se puede verificar como preciso (confianza 2) [C04EAE4F], AccurateRip devuelto [2EBAE357]
Pista 4 no se puede verificar como preciso (confianza 2) [F80D4ACC], AccurateRip devuelto [56499215]
Pista 5 no se puede verificar como preciso (confianza 2) [A9ECB249], AccurateRip devuelto [46149BC3]
Pista 6 no se puede verificar como preciso (confianza 2) [0F4801FA], AccurateRip devuelto [F0A88770]
Pista 7 no se puede verificar como preciso (confianza 2) [D0285B13], AccurateRip devuelto [D0805E9E]
Pista 8 no se puede verificar como preciso (confianza 2) [E0FD86BE], AccurateRip devuelto [351B1501]

No se verificarб ninguna pista como precisa
Puede que tengas una ediciуn diferente a la(s) de la base de datos

Final del Informe





Black Sabbath - Studio Albums (1970-1986, 12CD) RE-UPPED

Black Sabbath - Technical Ecstasy (1976)
Year & Label: 1989, Vertigo/Nippon Phonogram Co., Ltd. Japan | CD#: 23DP-137
FLAC: 270 MB | Artwork: 10 MB | MP3: 100 MB

Black Sabbath was unraveling at an alarming rate around the time of their second to last album with original singer Ozzy Osbourne, 1976's Technical Ecstasy. The band was getting further and further from their original musical path, as they began experimenting with their trademark sludge-metal sound. While it was not as off-the-mark as their final album with Osbourne, 1978's Never Say Die, it was not on par with Sabbath's exceptional first five releases. The most popular song remains the album closer, "Dirty Women," which was revived during the band's highly successful reunion tour of the late '90s. Other standouts include the funky "All Moving Parts (Stand Still)" and the raging opener, "Back Street Kids." The melodic "It's Alright" turns out to be the album's biggest surprise — it's one of drummer Bill Ward's few lead vocal spots with the band.

www.allmusic.com
Musicians:

Vocals : Ozzy Osbourne
Guitars : Tomy Iommi
Bass : Geezer Butler
Drums : Bill Ward

Recorded at Criteria Studios, Miami, Florida.
Engineered by Robin Black, assisted by Spock Wall Mixed at Criteria Studios by Tony Iommi and Robin Black.
Mastered at Warner Bros. Studios, California, by Tony Iommi and Bob Hata.

Track List:

01. Back Street Kids [3:50]
02. You Won't Change Me [6:38]
03. It's Alright [4:02]
04. Gypsy [5:11]
05. All Moving Parts (Stand Still) [5:03]
06. Rock 'N' Roll Doctor [3:31]
07. She's Gone [4:56]
08. Dirty Women [7:14]

Exact Audio Copy V0.99 prebeta 5 from 4. May 2009

Отчёт EAC об извлечении, выполненном 7. декабря 2010, 21:03

Black Sabbath / Technical Ecstacy

Дисковод: HL-DT-STDVDRAM GSA-T20N Adapter: 1 ID: 0

Режим чтения : Достоверность
Использование точного потока : Да
Отключение кэша аудио : Да
Использование указателей C2 : Нет

Коррекция смещения при чтении : 667
Способность читать области Lead-in и Lead-out : Нет
Заполнение пропущенных сэмплов тишиной : Да
Удаление блоков с тишиной в начале и конце : Нет
При вычислениях CRC использовались нулевые сэмплы : Да
Интерфейс : Встроенный Win32-интерфейс для Win NT/2000

Выходной формат : Пользовательский кодировщик
Выбранный битрейт : 768 kBit/s
Качество : Высокий
Добавление ID3-тэга : Нет
Утилита сжатия : C:\Program Files\Exact Audio Copy\FLAC\FLAC.EXE
Дополнительные параметры : -8 -V %s


TOC извлечённого CD

Трек | Старт | Длительность | Начальный сектор | Конечный сектор
––––––––––––––––––––––––––––––––––-
1 | 0:00.37 | 3:50.03 | 37 | 17289
2 | 3:50.40 | 6:38.27 | 17290 | 47166
3 | 10:28.67 | 4:01.73 | 47167 | 65314
4 | 14:30.65 | 5:11.15 | 65315 | 88654
5 | 19:42.05 | 5:03.25 | 88655 | 111404
6 | 24:45.30 | 3:30.57 | 111405 | 127211
7 | 28:16.12 | 4:55.60 | 127212 | 149396
8 | 33:11.72 | 7:14.10 | 149397 | 181956


Характеристики диапазона извлечения и сообщения об ошибках

Выбранный диапазон

Имя файла D:\uTorrent.compl\Black Sabbath - Studio Albums 1970-1978 ( Japan Vertigo Press Rare )\'Technical Ecstasy' 1976 ( Vertigo 23PD-137 )\Black Sabbath - Technical Ecstacy.wav

Пиковый уровень 98.6 %
Качество диапазона 99.9 %
CRC теста F120C7D6
CRC копии F120C7D6
Копирование… OK

Ошибок не произошло


AccurateRip: сводка

Трек 1 точное извлечение (доверие 2) [B4AD3814]
Трек 2 точное извлечение (доверие 2) [4324A6A1]
Трек 3 точное извлечение (доверие 2) [DA6AD3BD]
Трек 4 точное извлечение (доверие 2) [3F4066CC]
Трек 5 точное извлечение (доверие 2) [CEB7F257]
Трек 6 точное извлечение (доверие 2) [1CBD10C5]
Трек 7 точное извлечение (доверие 2) [D7FEB25E]
Трек 8 точное извлечение (доверие 2) [C7F09680]

Все треки извлечены точно

Конец отчёта





Black Sabbath - Studio Albums (1970-1986, 12CD) RE-UPPED

Black Sabbath - Never Say Die! (1978)
Year & Label: 1990, Vertigo/Nippon Phonogram Co., Ltd. Japan | CD#: PHCR-2053
FLAC: 330 MB | Artwork: 30 MB | MP3: 110 MB

After going their separate ways for a brief period following the emotionally taxing and drug-infested Technical Ecstasy tour, Black Sabbath and singer Ozzy Osbourne reconciled long enough to record 1978's Never Say Die! — an album whose varied but often unfocused songs perfectly reflected the band's uneasy state of affairs at the time. Even the surprisingly energetic title track, which seemed to kick things off with a promising bang, couldn't entirely mask the group's fading enthusiasm just beneath the surface after a few repeated listens. The same was true of half-hearted performances like "Shock Wave" and "Over to You," and there were several songs on the record that sound strangely disjointed, specifically "Junior's Eyes" and the synthesizer-doused "Johnny Blade" — as though their creation came in fits and starts, rather than through cohesive band interaction. But when it came to wild, stylistic departures, one's disappointing realization that the lurching, saxophone-led "Breakout" came from — and then went back to — absolutely nowhere was easily offset by the stunningly successful oddity that was "Air Dance." Arguably the most experimental song in Black Sabbath's entire canon, this uncharacteristically mild-mannered and effortlessly evocative ballad saw Tony Iommi's normally bullish guitar giving way to simply mesmerizing piano flourishes performed by leading session keyboardist Don Airey. If only it had represented a bold new direction (albeit one that die-hard fans would never have accepted) rather than just another sign of the band's quickly fraying sense of identity, Black Sabbath's original lineup may have found a way to save itself — but Never Say Die!'s incoherent musical aggregate in fact betrayed the harsh reality that it was indeed too late. So even though those same die-hard Black Sabbath fans and completists will likely find some redeeming value in Never Say Die! after all these years, the original lineup's final gasp will hold little interest to the average heavy metal fan.

www.allmusic.com
Musicians:

Vocals : Ozzy Osbourne
Guitars : Tomy Iommi
Bass : Geezer Butler
Drums : Bill Ward

Engineered by Dave Harris, assisted by Spock Wall.
Recorded at Sounds Intercharge, Toronto, Canada.

Track List:

01. Never Say Die [3:51]
02. Johnny Blade [6:29]
03. Junior's Eyes [6:43]
04. A Hard Road [6:03]
05. Shock Wave [5:16]
06. Air Dance [5:17]
07. Over To You [5:23]
08. Breakout [2:36]
09. Swinging The Chain [4:16]

Exact Audio Copy V0.99 prebeta 4 from 23. January 2008

EAC extraction logfile from 29. April 2011, 0:28

Black Sabbath / Never Say Die (PHCR-2053)

Used drive : PLEXTOR DVDR PX-760A Adapter: 0 ID: 0

Read mode : Secure
Utilize accurate stream : Yes
Defeat audio cache : Yes
Make use of C2 pointers : No

Read offset correction : 30
Overread into Lead-In and Lead-Out : No
Fill up missing offset samples with silence : Yes
Delete leading and trailing silent blocks : No
Null samples used in CRC calculations : Yes
Used interface : Installed external ASPI interface

Used output format : Internal WAV Routines
Sample format : 44.100 Hz; 16 Bit; Stereo


TOC of the extracted CD

Track | Start | Length | Start sector | End sector
––––––––––––––––––––––––––––-
1 | 0:00.37 | 3:50.55 | 37 | 17341
2 | 3:51.17 | 6:29.10 | 17342 | 46526
3 | 10:20.27 | 6:43.10 | 46527 | 76761
4 | 17:03.37 | 6:03.10 | 76762 | 103996
5 | 23:06.47 | 5:15.68 | 103997 | 127689
6 | 28:22.40 | 5:17.12 | 127690 | 151476
7 | 33:39.52 | 5:23.18 | 151477 | 175719
8 | 39:02.70 | 2:35.67 | 175720 | 187411
9 | 41:38.62 | 4:15.40 | 187412 | 206576


Range status and errors

Selected range

Filename D:\bki71\Black Sabbath - Never Say Die (PHCR-2053).wav

Peak level 100.0 %
Range quality 100.0 %
Test CRC 88B304C1
Copy CRC 88B304C1
Copy OK

No errors occurred


AccurateRip summary

Track 1 accurately ripped (confidence 1) [6C525695]
Track 2 accurately ripped (confidence 1) [0242588C]
Track 3 accurately ripped (confidence 1) [08DEB7AD]
Track 4 accurately ripped (confidence 1) [C4B2EA26]
Track 5 accurately ripped (confidence 1) [B6394B9D]
Track 6 accurately ripped (confidence 1) [18820BF9]
Track 7 accurately ripped (confidence 1) [753F9C76]
Track 8 accurately ripped (confidence 1) [E207601B]
Track 9 accurately ripped (confidence 1) [6016685F]

All tracks accurately ripped

End of status report





Black Sabbath - Studio Albums (1970-1986, 12CD) RE-UPPED

Black Sabbath - Heaven And Hell (1980)
Year & Label: 1989, Vertigo/Nippon Phonogram Co., Ltd. Japan | CD#: 23DP-123
FLAC: 270 MB | Artwork: 15 MB | MP3: 100 MB

Many had left Black Sabbath for dead at the dawn of the '80s, and with good reason – the band's last few albums were not even close to their early classics, and original singer Ozzy Osbourne had just split from the band. But the Sabs had found a worthy replacement in former Elf and Rainbow singer Ronnie James Dio, and bounced back to issue their finest album since the early '70s, 1980's Heaven and Hell. The band sounds reborn and re-energized throughout. Several tracks easily rank among Sabbath's all-time best, such as the vicious album opener, "Neon Knights," the moody, mid-paced epic "Children of the Sea," and the title track, which features one of Tony Iommi 's best guitar riffs. With Heaven and Hell, Black Sabbath were obviously back in business. Unfortunately, the Dio-led version of the band would only record one more studio album before splitting up (although Dio would return briefly in the early '90s). One of Sabbath's finest records.

www.allmusic.com
Musicians:

Vocals : Ronnie James Dio
Guitars : Tomy Iommi
Bass : Geezer Butler
Drums : Bill Ward

Produced and engineered by Martin Birch.
Music written and arranged by Butler/Dio/Iommi/Ward. Lyrics by Ronnie James Dio.

Track List:

01. Neon Knights [3:53]
02. Children Of The Sea [5:35]
03. Lady Evil [4:25]
04. Heaven And Hell [6:59]
05. Wishing Well [4:07]
06. Die Young [4:46]
07. Walk Away [4:26]
08. Lonely Is The Word [5:51]

Exact Audio Copy V0.99 prebeta 4 from 23. January 2008

Отчёт EAC об извлечении, выполненном 29. января 2011, 18:01

Black Sabbath / Heaven And Hell (23PD-123)

Дисковод: PLEXTOR DVDR PX-760A Adapter: 0 ID: 0

Режим чтения : Достоверность
Использование точного потока : Да
Отключение кэша аудио : Да
Использование указателей C2 : Нет

Коррекция смещения при чтении : 30
Способность читать области Lead-in и Lead-out : Нет
Заполнение пропущенных сэмплов тишиной : Да
Удаление блоков с тишиной в начале и конце : Нет
При вычислениях CRC использовались нулевые сэмплы : Да
Интерфейс : Установленный внешний ASPI-интерфейс

Выходной формат : Внутренние WAV-операции
Формат сэмплов : 44.100 Гц; 16 бит; стерео


TOC извлечённого CD

Трек | Старт | Длительность | Начальный сектор | Конечный сектор
––––––––––––––––––––––––––––––––––-
1 | 0:00.37 | 3:53.15 | 37 | 17526
2 | 3:53.52 | 5:34.68 | 17527 | 42644
3 | 9:28.45 | 4:25.15 | 42645 | 62534
4 | 13:53.60 | 6:58.50 | 62535 | 93934
5 | 20:52.35 | 4:06.40 | 93935 | 112424
6 | 24:59.00 | 4:45.62 | 112425 | 133861
7 | 29:44.62 | 4:25.68 | 133862 | 153804
8 | 34:10.55 | 5:51.37 | 153805 | 180166


Характеристики диапазона извлечения и сообщения об ошибках

Выбранный диапазон

Имя файла D:\kos1871\Black Sabbath - Heaven And Hell (23PD-123).wav

Пиковый уровень 84.5 %
Качество диапазона 100.0 %
CRC теста AFA84F34
CRC копии AFA84F34
Копирование… OK

Ошибок не произошло


AccurateRip: сводка

Трек 1 точное извлечение (доверие 4) [3E1D9D3C]
Трек 2 точное извлечение (доверие 4) [AE6F2731]
Трек 3 точное извлечение (доверие 3) [44666EB7]
Трек 4 точное извлечение (доверие 3) [F19AD4AC]
Трек 5 точное извлечение (доверие 3) [06D88C28]
Трек 6 точное извлечение (доверие 3) [290CA144]
Трек 7 точное извлечение (доверие 3) [EBE2E617]
Трек 8 точное извлечение (доверие 3) [EE395007]

Все треки извлечены точно

Конец отчёта





Black Sabbath - Studio Albums (1970-1986, 12CD) RE-UPPED

Black Sabbath - Mob Rules (1981)
Year & Label: 1989, Vertigo/Nippon Phonogram Co., Ltd. Japan | CD#: 23DP-126
FLAC: 280 MB | Artwork: 20 MB | MP3: 100 MB

1981's Mob Rules was the second Black Sabbath album to feature vertically challenged singer Ronnie James Dio, whose powerful pipes and Dungeons and Dragons lyrics initially seemed like the perfect replacement for the recently departed and wildly popular Ozzy Osbourne. In fact, all the ingredients which had made their first outing, Heaven and Hell, so successful are re-utilized on this album, including legendary metal producer Martin Birch (Deep Purple, Whitesnake, etc.) and supporting keyboard player Geoff Nichols. And while it lacks some of its predecessor's inspired songwriting, Mob Rules was given a much punchier, in-your-face mix by Birch, who seemed re-energized after his work on New Wave of British Heavy Metal upstarts Iron Maiden's Killers album. Essentially, Mob Rules is a magnificent record, with the only serious problem being the sequencing of the material, which mirrors Heaven and Hell's almost to a tee. In that light, one can't help but compare otherwise compelling tracks like "Turn Up the Night" and "Voodoo" to their more impressive Heaven and Hell counterparts, "Neon Knights" and "Children of the Sea." This unhappy streak is finally snapped by the unconventional "E5150," a synthesizer-driven instrumental. Then, the unbelievably heavy, seven-minute epic "The Sign of the Southern Cross" delivers one of the album's best moments before unleashing the roaring title track. Side two is less consistent, hiding the awesome "Falling off the Edge of the World" (perhaps the most overlooked secret gem to come from the Dio lineup) amongst rather average tracks like "Slipping Away" and "Over and Over." Over the next year, the sh*t would hit the fan for Black Sabbath, and Dio's exit would mark Mob Rules as the last widely respected studio release of the band's storied career.

www.allmusic.com
Musicians:

Vocals : Ronnie James Dio
Guitars : Tomy Iommi
Bass : Geezer Butler
Drums : Bill Ward
Keyboards : Geoff Nicholls

Produced and engineered by Martin Birch.
Recorded with The Recrods Plant L.A.

Track List:

01. Turn Up The Night [3:43]
02. Voodoo [4:33]
03. The Sign Of The Southern Cross [7:50]
04. E5150 [2:50]
05. The Mob Rules [3:16]
06. Country Girl [4:03]
07. Slipping Away [3:46]
08. Falling Off The Edge Of The World [5:04]
09. Over And Over [5:31]

Exact Audio Copy V0.99 prebeta 4 from 23. January 2008

Отчёт EAC об извлечении, выполненном 6. февраля 2011, 14:10

Black Sabbath / Mob Rules (23PD-126)

Дисковод: PLEXTOR DVDR PX-760A Adapter: 0 ID: 0

Режим чтения : Достоверность
Использование точного потока : Да
Отключение кэша аудио : Да
Использование указателей C2 : Нет

Коррекция смещения при чтении : 30
Способность читать области Lead-in и Lead-out : Нет
Заполнение пропущенных сэмплов тишиной : Да
Удаление блоков с тишиной в начале и конце : Нет
При вычислениях CRC использовались нулевые сэмплы : Да
Интерфейс : Установленный внешний ASPI-интерфейс

Выходной формат : Внутренние WAV-операции
Формат сэмплов : 44.100 Гц; 16 бит; стерео


TOC извлечённого CD

Трек | Старт | Длительность | Начальный сектор | Конечный сектор
––––––––––––––––––––––––––––––––––-
1 | 0:00.37 | 3:43.18 | 37 | 16779
2 | 3:43.55 | 4:33.27 | 16780 | 37281
3 | 8:17.07 | 7:50.00 | 37282 | 72531
4 | 16:07.07 | 2:50.20 | 72532 | 85301
5 | 18:57.27 | 3:15.45 | 85302 | 99971
6 | 22:12.72 | 4:03.35 | 99972 | 118231
7 | 26:16.32 | 3:46.18 | 118232 | 135199
8 | 30:02.50 | 5:04.10 | 135200 | 158009
9 | 35:06.60 | 5:30.42 | 158010 | 182801


Характеристики диапазона извлечения и сообщения об ошибках

Выбранный диапазон

Имя файла D:\kos1871\Black Sabbath - Mob Rules (23PD-126).wav

Пиковый уровень 100.0 %
Качество диапазона 99.9 %
CRC теста B29B6D54
CRC копии B29B6D54
Копирование… OK

Ошибок не произошло


AccurateRip: сводка

Трек 1 точное извлечение (доверие 4) [D0A7AA4A]
Трек 2 точное извлечение (доверие 4) [556F00CB]
Трек 3 точное извлечение (доверие 4) [47A57DD9]
Трек 4 точное извлечение (доверие 4) [6A196323]
Трек 5 точное извлечение (доверие 4) [1B6208E3]
Трек 6 точное извлечение (доверие 4) [3D7FFC3E]
Трек 7 точное извлечение (доверие 4) [66DF6475]
Трек 8 точное извлечение (доверие 4) [1004F254]
Трек 9 точное извлечение (доверие 4) [F6634155]

Все треки извлечены точно

Конец отчёта





Black Sabbath - Studio Albums (1970-1986, 12CD) RE-UPPED

Black Sabbath - Born Again (1983)
Year & Label: 1990, Vertigo/Nippon Phonogram Co., Ltd. Japan | CD#: PHCR-2054
FLAC: 280 MB | Artwork: 20 MB | MP3: 100 MB

The idea sure looked good on paper, but when former Deep Purple frontman Ian Gillan joined Black Sabbath for 1983's dreadful Born Again album, the grim reality was that Gillan's bluesy vocal style and oftentimes humorous lyrics were completely incompatible with the lords of doom and gloom. Widely deemed the band's creative nadir (although a few later efforts like Cross Purposes and Forbidden give it a run for its money), Born Again also featured one of the worst album covers ever (it's been voted!), and the subsequent world tour was so troubled and tragicomic that the band's Stonehenge stage set wound up serving as inspiration for the ultimate rock & roll spoof movie, This Is Spinal Tap, when it was discovered to be too large to fit inside most venues! Born Again's equally atrocious "production" leaves one with the distinct impression that, in a misguided attempt to record the heaviest album ever, Black Sabbath came away with the muddiest instead. Among the smoking ruins that pass for its songs, one might find it possible to appreciate Gillan's trademarked double entendres on "Disturbing the Priest," pick out a decent melody within the messy title track, and get down to some mercifully straightforward headbanging with "Digital Bitch" and the album's lone classic, "Trashed." But the remaining detritus, composed of embarrassing numbers like "Zero the Hero," "Hot Line," and "Keep It Warm" and pointless sound effect interludes "Stonehenge" and "The Dark," is simply beyond painful. By comparison, even the barely-recognizable-as-Sabbath material found on 1986's belated comeback, Seventh Star – originally planned as a Tony Iommi solo effort, to be fair – sounds pretty damn good. But by then, Black Sabbath's greatly anticipated association with Ian Gillan had gone down as one of heavy metal's all-time greatest disappointments, and nearly killed the genre's founding fathers in the process.

www.allmusic.com
Musicians:

Vocals : Ian Gillan
Guitars : Tomy Iommi
Bass : Geezer Butler
Drums : Bill Ward
Keyboards : Geoff Nicholls

Recorded at The Manor Studio, Shipton on Cherwell Oxfordshire, England.
Produced by Robin Black and Black Sabbath.

Track List:

01. Trashed [4:20]
02. Stonehenge [1:58]
03. Disturbing The Priest [5:56]
04. The Dark [0:45]
05. Zero The Hero [7:40]
06. Digital Bitch [3:44]
07. Born Again [6:41]
08. Hot Line [4:58]
09. Keep It Warm [5:39]

Exact Audio Copy V0.99 prebeta 5 from 4. May 2009

Archivo Log de extracciones desde 3. Junio 2014, 11:36

Black Sabbath / Born Again - Japan (PHCR-2054)

Usar unidad : HL-DT-STDVDRAM GH22NS70 Adapter: 0 ID: 0

Modo de Lectura : Seguro
Utilizar Corriente Exacta : Sн
Descartar Audio cachй : Sн
Utilizar los punteros C2 : No

Correcciуn de Desplazamiento de Lectura : 667
Sobreleer tanto en Lead-In como en Lead-Out : No
Rellenar las muestras faltantes con silencios : Sн
Eliminar silencios inicial y final : No
Se han usado muestras nulas en los cбlculos CRC : Sн
Interfaz usada : Interfaz propio de Win32 para Windowns NT y 2000

Formato de Salida utilizado : Compresor definido por el usuario
Bitrate seleccionado : 32 kBit/s
Calidad : Alta
Aсadir Etiqueta ID3 : No
Compresor de linea de comandos : C:\Program Files (x86)\Exact Audio Copy\Flac\flac.exe
Opciones adicionales en lнnea de comandos : -6 -V %s


TOC del CD extraido

Pista | Inicio | Duraciуn | Sector inicial | Sector final
––––––––––––––––––––––––––––––-
1 | 0:00.37 | 4:20.15 | 37 | 19551
2 | 4:20.52 | 1:58.03 | 19552 | 28404
3 | 6:18.55 | 5:56.27 | 28405 | 55131
4 | 12:15.07 | 0:44.73 | 55132 | 58504
5 | 13:00.05 | 7:39.65 | 58505 | 92994
6 | 20:39.70 | 3:44.15 | 92995 | 109809
7 | 24:24.10 | 6:40.72 | 109810 | 139881
8 | 31:05.07 | 4:57.53 | 139882 | 162209
9 | 36:02.60 | 5:38.70 | 162210 | 187629


Gama de estados y errores

Seleccionar gama

Nombre de Archivo E:\Mъsica\EAC\Black Sabbath\Born Again\Black Sabbath - Born Again - Japan (PHCR-2054).wav

Nivel Pico 100.0 %
Gama de Calidad 100.0 %
Test CRC 604FB915
Copiar CRC 604FB915
Copia OK

Sin Errores


Resumen AccurateRip

Pista 1 no se puede verificar como preciso (confianza 2) [EB050CC1], AccurateRip devuelto [44053833]
Pista 2 no se puede verificar como preciso (confianza 2) [06191D12], AccurateRip devuelto [703D6730]
Pista 3 no se puede verificar como preciso (confianza 2) [CA29328F], AccurateRip devuelto [0EB558A4]
Pista 4 no se puede verificar como preciso (confianza 2) [6316E594], AccurateRip devuelto [4250E74B]
Pista 5 no se puede verificar como preciso (confianza 2) [2F66C3AB], AccurateRip devuelto [BE6C101B]
Pista 6 no se puede verificar como preciso (confianza 2) [3DEF3A21], AccurateRip devuelto [009874C0]
Pista 7 no se puede verificar como preciso (confianza 2) [0A738C5D], AccurateRip devuelto [37540817]
Pista 8 no se puede verificar como preciso (confianza 2) [E3860D9F], AccurateRip devuelto [A7228750]
Pista 9 no se puede verificar como preciso (confianza 2) [DD2709A9], AccurateRip devuelto [41A54713]

No se verificarб ninguna pista como precisa
Puede que tengas una ediciуn diferente a la(s) de la base de datos

Final del Informe





Black Sabbath - Studio Albums (1970-1986, 12CD) RE-UPPED

Black Sabbath - Seventh Star (1986)
Year & Label: 1990, Vertigo/Nippon Phonogram Co., Ltd. Japan | CD#: PHCR-2055
FLAC: 250 MB | Artwork: 15 MB | MP3: 90 MB

An often misunderstood and underrated album, 1986's Seventh Star was never intended to be a Black Sabbath release, as the band had effectively broken up following its disastrous 1984 tour in support of career low point Born Again. Instead, Seventh Star was conceived as guitarist Tony Iommi's first solo project, and it was only record company pressure that forced him to resurrect his longtime band's moniker at the last minute. With this in mind, one can better appreciate both the record's more blues-based, often un-Sabbath-like songwriting and the contributions made by journeyman singer Glenn Hughes (ex-Trapeze, Deep Purple, etc.), whose incredibly emotive and soulful vocal style was completely at odds with the deadpan delivery of Sabbath's most recognizable singer, Ozzy Osbourne (a discrepancy that would spell his quick exit when the necessary classics were wheeled out for the ensuing world tour). Still, within the unique circumstances of Seventh Star's creation, Hughes' fiery tunefulness made aggressive hard rockers like "In for the Kill," "Turn to Stone," and "Danger Zone" uncommonly catchy, and gorgeous ballads such as "Angry Heart/In Memory…" and "No Stranger to Love" all the more heart-rending. Tellingly, his efforts fell resoundingly flat on the bluesy aimlessness of "Heart Like a Wheel" and the gothic menace of the title track, making it possible for keener observers to foresee the troubles ahead. Yet, in light of the even more traumatic difficulties that preceded it, Seventh Star – for all its uncharacteristic sonic qualities – actually represents the turning of a corner for Black Sabbath's lengthy career, which steadily regained momentum in the years that followed.

www.allmusic.com
Musicians:

Vocals : Glenn Hughes
Guitars : Tomy Iommi
Bass : Dave Spitz
Drums : Eric Singer
Keyboards : Geoff Nicholls

Produced by Jeff Glixman.
Originally mastered by Greg Fulginity at Aristan Sound Records.

Track List:

01. In For The Kill [3:43]
02. No Stranger To Love [4:30]
03. Turn To Stone [3:03]
04. Sphinx (The Guardian) [1:12]
05. Seventh Star [5:21]
06. Danger Zone [4:25]
07. Heart Like A Wheel [6:38]
08. Angry Heart [3:07]
09. In Memory… [2:34]

Exact Audio Copy V0.99 prebeta 5 from 4. May 2009

Archivo Log de extracciones desde 6. Marzo 2013, 10:51

BLACK SABBATH / Seventh Star - Japan (PHCR-2055)

Usar unidad : HL-DT-STDVDRAM GH22NS70 Adapter: 0 ID: 0

Modo de Lectura : Seguro
Utilizar Corriente Exacta : Sн
Descartar Audio cachй : Sн
Utilizar los punteros C2 : No

Correcciуn de Desplazamiento de Lectura : 667
Sobreleer tanto en Lead-In como en Lead-Out : No
Rellenar las muestras faltantes con silencios : Sн
Eliminar silencios inicial y final : No
Se han usado muestras nulas en los cбlculos CRC : Sн
Interfaz usada : Interfaz propio de Win32 para Windowns NT y 2000

Formato de Salida utilizado : Compresor definido por el usuario
Bitrate seleccionado : 32 kBit/s
Calidad : Alta
Aсadir Etiqueta ID3 : No
Compresor de linea de comandos : C:\Program Files (x86)\Exact Audio Copy\Flac\flac.exe
Opciones adicionales en lнnea de comandos : -6 -V %s


TOC del CD extraido

Pista | Inicio | Duraciуn | Sector inicial | Sector final
––––––––––––––––––––––––––––––-
1 | 0:00.37 | 3:43.08 | 37 | 16769
2 | 3:43.45 | 4:29.47 | 16770 | 36991
3 | 8:13.17 | 3:30.18 | 36992 | 52759
4 | 11:43.35 | 1:11.42 | 52760 | 58126
5 | 12:55.02 | 5:21.13 | 58127 | 82214
6 | 18:16.15 | 4:25.02 | 82215 | 102091
7 | 22:41.17 | 6:38.05 | 102092 | 131946
8 | 29:19.22 | 3:07.08 | 131947 | 145979
9 | 32:26.30 | 2:35.57 | 145980 | 157661


Gama de estados y errores

Seleccionar gama

Nombre de Archivo E:\Mъsica\EAC\Black Sabbath\BLACK SABBATH - Seventh Star - Japan (PHCR-2055).wav

Nivel Pico 98.4 %
Gama de Calidad 100.0 %
Test CRC 15785A65
Copiar CRC 15785A65
Copia OK

Sin Errores


Resumen AccurateRip

Pista 1 extraido de modo preciso (nivel de confianza 7) [25D39CD0]
Pista 2 extraido de modo preciso (nivel de confianza 8) [3D1B3407]
Pista 3 extraido de modo preciso (nivel de confianza 7) [441DD945]
Pista 4 extraido de modo preciso (nivel de confianza 7) [8CA1979E]
Pista 5 extraido de modo preciso (nivel de confianza 7) [52291F79]
Pista 6 extraido de modo preciso (nivel de confianza 7) [6C4AA49D]
Pista 7 extraido de modo preciso (nivel de confianza 7) [7CEF3A5F]
Pista 8 extraido de modo preciso (nivel de confianza 8) [62D3ADE2]
Pista 9 extraido de modo preciso (nivel de confianza 8) [5717EBF4]

Todas las pistas extraidas de modo preciso

Final del Informe

Not my rip, not my scan-job. Thx very much to the original uploaders!
5% WinRar Recovery Record for all files.
Try before you might buy. Support the artists you like and buy their stuff whenever you can afford it.
FLAC, image + atrwork or mp3 at Nitroflare.com:

Black Sabbath - Black Sabbath (1970, 23DP-133)
FLAC | Artwork | Mp3 320 kbps
¤¤¤¤¤¤¤¤¤¤¤
Black Sabbath - Paranoid (1970, 23DP-134)
FLAC | Artwork | Mp3 320 kbps
¤¤¤¤¤¤¤¤¤¤¤
Master Of Reality (1971, 23DP-135)
FLAC | Artwork | Mp3 320 kbps
¤¤¤¤¤¤¤¤¤¤¤
Black Sabbath - Vol. 4 (1972, 23DP-136)
FLAC | Artwork | Mp3 320 kbps
¤¤¤¤¤¤¤¤¤¤¤
Black Sabbath - Sabbath Bloody Sabbath (1973, 23DP-125)
FLAC | Artwork | Mp3 320 kbps
¤¤¤¤¤¤¤¤¤¤¤
Black Sabbath - Sabotage (1975, 23DP-127)
FLAC | Artwork | Mp3 320 kbps
¤¤¤¤¤¤¤¤¤¤¤
Black Sabbath - Technical Ecstasy (1976, 23DP-137)
FLAC | Artwork | Mp3 320 kbps
¤¤¤¤¤¤¤¤¤¤¤
Black Sabbath - Never Say Die! (1978, PHCR-2053)
FLAC | Artwork | Mp3 320 kbps
¤¤¤¤¤¤¤¤¤¤¤
Black Sabbath - Heaven And Hell (1980, 23DP-123)
FLAC | Artwork | Mp3 320 kbps
¤¤¤¤¤¤¤¤¤¤¤
Black Sabbath - Mob Rules (1981, 23DP-126)
FLAC | Artwork | Mp3 320 kbps
¤¤¤¤¤¤¤¤¤¤¤
Black Sabbath - Born Again (1983, PHCR-2054)
FLAC | Artwork | Mp3 320 kbps
¤¤¤¤¤¤¤¤¤¤¤
Black Sabbath - Seventh Star (1986, PHCR-2055)
FLAC | Artwork | Mp3 320 kbps