Subcategories

Billie Holiday - Lady In Satin (1958) [1999 Millenium Edition]

Posted By: JET 1
Billie Holiday - Lady In Satin (1958) [1999 Millenium Edition]

Billie Holiday - Lady In Satin (1958) [1999 Millenium Edition]
EAC Rip | FLAC (Tracks) +CUE, LOG | 288 MB | Covers Included
Jazz | Label: Columbia | Catalog Number: MILLEN106

Lady in Satin is an album by jazz singer Billie Holiday released in 1958 on Columbia Records, catalogue CL 1157 in mono and CS 8048 in stereo. It is the penultimate album completed by the singer and last released in her lifetime (her final album, Billie Holiday, being recorded in March 1959 and released just after her death). The original album was produced by Irving Townsend, and engineered by Fred Plaut.

This was her penultimate album, recorded when her body was telling her enough was enough. During the sessions with arranger Ray Ellis she was drinking vodka neat, as if it were tap water. Yet, for all her ravaged voice (the sweetness had long gone), she was still an incredible singer. The feeling and tension she manages to put into almost every track set this album as one of her finest achievements. "You've Changed" and "I Get Along Without You Very Well" are high art performances from the singer who saw life from the bottom upwards. The CD reissue masterminded by Phil Schaap is absolutely indispensable.

Exact Audio Copy V1.0 beta 3 from 29. August 2011

EAC extraction logfile from 24. November 2014, 13:00

Billie Holiday / Lady in Satin

Used drive : ATAPI DVD A DH16A6L-C Adapter: 2 ID: 0

Read mode : Secure
Utilize accurate stream : Yes
Defeat audio cache : Yes
Make use of C2 pointers : No

Read offset correction : 6
Overread into Lead-In and Lead-Out : No
Fill up missing offset samples with silence : Yes
Delete leading and trailing silent blocks : No
Null samples used in CRC calculations : Yes
Used interface : Native Win32 interface for Win NT & 2000
Gap handling : Appended to previous track

Used output format : User Defined Encoder
Selected bitrate : 1024 kBit/s
Quality : High
Add ID3 tag : No
Command line compressor : C:\Program Files\FLAC\flac.exe
Additional command line options : -8 -V -T "ARTIST=%artist%" -T "TITLE=%title%" -T "ALBUM=%albumtitle%" -T "DATE=%year%" -T "TRACKNUMBER=%tracknr%" -T "GENRE=%genre%" -T "PERFORMER=%albuminterpret%" -T "COMPOSER=%composer%" %haslyrics%–tag-from-file=LYRICS="%lyricsfile%"%haslyrics% -T "ALBUMARTIST=%albumartist%" -T "DISCNUMBER=%cdnumber%" -T "TOTALDISCS=%totalcds%" -T "TOTALTRACKS=%numtracks%" -T "COMMENT=%comment%" %source% -o %dest%


TOC of the extracted CD

Track | Start | Length | Start sector | End sector
––––––––––––––––––––––––––––-
1 | 0:00.00 | 3:25.25 | 0 | 15399
2 | 3:25.25 | 3:29.27 | 15400 | 31101
3 | 6:54.52 | 3:51.03 | 31102 | 48429
4 | 10:45.55 | 3:01.67 | 48430 | 62071
5 | 13:47.47 | 2:55.63 | 62072 | 75259
6 | 16:43.35 | 3:26.35 | 75260 | 90744
7 | 20:09.70 | 3:20.20 | 90745 | 105764
8 | 23:30.15 | 4:03.10 | 105765 | 123999
9 | 27:33.25 | 4:32.02 | 124000 | 144401
10 | 32:05.27 | 4:09.68 | 144402 | 163144
11 | 36:15.20 | 3:26.40 | 163145 | 178634
12 | 39:41.60 | 4:47.72 | 178635 | 200231


Track 1

Filename F:\0\!!!!!POST!!!!\Billie Holiday - Lady In Satin (1958) [1999 Millenium Edition]\01 - I'm a Fool to Want You.wav

Pre-gap length 0:00:02.00

Peak level 99.9 %
Extraction speed 3.3 X
Track quality 100.0 %
Test CRC 97EF5BA9
Copy CRC 97EF5BA9
Accurately ripped (confidence 3) [EED835EF] (AR v1)
Copy OK

Track 2

Filename F:\0\!!!!!POST!!!!\Billie Holiday - Lady In Satin (1958) [1999 Millenium Edition]\02 - For Heaven's Sake.wav

Pre-gap length 0:00:02.05

Peak level 77.4 %
Extraction speed 3.7 X
Track quality 100.0 %
Test CRC 9979E32B
Copy CRC 9979E32B
Accurately ripped (confidence 3) [763DB391] (AR v1)
Copy OK

Track 3

Filename F:\0\!!!!!POST!!!!\Billie Holiday - Lady In Satin (1958) [1999 Millenium Edition]\03 - You Don't Know What Love Is.wav

Pre-gap length 0:00:02.65

Peak level 63.4 %
Extraction speed 3.3 X
Track quality 99.9 %
Test CRC 156B2C4A
Copy CRC 156B2C4A
Accurately ripped (confidence 3) [A18DABE2] (AR v1)
Copy OK

Track 4

Filename F:\0\!!!!!POST!!!!\Billie Holiday - Lady In Satin (1958) [1999 Millenium Edition]\04 - I Get Along Without You Very Well.wav

Pre-gap length 0:00:02.68

Peak level 95.7 %
Extraction speed 3.2 X
Track quality 99.9 %
Test CRC 8DEED321
Copy CRC 8DEED321
Accurately ripped (confidence 3) [855307CB] (AR v1)
Copy OK

Track 5

Filename F:\0\!!!!!POST!!!!\Billie Holiday - Lady In Satin (1958) [1999 Millenium Edition]\05 - For All We Know.wav

Pre-gap length 0:00:02.60

Peak level 93.7 %
Extraction speed 4.3 X
Track quality 100.0 %
Test CRC A4A91499
Copy CRC A4A91499
Accurately ripped (confidence 3) [FF36D4E2] (AR v1)
Copy OK

Track 6

Filename F:\0\!!!!!POST!!!!\Billie Holiday - Lady In Satin (1958) [1999 Millenium Edition]\06 - Violets For Your Furs.wav

Pre-gap length 0:00:02.50

Peak level 95.6 %
Extraction speed 3.7 X
Track quality 99.9 %
Test CRC 7E8F10D6
Copy CRC 7E8F10D6
Accurately ripped (confidence 3) [CE6F15C0] (AR v1)
Copy OK

Track 7

Filename F:\0\!!!!!POST!!!!\Billie Holiday - Lady In Satin (1958) [1999 Millenium Edition]\07 - You've Changed.wav

Pre-gap length 0:00:02.33

Peak level 78.4 %
Extraction speed 4.8 X
Track quality 100.0 %
Test CRC 256E8BD3
Copy CRC 256E8BD3
Accurately ripped (confidence 3) [DF02E477] (AR v1)
Copy OK

Track 8

Filename F:\0\!!!!!POST!!!!\Billie Holiday - Lady In Satin (1958) [1999 Millenium Edition]\08 - It's Easy to Remember.wav

Pre-gap length 0:00:03.13

Peak level 74.5 %
Extraction speed 5.2 X
Track quality 100.0 %
Test CRC E7AE24F5
Copy CRC E7AE24F5
Accurately ripped (confidence 3) [B75745DE] (AR v1)
Copy OK

Track 9

Filename F:\0\!!!!!POST!!!!\Billie Holiday - Lady In Satin (1958) [1999 Millenium Edition]\09 - But Beautiful.wav

Pre-gap length 0:00:02.10

Peak level 99.8 %
Extraction speed 4.1 X
Track quality 99.9 %
Test CRC 3DAD168A
Copy CRC 3DAD168A
Accurately ripped (confidence 3) [59BC4355] (AR v1)
Copy OK

Track 10

Filename F:\0\!!!!!POST!!!!\Billie Holiday - Lady In Satin (1958) [1999 Millenium Edition]\10 - Glad to Be Unhappy.wav

Pre-gap length 0:00:02.27

Peak level 84.9 %
Extraction speed 4.7 X
Track quality 99.9 %
Test CRC 0F998836
Copy CRC 0F998836
Accurately ripped (confidence 3) [B7785407] (AR v1)
Copy OK

Track 11

Filename F:\0\!!!!!POST!!!!\Billie Holiday - Lady In Satin (1958) [1999 Millenium Edition]\11 - I'll Be Around.wav

Pre-gap length 0:00:02.25

Peak level 72.8 %
Extraction speed 4.6 X
Track quality 99.9 %
Test CRC D8B7ABAA
Copy CRC D8B7ABAA
Accurately ripped (confidence 3) [24FA5175] (AR v1)
Copy OK

Track 12

Filename F:\0\!!!!!POST!!!!\Billie Holiday - Lady In Satin (1958) [1999 Millenium Edition]\12 - The End of a Love Affair.wav

Pre-gap length 0:00:03.43

Peak level 77.3 %
Extraction speed 0.9 X
Track quality 99.3 %
Test CRC C822D53C
Copy CRC C822D53C
Accurately ripped (confidence 3) [ED53E79E] (AR v1)
Copy OK


All tracks accurately ripped

No errors occurred

End of status report

==== Log checksum F88F5B0CE63C1A4354BBB6A380C46887EA0FC1E2B7DF42BC1E85F99497E5AB28 ====


Tracklist:
01 - I'm A Fool To Want You
02 - For Heaven's Sake
03 - You Don't Know What Love Is
04 - I Get Along Without You Very Well
05 - For All We Know
06 - Violets For Your Furs
07 - You've Changed
08 - It's Easy To Remember
09 - But Beautiful
10 - Glad To Be Unhappy
11 - I'll Be Around
12 - The End Of A Love Affair