Subcategories

Belinda Carlisle - The Collection (2014) [CD+DVD]

Posted By: popsakov
Belinda Carlisle - The Collection (2014) [CD+DVD]

Belinda Carlisle - The Collection (2014)
EAC Rip | FLAC (Img) + Cue + Log ~ 604 Mb | MP3 CBR320 ~ 208 Mb
DVD-5 | MPEG2, NTSC 4:3 (720x480), VBR ~ 5756.95 kbps/NTSC 16:9 (720x480), VBR ~ 7070.75 kbps
DD 2.0, 16 bit/48 kHz, 192 kbps | ~ 3,82 Gb | Covers Included (JPG, 300 dpi) | RAR 5% Recovery
Pop, Rock, Synth-pop | Demon Music Group Ltd. #DMGTV055

The Collection is the third greatest hits album by American singer Belinda Carlisle, released in the UK on March 17, 2014 by Demon Music Group.

"The Collection" followed a 2013 US budget compilation album entitled "Icon" and Carlisle's signing of her Virgin Records back catalogue to Demon Music Group. Though Carlisle had not recorded any new studio albums in English since the release of her last greatest hits A Place on Earth: The Greatest Hits, two recently recorded songs were included, the 2013 single "Sun" and a 2014 release "Goodbye Just Go". The album was released with a bonus DVD which included the videos of the songs on the album (excluding "Goodbye Just Go" which did not have a promotional video).

The album is notable in that it was the first greatest hits released by Carlisle to include singles from all six of her English speaking studio albums. Previous US greatest hits releases had only included singles from Carlisle's first four albums and previous UK greatest hits had omitted singles from her debut album which had been released by IRS Records. Whilst not owned by Demon Music Group at the time of release, the singles "Mad About You" (1986) and "In Too Deep" where licensed from their respective labels.
~ Wiki

***************

Belinda Carlisle - The Collection (2014) [CD+DVD]

Track List CD:

01. (We Want) The Same Thing [04:20]
02. Heaven Is A Place On Earth [03:55]
03. Live Your Life Be Free [04:25]
04. Leave A Light On [04:17]
05. I Get Weak [04:18]
06. Big Scary Animal [04:18]
07. Runaway Horses [04:14]
08. Mad About You [03:39]
09. Half The World [04:24]
10. Sun [04:00]
11. Little Black Book [04:15]
12. Circle In The Sand [03:43]
13. In Too Deep [04:07]
14. Summer Rain [04:13]
15. Do You Feel Like I Feel? [04:16]
16. World Without You [04:01]
17. La Luna [04:14]
18. Vision Of You [04:09]
19. Goodbye Just Go [03:39]

Exact Audio Copy V1.0 beta 3 from 29. August 2011

EAC extraction logfile from 7. May 2015, 22:03

Belinda Carlisle / The Collection (DMGTV055)

Used drive : PLEXTOR BD-R PX-B940SA Adapter: 5 ID: 0

Read mode : Secure
Utilize accurate stream : Yes
Defeat audio cache : Yes
Make use of C2 pointers : No

Read offset correction : 667
Overread into Lead-In and Lead-Out : No
Fill up missing offset samples with silence : Yes
Delete leading and trailing silent blocks : No
Null samples used in CRC calculations : Yes
Used interface : Installed external ASPI interface

Used output format : User Defined Encoder
Selected bitrate : 128 kBit/s
Quality : High
Add ID3 tag : Yes
Command line compressor : G:\Program Files (x86)\Exact Audio Copy\Flac\flac.exe
Additional command line options : -V -8 -T "Date=%year%" -T "Genre=%genre%" %source%


TOC of the extracted CD

Track | Start | Length | Start sector | End sector
––––––––––––––––––––––––––––-
1 | 0:00.00 | 4:19.06 | 0 | 19430
2 | 4:19.06 | 3:54.73 | 19431 | 37053
3 | 8:14.04 | 4:24.22 | 37054 | 56875
4 | 12:38.26 | 4:16.61 | 56876 | 76136
5 | 16:55.12 | 4:17.27 | 76137 | 95438
6 | 21:12.39 | 4:17.52 | 95439 | 114765
7 | 25:30.16 | 4:13.58 | 114766 | 133798
8 | 29:43.74 | 3:38.01 | 133799 | 150149
9 | 33:22.00 | 4:23.03 | 150150 | 169877
10 | 37:45.03 | 3:59.44 | 169878 | 187846
11 | 41:44.47 | 4:14.36 | 187847 | 206932
12 | 45:59.08 | 3:42.06 | 206933 | 223588
13 | 49:41.14 | 4:06.27 | 223589 | 242065
14 | 53:47.41 | 4:12.59 | 242066 | 261024
15 | 58:00.25 | 4:15.52 | 261025 | 280201
16 | 62:16.02 | 4:00.37 | 280202 | 298238
17 | 66:16.39 | 4:13.20 | 298239 | 317233
18 | 70:29.59 | 4:08.60 | 317234 | 335893
19 | 74:38.44 | 3:38.59 | 335894 | 352302


Range status and errors

Selected range

Filename D:\MUSIC\Belinda Carlisle - The Collection (DMGTV055).wav

Peak level 99.4 %
Extraction speed 5.3 X
Range quality 100.0 %
Test CRC 7E9200FE
Copy CRC 7E9200FE
Copy OK

No errors occurred


AccurateRip summary

Track 1 accurately ripped (confidence 6) [792543ED] (AR v2)
Track 2 accurately ripped (confidence 6) [65A6AD03] (AR v2)
Track 3 accurately ripped (confidence 6) [5E0C043F] (AR v2)
Track 4 accurately ripped (confidence 6) [9638EDD5] (AR v2)
Track 5 accurately ripped (confidence 6) [69DE8569] (AR v2)
Track 6 accurately ripped (confidence 6) [5D0501AC] (AR v2)
Track 7 accurately ripped (confidence 6) [2B13DCE8] (AR v2)
Track 8 accurately ripped (confidence 6) [D3763172] (AR v2)
Track 9 accurately ripped (confidence 6) [2FF76901] (AR v2)
Track 10 accurately ripped (confidence 6) [BCA74AC9] (AR v2)
Track 11 accurately ripped (confidence 6) [8844B3DF] (AR v2)
Track 12 accurately ripped (confidence 6) [0B4EF0DC] (AR v2)
Track 13 accurately ripped (confidence 6) [AA262622] (AR v2)
Track 14 accurately ripped (confidence 6) [266F323A] (AR v2)
Track 15 accurately ripped (confidence 6) [E860FE43] (AR v2)
Track 16 accurately ripped (confidence 6) [A80E78CE] (AR v2)
Track 17 accurately ripped (confidence 6) [94B7786E] (AR v2)
Track 18 accurately ripped (confidence 6) [F530802B] (AR v2)
Track 19 accurately ripped (confidence 6) [44245503] (AR v2)

All tracks accurately ripped

End of status report

==== Log checksum 445CD67C83C94E86A1DDA1AE5AA337DBB13788CB66DE1EF9EBA375B0FC7FA2F0 ====

foobar2000 1.2.6 / Dynamic Range Meter 1.1.1
log date: 2015-05-13 01:40:49

––––––––––––––––––––––––––––––––––––––––
Analyzed: Belinda Carlisle / The Collection (DMGTV055)
––––––––––––––––––––––––––––––––––––––––

DR Peak RMS Duration Track
––––––––––––––––––––––––––––––––––––––––
DR9 -0.05 dB -10.10 dB 4:19 01-1. (We Want) The Same Thing
DR9 -0.54 dB -10.58 dB 3:55 02-2. Heaven Is A Place On Earth
DR8 -1.39 dB -11.46 dB 4:24 03-3. Live Your Life Be Free
DR9 -0.75 dB -10.80 dB 4:17 04-4. Leave A Light On
DR8 -0.05 dB -9.87 dB 4:17 05-5. I Get Weak
DR9 -0.65 dB -11.27 dB 4:18 06-6. Big Scary Animal
DR8 -0.05 dB -10.22 dB 4:14 07-7. Runaway Horses
DR10 -0.25 dB -12.39 dB 3:38 08-8. Mad About You
DR10 -0.05 dB -12.09 dB 4:23 09-9. Half The World
DR9 -0.05 dB -10.73 dB 4:00 10-10. Sun
DR9 -0.35 dB -11.24 dB 4:14 11-11. Little Black Book
DR10 -0.05 dB -11.63 dB 3:42 12-12. Circle In The Sand
DR10 -0.05 dB -11.76 dB 4:06 13-13. In Too Deep
DR9 -0.05 dB -11.83 dB 4:13 14-14. Summer Rain
DR8 -0.22 dB -10.33 dB 4:16 15-15. Do You Feel Like I Feel?
DR10 -0.05 dB -11.17 dB 4:00 16-16. World Without You
DR8 -0.05 dB -10.96 dB 4:13 17-17. La Luna
DR10 -0.05 dB -11.39 dB 4:09 18-18. Vision Of You
DR6 -0.05 dB -9.00 dB 3:39 19-19. Goodbye Just Go
––––––––––––––––––––––––––––––––––––––––

Number of tracks: 19
Official DR value: DR9

Samplerate: 44100 Hz
Channels: 2
Bits per sample: 16
Bitrate: 994 kbps
Codec: FLAC
================================================================================

[CUETools log; Date: 13.05.2015 1:40:50; Version: 2.1.5]
[CTDB TOCID: z7Kg9jgMSPpeg2RZeBR5CUM5hGM-] found.
Track | CTDB Status
1 | (4/4) Accurately ripped
2 | (4/4) Accurately ripped
3 | (4/4) Accurately ripped
4 | (4/4) Accurately ripped
5 | (4/4) Accurately ripped
6 | (4/4) Accurately ripped
7 | (4/4) Accurately ripped
8 | (4/4) Accurately ripped
9 | (4/4) Accurately ripped
10 | (4/4) Accurately ripped
11 | (4/4) Accurately ripped
12 | (4/4) Accurately ripped
13 | (4/4) Accurately ripped
14 | (4/4) Accurately ripped
15 | (4/4) Accurately ripped
16 | (4/4) Accurately ripped
17 | (4/4) Accurately ripped
18 | (4/4) Accurately ripped
19 | (4/4) Accurately ripped
[AccurateRip ID: 00364dce-02f67702-18125913] found.
Track [ CRC | V2 ] Status
01 [4dc8e853|792543ed] (0+6/6) Accurately ripped
02 [cf10d420|65a6ad03] (0+6/6) Accurately ripped
03 [23178c7b|5e0c043f] (0+6/6) Accurately ripped
04 [0fd830f2|9638edd5] (0+6/6) Accurately ripped
05 [1987618a|69de8569] (0+6/6) Accurately ripped
06 [0e365847|5d0501ac] (0+6/6) Accurately ripped
07 [3ece590c|2b13dce8] (0+6/6) Accurately ripped
08 [e629756d|d3763172] (0+6/6) Accurately ripped
09 [25938373|2ff76901] (0+6/6) Accurately ripped
10 [dceabd31|bca74ac9] (0+6/6) Accurately ripped
11 [a69eee20|8844b3df] (0+6/6) Accurately ripped
12 [18203730|0b4ef0dc] (0+6/6) Accurately ripped
13 [4f73b8fe|aa262622] (0+6/6) Accurately ripped
14 [801870b9|266f323a] (0+6/6) Accurately ripped
15 [a4a17526|e860fe43] (0+6/6) Accurately ripped
16 [2646d8b2|a80e78ce] (0+6/6) Accurately ripped
17 [c22c851d|94b7786e] (0+6/6) Accurately ripped
18 [5e10e124|f530802b] (0+6/6) Accurately ripped
19 [58b77698|44245503] (0+6/6) Accurately ripped

Track Peak [ CRC32 ] [W/O NULL] [ LOG ]
– 99,4 [7E9200FE] [ECF02C8F] CRC32
01 99,4 [DB48BB1A] [3D2DB57A]
02 93,9 [536BC1A9] [6F77C78B]
03 85,2 [F6612907] [05D83EDF]
04 91,7 [86823611] [3E975B0C]
05 99,4 [520C3F8B] [511469FD]
06 92,7 [BA0782BA] [7242342E]
07 99,4 [084B7D2E] [2C5206AF]
08 97,1 [F8DFFCFE] [9128832E]
09 99,4 [3A9EE1FE] [66F33E65]
10 99,4 [31F1A2E0] [A2BF6577]
11 96,0 [F124A3A9] [23D8B0ED]
12 99,4 [FECFCD00] [984DE836]
13 99,4 [CA433E58] [BB2414F7]
14 99,4 [7D2259A9] [C795D51F]
15 97,5 [03E57809] [FA77C245]
16 99,4 [021F9168] [79B8BC43]
17 99,4 [2C85B19F] [DDE2D640]
18 99,4 [92A23229] [54384C38]
19 99,4 [A31FE914] [4857A8A1]

Belinda Carlisle - The Collection (2014) [CD+DVD]

Track List DVD:

01. (We Want) The Same Thing
02. Heaven Is A Place On Earth
03. Live Your Life Be Free
04. Leave A Light On
05. I Get Weak
06. Big Scary Animal
07. Runaway Horses
08. Mad About You
09. Half The World
10. Sun
11. Little Black Book
12. Circle In The Sand
13. In Too Deep
14. Summer Rain
15. Do You Feel Like I Feel?
16. World Without You
17. La Luna
18. Vision Of You

Title: Belinda Carlisle - The Collection (2014) DVD
Size: 3.63 Gb ( 3 801 724,00 KBytes ) - DVD-5
Enabled regions: 1, 2, 3, 4, 5, 6, 7, 8

VTS_01 :
Play Length: 00:00:00+00:37:48+00:04:15+00:04:11+00:04:29+{00:04:22}+{00:04:14}+{00:04:13}+{00:04:08}+{00:03:43}+{00:04:16}+00:04:17+00:03:49+00:04:08+00:04:08+00:04:11+00:05:03+00:04:15+00:04:11+{00:34:00}+{00:00:00}
Video: NTSC 4:3 (720x480) VBR
Audio:
English (Dolby AC3, 2 ch)

VTS_02 :
Play Length: 00:00:27+00:03:57+{00:00:00}+{00:03:57}
Video: NTSC 16:9 (720x480) VBR, Auto Letterboxed
Audio:
English, AC3, 2/0 (L,R) ch, 192 kbps, Delay 0 mSec

Belinda Carlisle - The Collection (2014) [CD+DVD]

Belinda Carlisle - The Collection (2014) [CD+DVD]

Belinda Carlisle - The Collection (2014) [CD+DVD]

Belinda Carlisle - The Collection (2014) [CD+DVD]

Belinda Carlisle - The Collection (2014) [CD+DVD]

Belinda Carlisle - The Collection (2014) [CD+DVD]

Belinda Carlisle - The Collection (2014) [CD+DVD]

Belinda Carlisle - The Collection (2014) [CD+DVD]

All thanks go to rd

Visit my blog!

Download: