Belinda Carlisle - Albums Collection 1986-2007 [11CD+DVD] Combined Repost

Posted By: Designol
Belinda Carlisle - Albums Collection 1986-2007 [11CD+DVD] Combined Repost

Belinda Carlisle - Albums Collection 1986-2007 [11CD+DVD] Combined Repost
EAC | FLAC (Cue&Log) ~ 4.6 Gb (incl 5%) | Mp3 (CBR320/Stereo) ~ 1.45 Gb (incl 5%) | Scans ~ 1.15 Gb
DVD5 | NTSC 4:3 (720x480) VBR | LinearPCM, 2 ch | 00:59:58 | 3.82 Gb
Genre: Pop Rock, Adult Contemporary Pop, New Wave | Time: 10:16:39

Collection includes 7 studio albums and two compilations by an American singer-songwriter Belinda Carlisle.
Belinda Carlisle pursued a solo career after leaving the Go-Go's in 1984. As her solo career progressed, Carlisle removed any of the rough edges remaining in her style, transforming from a new wave rocker to a polished adult contemporary pop singer. The change was evident on her first album, 1986's Belinda. Featuring the number three hit single "Mad About You," the record went gold and established her as a viable hitmaker. The following year, Carlisle released Heaven on Earth, her greatest solo success. Continuing the immaculately produced mainstream pop of Belinda, the record featured the number one title track, the number two single "I Get Weak," and the Top Ten ballad "Circle in the Sand." Runaway Horses, released in 1989, was another successful album, spawning the hit singles "Leave a Light On" and "Summer Rain," yet it showed signs that her audience was shrinking. That suspicion was confirmed by the dismal performance of 1991's Live Your Life Be Free, which failed to make the charts. Real, released in 1993, didn't revive Carlisle's career and she subsequently joined the re-formed Go-Go's in 1994. The Go-Go's reunion was short-lived, even though it was widely praised. Carlisle returned to solo recording in 1996 with A Woman and a Man, which failed to gain much attention. A myriad of collections and compilations followed, as well as another Go-Go's reunion. Carlisle released a new solo album, Voila, in 2007.

Biography by Stephen Thomas Erlewine, Allmusic.com
Official Website
Wiki


––––––––––––––––––––––––––––––––––––––––––––––-


Belinda Carlisle - Albums Collection 1986-2007 [11CD+DVD] Combined Repost

Belinda (1986)
EAC | FLAC | Image (Cue&Log) ~ 233 Mb (incl 5%) | Mp3 (CBR320/Stereo) ~ 88 Mb (incl 5%) | Scans ~ 131 Mb
Label: I.R.S. | # 7131142 | Time: 00:37:35

Belinda Carlisle's first solo record was a distinct departure from the Go-Go's' energetic, catchy new wave pop. Carlisle refashioned herself as an inoffensive mainstream pop singer and the makeover worked commercially, as well as artistically. The pop on Belinda may not be as infectious as the Go-Go's' finest singles, yet it fit in well with the slick formats of mid-'80s radio and managed to be more memorable than many of the mainstream hits of the time, as the ingratiating hit "Mad About You" proves.

Review by Stephen Thomas Erlewine, Allmusic.com
Tracklist:

01. Mad About You (03:37)
02. I Need A Disguise (03:59)
03. Since You've Gone (03:10)
04. I Feel The Magic (03:27)
05. I Never Wanted A Rich Man (04:10)
06. Band Of Gold (03:48)
07. Gotta Get To You (04:07)
08. From The Heart (03:11)
09. Shot In The Dark (03:26)
10. Stuff And Nonsense (04:34)


Exact Audio Copy V1.0 beta 1 from 15. November 2010

EAC extraction logfile from 15. April 2011, 0:24

Belinda Carlisle / Belinda

Used drive : PLEXTOR DVDR PX-716A Adapter: 0 ID: 0

Read mode : Secure
Utilize accurate stream : Yes
Defeat audio cache : Yes
Make use of C2 pointers : No

Read offset correction : 30
Overread into Lead-In and Lead-Out : Yes
Fill up missing offset samples with silence : Yes
Delete leading and trailing silent blocks : No
Null samples used in CRC calculations : Yes
Used interface : Native Win32 interface for Win NT & 2000

Used output format : User Defined Encoder
Selected bitrate : 1024 kBit/s
Quality : High
Add ID3 tag : No
Command line compressor : C:\Program Files (x86)\FLAC\flac.exe
Additional command line options : -8 -V -T "ARTIST=%a" -T "TITLE=%t" -T "ALBUM=%g" -T "DATE=%y" -T "TRACKNUMBER=%n" -T "GENRE=%m" -T "COMMENT=EAC FLAC -8" %s


TOC of the extracted CD

Track | Start | Length | Start sector | End sector
––––––––––––––––––––––––––––-
1 | 0:00.00 | 3:37.42 | 0 | 16316
2 | 3:37.42 | 3:59.70 | 16317 | 34311
3 | 7:37.37 | 3:10.63 | 34312 | 48624
4 | 10:48.25 | 3:27.57 | 48625 | 64206
5 | 14:16.07 | 4:10.60 | 64207 | 83016
6 | 18:26.67 | 3:48.05 | 83017 | 100121
7 | 22:14.72 | 4:07.05 | 100122 | 118651
8 | 26:22.02 | 3:11.58 | 118652 | 133034
9 | 29:33.60 | 3:26.32 | 133035 | 148516
10 | 33:00.17 | 4:34.60 | 148517 | 169126


Range status and errors

Selected range

Filename E:\mtorrent_flac\Belinda Carlisle\1986 Belinda Carlisle - Belinda (Holland)\Belinda Carlisle - Belinda.wav

Peak level 69.6 %
Extraction speed 0.1 X
Range quality 99.9 %
Test CRC 2A3F66DD
Copy CRC 2A3F66DD
Copy OK

No errors occurred


AccurateRip summary

Track 1 accurately ripped (confidence 5) [2C3B2055]
Track 2 accurately ripped (confidence 5) [5B7AB2BE]
Track 3 accurately ripped (confidence 5) [FB9103DD]
Track 4 accurately ripped (confidence 5) [124E44F6]
Track 5 accurately ripped (confidence 5) [8FB4999B]
Track 6 accurately ripped (confidence 5) [D5E1968D]
Track 7 accurately ripped (confidence 5) [D45C985D]
Track 8 accurately ripped (confidence 5) [6546D459]
Track 9 accurately ripped (confidence 5) [A274C899]
Track 10 accurately ripped (confidence 5) [2208F9C6]

All tracks accurately ripped

End of status report

Original releaser - Konstantin_slash

––––––––––––––––––––––––––––––––––––––––––––––-


Belinda Carlisle - Albums Collection 1986-2007 [11CD+DVD] Combined Repost

Heaven On Earth (1987) Japan Press
EAC | FLAC | Image (Cue&Log) ~ 312 Mb (incl 5%) | Mp3 (CBR320/Stereo) ~ 104 Mb (incl 5%) | Scans ~ 127 Mb
Label: Toshiba EMI | # VJCP-3041 | Time: 00:43:30

When Belinda Carlisle pursued a solo career, she took more than her share of criticism from rock critics – who complained that slick pop/rock collections like Belinda and Heaven on Earth lacked the bite of her work with the Go-Go's. But while nothing here packs quite the punch that "How Much More," "We Got the Beat," and "Turn to You" did, such memorable songs as "Heaven Is a Place on Earth," "Should I Let You In?," and "I Get Weak" show that the Angelino still had plenty of spirit. "Circle in the Sand" is in fact a gem – a haunting Shangri-Las-like song with an early-to-mid-'60s-ish quality that makes you wish you were back in the Summer of '64 on your way to the beach. If one were to own only one solo effort from Carlisle's MCA years, this would be the best choice.

Review by Alex Henderson, Allmusic.com
Tracklist:

01. Heaven Is A Place On Earth (04:08)
02. Circle In The Sand (04:26)
03. I Feel Free (04:49)
04. Should I Let You In? (04:17)
05. World Without You (04:44)
06. I Get Weak (04:52)
07. We Can Change (03:45)
08. Fool For Love (03:55)
09. Nobody Owns Me (03:13)
10. Love Never Dies (05:17)


Exact Audio Copy V0.99 prebeta 4 from 23. January 2008

EAC extraction logfile from 22. February 2009, 22:26

Belinda CARLISLE / HEAVEN on EARTH

Used drive : PLEXTOR DVDR PX-716A Adapter: 0 ID: 0

Read mode : Secure
Utilize accurate stream : Yes
Defeat audio cache : Yes
Make use of C2 pointers : No

Read offset correction : 30
Overread into Lead-In and Lead-Out : Yes
Fill up missing offset samples with silence : Yes
Delete leading and trailing silent blocks : No
Null samples used in CRC calculations : Yes
Used interface : Native Win32 interface for Win NT & 2000

Used output format : User Defined Encoder
Selected bitrate : 128 kBit/s
Quality : High
Add ID3 tag : No
Command line compressor : C:\Program Files\FLAC\flac.exe
Additional command line options : -8 -V -T "ARTIST=%a" -T "TITLE=%t" -T "ALBUM=%g" -T "DATE=%y" -T "TRACKNUMBER=%n" -T "GENRE=%m" -T "COMMENT=EAC FLAC -8" %s


TOC of the extracted CD

Track | Start | Length | Start sector | End sector
––––––––––––––––––––––––––––-
1 | 0:00.00 | 4:08.00 | 0 | 18599
2 | 4:08.00 | 4:26.32 | 18600 | 38581
3 | 8:34.32 | 4:49.30 | 38582 | 60286
4 | 13:23.62 | 4:17.03 | 60287 | 79564
5 | 17:40.65 | 4:44.40 | 79565 | 100904
6 | 22:25.30 | 4:52.25 | 100905 | 122829
7 | 27:17.55 | 3:45.57 | 122830 | 139761
8 | 31:03.37 | 3:55.65 | 139762 | 157451
9 | 34:59.27 | 3:13.43 | 157452 | 171969
10 | 38:12.70 | 5:17.65 | 171970 | 195809


Range status and errors

Selected range

Filename E:\EAC rip\Belinda Carlisle - Heaven On Earht 1987 (Japan)\Belinda CARLISLE - HEAVEN on EARTH.wav

Peak level 100.0 %
Range quality 100.0 %
Test CRC 90039629
Copy CRC 90039629
Copy OK

No errors occurred


AccurateRip summary

Track 1 not present in database
Track 2 not present in database
Track 3 not present in database
Track 4 not present in database
Track 5 not present in database
Track 6 not present in database
Track 7 not present in database
Track 8 not present in database
Track 9 not present in database
Track 10 not present in database

None of the tracks are present in the AccurateRip database

End of status report

Original releaser - Konstantin_slash

––––––––––––––––––––––––––––––––––––––––––––––-


Belinda Carlisle - Albums Collection 1986-2007 [11CD+DVD] Combined Repost

Heaven On Earth (1987) Reissue 2009 Special Edition CD+DVD
EAC | FLAC | Image (Cue&Log) ~ 558 Mb (incl 5%) | Mp3 (CBR320/Stereo) ~ 186 Mb (incl 5%) | Time: 01:17:40
DVD5 | NTSC 4:3 (720x480) VBR | LinearPCM, 2 ch | 00:59:58 | 3.82 Gb
Label: Virgin/EMI | # 50999 6 97919 2 5 | Scans ~ 115 Mb

2009 issue UK 'Special Edition' 2-disc [CD/DVD] album set - From punk-rocker to pop singer, Belinda Carlisle's hugely successful career spans many genres and has earned her 7 solo UK Top 10 singles and 5 solo UKTop 10 albums. The height of her success came in 1987 with the seismic 'Heaven On Earth', the multi-platinum selling album spawning 5 of her Top 10 hits including the No 1 smash title track 'Heaven Is A Place On Earth'. This edition comprises15-track digitally remastered CD album featuring the 10-track album, alongside 5 Bonus Recordings of contemporary b-side remixes of 'Heaven Is A Place On Earth', 'Circle In The Sand', 'World Without You' & 'I Get Weak', plus a Bonus Region 0 NTSC DVD containing footage [previously only available on VHS] of Belinda performing all her hits and Go-Gos covers. Complete with a picture booklet with photos and visuals not included in the original release as well as liner notes including an interview from Belinda herself.
Tracklist:

01. Heaven Is A Place On Earth 04:08
02. Circle Is The Sand 04:26
03. I Feel Free 04:49
04. Should I Let You In? 04:16
05. World Without You 04:44
06. I Get Weak 04:52
07. We Can Change 03:46
08. Fool For Love 03:55
09. Nobody Owns Me 03:13
10. Love Never Dies… 05:17

Bonus Tracks:
11. heaven Is A PlaceOn Earth(Heavenly Version) 06:00
12. Circle In The Sand(Beach Party Mix) 07:53
13. World Without You(Extended Worldwide Mix) 08:27
14. I Get Weak(12''Version) 07:29
15. World Without You(Panavision Mix) 04:18


Exact Audio Copy V0.99 prebeta 5 from 4. May 2009

EAC Auslese-Logdatei vom 14. Januar 2010, 20:25

Belinda Carlisle / Heaven On Earth (Special Edition)

Benutztes Laufwerk : HL-DT-STDVD-ROM GDR-H30N Adapter: 0 ID: 1

Lesemodus : Sicher
Benutze Accurate Stream : Ja
Audio Puffer abgeschaltet : Ja
Benutze C2 Fehlerinformationen : Nein

Leseoffset Korrektur : 6
Ьberlesen in das Lead-In und Lead-Out : Nein
Fьlle fehlende Offsetsample mit Stille auf : Ja
Lцsche fьhrende und nachfolgende stille Blцcke : Nein
Null Samples gehen in CRC Berechnungen ein : Ja
Benutzte Schnittstelle : Installierte externe ASPI Schnittstelle

Benutztes Ausgabeformat : Interne WAV Routinen
Sampleformat : 44.100 Hz; 16 Bit; Stereo


TOC der ausgelesenen CD

Track | Start | Lдnge | Startsektor | Endsektor
–––––––––––––––––––––––––––-
1 | 0:00.00 | 4:08.04 | 0 | 18603
2 | 4:08.04 | 4:26.40 | 18604 | 38593
3 | 8:34.44 | 4:49.14 | 38594 | 60282
4 | 13:23.58 | 4:16.73 | 60283 | 79555
5 | 17:40.56 | 4:44.42 | 79556 | 100897
6 | 22:25.23 | 4:52.19 | 100898 | 122816
7 | 27:17.42 | 3:46.02 | 122817 | 139768
8 | 31:03.44 | 3:55.65 | 139769 | 157458
9 | 34:59.34 | 3:13.30 | 157459 | 171963
10 | 38:12.64 | 5:17.73 | 171964 | 195811
11 | 43:30.62 | 6:00.17 | 195812 | 222828
12 | 49:31.04 | 7:53.03 | 222829 | 258306
13 | 57:24.07 | 8:27.35 | 258307 | 296366
14 | 65:51.42 | 7:29.70 | 296367 | 330111
15 | 73:21.37 | 4:18.50 | 330112 | 349511


Bereichsstatus und Fehler

Gewдhlter Bereich

Dateiname K:\BelCar\Belinda Carlisle - Heaven On Earth (Special Edition).wav

Spitzenpegel 99.8 %
Bereichsqualitдt 99.9 %
Kopie CRC 955ABF7A
Kopie OK

Keine Fehler aufgetreten


AccurateRip Ьbersicht

Track 1 akkurat gelesen (Zuversicht 2) [9F36C104]
Track 2 akkurat gelesen (Zuversicht 2) [45693E35]
Track 3 akkurat gelesen (Zuversicht 2) [8A2E9E50]
Track 4 akkurat gelesen (Zuversicht 2) [3E78B570]
Track 5 akkurat gelesen (Zuversicht 2) [AF5C469C]
Track 6 akkurat gelesen (Zuversicht 2) [F7BBF9A7]
Track 7 akkurat gelesen (Zuversicht 2) [DEB83CC6]
Track 8 akkurat gelesen (Zuversicht 2) [8E47BB17]
Track 9 akkurat gelesen (Zuversicht 2) [C57B6A95]
Track 10 akkurat gelesen (Zuversicht 2) [4E783A24]
Track 11 akkurat gelesen (Zuversicht 2) [041634B5]
Track 12 akkurat gelesen (Zuversicht 2) [C7C781CE]
Track 13 akkurat gelesen (Zuversicht 2) [ED694B82]
Track 14 akkurat gelesen (Zuversicht 2) [E48FD54C]
Track 15 akkurat gelesen (Zuversicht 2) [29374F32]

Alle Tracks wurden akkurat gelesen

Ende des Statusreport


Belinda Carlisle - Albums Collection 1986-2007 [11CD+DVD] Combined Repost

Belinda Carlisle - Albums Collection 1986-2007 [11CD+DVD] Combined Repost


DVD Content:

01 - I Feel Free
02 - Mad About You
03 - Lust To Love
04 - I Get Weak
05 - Fool For Love
06 - Circle In The Sand
07 - World Without You
08 - Nobody Owns Me
09 - Our Lips Are Sealed
10 - Vacation
11 - Heaven Is A Place On Earth
12 - Love Never Dies
13 - Head Over Heels
14 - We Got The Beat

Original releaser - Baum


––––––––––––––––––––––––––––––––––––––––––––––-


Belinda Carlisle - Albums Collection 1986-2007 [11CD+DVD] Combined Repost

Runaway Horses (1989) Japan Press
EAC | FLAC | Image (Cue&Log) ~ 348 Mb (incl 5%) | Mp3 (CBR320/Stereo) ~ 115 Mb (incl 5%) | Scans ~ 164 Mb
Label: Virgin | # VJD-32253 | Time: 00:48:10

Fair or unfair, Belinda Carlisle's solo recordings were destined to be compared to the Go-Go's. Carlisle resented the constant comparisons, but as great an impact as the group had, did she really expect anything different? Understandably, rock critics missed the harder-edged Carlisle, but in fact, the more polished and slicker one has had her moments. Runaway Horses, Carlisle's third solo release, isn't as strong as Heaven on Earth – let alone her work with the Go-Go's – but is generally likeable and appealing. Although not most critics' cup of tea, the good-spirited, romantic idealism of "Valentine," "Leave a Light On," "Whatever It Takes," and other sugary pop/rock and power pop confections is tough to resist.

Review by Alex Henderson, Allmusic.com
Tracklist:

01. Leave A Light On (04:37)
02. Runaway Horses (04:44)
03. Vision Of You (04:41)
04. Summer Rain (05:32)
05. La Luna (04:45)
06. (We Want) The Same Thing (03:59)
07. Deep Deep Ocean (04:04)
08. Valentine (05:04)
09. Whatever It Takes (04:49)
10. Shades Of Michaelangelo (05:50)


Exact Audio Copy V0.99 prebeta 4 from 23. January 2008

EAC extraction logfile from 23. February 2009, 0:03

Belinda Carlisle / Runaway Horses

Used drive : PLEXTOR DVDR PX-716A Adapter: 0 ID: 0

Read mode : Secure
Utilize accurate stream : Yes
Defeat audio cache : Yes
Make use of C2 pointers : No

Read offset correction : 30
Overread into Lead-In and Lead-Out : Yes
Fill up missing offset samples with silence : Yes
Delete leading and trailing silent blocks : No
Null samples used in CRC calculations : Yes
Used interface : Native Win32 interface for Win NT & 2000

Used output format : User Defined Encoder
Selected bitrate : 128 kBit/s
Quality : High
Add ID3 tag : No
Command line compressor : C:\Program Files\FLAC\flac.exe
Additional command line options : -8 -V -T "ARTIST=%a" -T "TITLE=%t" -T "ALBUM=%g" -T "DATE=%y" -T "TRACKNUMBER=%n" -T "GENRE=%m" -T "COMMENT=EAC FLAC -8" %s


TOC of the extracted CD

Track | Start | Length | Start sector | End sector
––––––––––––––––––––––––––––-
1 | 0:00.37 | 4:37.30 | 37 | 20841
2 | 4:37.67 | 4:44.18 | 20842 | 42159
3 | 9:22.10 | 4:41.55 | 42160 | 63289
4 | 14:03.65 | 5:32.30 | 63290 | 88219
5 | 19:36.20 | 4:45.12 | 88220 | 109606
6 | 24:21.32 | 3:59.15 | 109607 | 127546
7 | 28:20.47 | 4:04.63 | 127547 | 145909
8 | 32:25.35 | 5:04.30 | 145910 | 168739
9 | 37:29.65 | 4:49.50 | 168740 | 190464
10 | 42:19.40 | 5:50.72 | 190465 | 216786


Range status and errors

Selected range

Filename E:\EAC rip\Belinda Carlisle - Runaway Horses 1989 (Japan)\Belinda Carlisle - Runaway Horses.wav

Peak level 100.0 %
Range quality 100.0 %
Test CRC 9FBB0E17
Copy CRC 9FBB0E17
Copy OK

No errors occurred


AccurateRip summary

Track 1 not present in database
Track 2 not present in database
Track 3 not present in database
Track 4 not present in database
Track 5 not present in database
Track 6 not present in database
Track 7 not present in database
Track 8 not present in database
Track 9 not present in database
Track 10 not present in database

None of the tracks are present in the AccurateRip database

End of status report

Original releaser - Konstantin_slash

––––––––––––––––––––––––––––––––––––––––––––––-


Belinda Carlisle - Albums Collection 1986-2007 [11CD+DVD] Combined Repost

Live Your Life Be Free (1991) Japan Press
EAC | FLAC | Image (Cue&Log) ~ 377 Mb (incl 5%) | Mp3 (CBR320/Stereo) ~ 123 Mb (incl 5%) | Scans ~ 211 Mb
Label: Virgin | # VJCP-28065 | Time: 00:51:12

Carlisle added a bit of dance flavor to her signature pop/rock stylings on her fourth solo set. Numbers like the catchy "Do You Feel Like I Feel" and the harder-edged "I Plead Insanity" are dancefloor-ready, yet still contain the robust vocal delivery and seeping guitar riffs necessary to please longtime fans. And the timeless melody of "Half the World" is the kind that made earlier hits like "Heaven Is a Place on Earth" and "Circle in the Sand" mainstays on radio long after their chart runs. The elegant arrangement of "Half the World," which includes Spanish guitars, mandolin and oboe, gives the song a universal appeal, whilst "Emotional Highway" has a slight Middle Eastern feel via Carlisle's sullen vocal and the moody surf guitars. Live Your Life Be Free shows the singer to be capable in a variety of musical contexts, and is a pleasing listen throughout.

Review by Justin Kantor, Allmusic.com
Tracklist:

01. Live Your Life Be Free (05:15)
02. Do You Feel Like I Feel? (05:09)
03. Half The World (04:22)
04. You Came Out Of Nowhere (04:10)
05. You're Nothing Without Me (03:54)
06. I Plead Insanity (04:39)
07. Emotional Highway (05:20)
08. Little Black Book (04:15)
09. Love Revolution (05:08)
10. World Of Love (04:13)
11. Loneliness Game (04:43)


Exact Audio Copy V0.99 prebeta 4 from 23. January 2008

EAC extraction logfile from 29. March 2009, 19:46

Belinda Carlisle / Live Your Life Be Free

Used drive : PLEXTOR DVDR PX-716A Adapter: 0 ID: 0

Read mode : Secure
Utilize accurate stream : Yes
Defeat audio cache : Yes
Make use of C2 pointers : No

Read offset correction : 30
Overread into Lead-In and Lead-Out : Yes
Fill up missing offset samples with silence : Yes
Delete leading and trailing silent blocks : No
Null samples used in CRC calculations : Yes
Used interface : Native Win32 interface for Win NT & 2000

Used output format : User Defined Encoder
Selected bitrate : 128 kBit/s
Quality : High
Add ID3 tag : No
Command line compressor : C:\Program Files\FLAC\flac.exe
Additional command line options : -8 -V -T "ARTIST=%a" -T "TITLE=%t" -T "ALBUM=%g" -T "DATE=%y" -T "TRACKNUMBER=%n" -T "GENRE=%m" -T "COMMENT=EAC FLAC -8" %s


TOC of the extracted CD

Track | Start | Length | Start sector | End sector
––––––––––––––––––––––––––––-
1 | 0:00.00 | 5:15.35 | 0 | 23659
2 | 5:15.35 | 5:09.17 | 23660 | 46851
3 | 10:24.52 | 4:22.65 | 46852 | 66566
4 | 14:47.42 | 4:10.48 | 66567 | 85364
5 | 18:58.15 | 3:54.57 | 85365 | 102971
6 | 22:52.72 | 4:39.18 | 102972 | 123914
7 | 27:32.15 | 5:20.00 | 123915 | 147914
8 | 32:52.15 | 4:15.02 | 147915 | 167041
9 | 37:07.17 | 5:08.73 | 167042 | 190214
10 | 42:16.15 | 4:13.25 | 190215 | 209214
11 | 46:29.40 | 4:43.07 | 209215 | 230446


Range status and errors

Selected range

Filename E:\EAC rip\Belinda Carlisle -Live Your Life Be Free 1991 (Japan)\Belinda Carlisle - Live Your Life Be Free.wav

Peak level 100.0 %
Range quality 100.0 %
Test CRC C5403078
Copy CRC C5403078
Copy OK

No errors occurred


AccurateRip summary

Track 1 not present in database
Track 2 not present in database
Track 3 not present in database
Track 4 not present in database
Track 5 not present in database
Track 6 not present in database
Track 7 not present in database
Track 8 not present in database
Track 9 not present in database
Track 10 not present in database
Track 11 not present in database

None of the tracks are present in the AccurateRip database

End of status report

Original releaser - Konstantin_slash

––––––––––––––––––––––––––––––––––––––––––––––-


Belinda Carlisle - Albums Collection 1986-2007 [11CD+DVD] Combined Repost

Real (1993) Japan Press
EAC | FLAC | Image (Cue&Log) ~ 355 Mb (incl 5%) | Mp3 (CBR320/Stereo) ~ 114 Mb (incl 5%) | Scans ~ 94 Mb
Label: Toshiba EMI | # VJCP-28185 | Time: 00:47:34

Like Live Your Life Be Free, Real was a well-crafted and produced album alternating between ballads and light dance-pop. Like its predecessor, Real also suffered from a lack of memorable songs. While the record sounded good, it had nothing to support the state-of-the-art production.

Review by Stephen Thomas Erlewine, Allmusic.com
Tracklist:

01. Goodbye Day (04:42)
02. It's Too Real (Big Scary Animal) (04:17)
03. Too Much Water (05:18)
04. Lay Down Your Arms (04:44)
05. Where Love Hides (05:03)
06. One With You (05:14)
07. Wrap My Arms (04:31)
08. Tell Me (05:35)
09. Windows Of The World (03:32)
10. Here Comes My Baby (04:33)


Exact Audio Copy V0.99 prebeta 4 from 23. January 2008

EAC extraction logfile from 29. March 2009, 21:40

Belinda Carlisle / Real

Used drive : PLEXTOR DVDR PX-716A Adapter: 0 ID: 0

Read mode : Secure
Utilize accurate stream : Yes
Defeat audio cache : Yes
Make use of C2 pointers : No

Read offset correction : 30
Overread into Lead-In and Lead-Out : Yes
Fill up missing offset samples with silence : Yes
Delete leading and trailing silent blocks : No
Null samples used in CRC calculations : Yes
Used interface : Native Win32 interface for Win NT & 2000

Used output format : User Defined Encoder
Selected bitrate : 128 kBit/s
Quality : High
Add ID3 tag : No
Command line compressor : C:\Program Files\FLAC\flac.exe
Additional command line options : -8 -V -T "ARTIST=%a" -T "TITLE=%t" -T "ALBUM=%g" -T "DATE=%y" -T "TRACKNUMBER=%n" -T "GENRE=%m" -T "COMMENT=EAC FLAC -8" %s


TOC of the extracted CD

Track | Start | Length | Start sector | End sector
––––––––––––––––––––––––––––-
1 | 0:00.00 | 4:42.72 | 0 | 21221
2 | 4:42.72 | 4:17.70 | 21222 | 40566
3 | 9:00.67 | 5:18.20 | 40567 | 64436
4 | 14:19.12 | 4:44.53 | 64437 | 85789
5 | 19:03.65 | 5:03.00 | 85790 | 108514
6 | 24:06.65 | 5:14.27 | 108515 | 132091
7 | 29:21.17 | 4:31.58 | 132092 | 152474
8 | 33:53.00 | 5:35.40 | 152475 | 177639
9 | 39:28.40 | 3:32.27 | 177640 | 193566
10 | 43:00.67 | 4:33.13 | 193567 | 214054


Range status and errors

Selected range

Filename E:\EAC rip\Belinda Carlisle - Real 1993 (Japan)\Belinda Carlisle - Real.wav

Peak level 100.0 %
Range quality 99.9 %
Test CRC 4557C3A8
Copy CRC 4557C3A8
Copy OK

No errors occurred


AccurateRip summary

Track 1 not present in database
Track 2 not present in database
Track 3 not present in database
Track 4 not present in database
Track 5 not present in database
Track 6 not present in database
Track 7 not present in database
Track 8 not present in database
Track 9 not present in database
Track 10 not present in database

None of the tracks are present in the AccurateRip database

End of status report

Original releaser - Konstantin_slash

––––––––––––––––––––––––––––––––––––––––––––––-


Belinda Carlisle - Albums Collection 1986-2007 [11CD+DVD] Combined Repost

A Woman & A Man (1996) Japan Edition
EAC | FLAC | Image (Cue&Log) ~ 362 Mb (incl 5%) | Mp3 (CBR320/Stereo) ~ 122 Mb (incl 5%) | Scans ~ 178 Mb
Label: Toshiba EMI | # TOCP-50002 | Time: 00:50:47

After a brief Go-Go's reunion, Belinda Carlisle returned to her solo career in 1996 with A Woman and a Man. And with her return to her solo career came the abandonment of any punky pop hooks – after all, she had outgrown that nonsense. So, A Woman and a Man is a measured, mature collection of adult pop, with cool keyboards and subtle arrangements that often make the record sound like background music. However, Carlisle has rarely been in better voice, and the music is certainly appealing, even if it's a little too relaxed. A Woman and a Man demonstrates that Carlisle should be able to grow old gracefully, and that was a possibility that looked unlikely around the time of Real.

Review by Stephen Thomas Erlewine, Allmusic.com
Tracklist:

01. In Too Deep (04:05)
02. California (02:59)
03. A Woman And A Man (05:12)
04. Remember September (04:32)
05. Listen To Love (04:09)
06. Always Breaking My Heart (03:12)
07. Love Doesn't Live Here (04:09)
08. He Goes On (03:13)
09. Kneel At Your Feet (04:18)
10. Love In The Key Of C (03:50)
11. My Heart Goes Out To You (03:40)
12. The Ballad Of Lucy Jordan (04:04)
13. Love Walks In (03:16)


Exact Audio Copy V0.99 prebeta 5 from 4. May 2009

EAC extraction logfile from 10. September 2009, 16:42

Belinda Carlisle / A Woman & A Man

Used drive : ASUS DRW-1608P Adapter: 2 ID: 0

Read mode : Secure
Utilize accurate stream : Yes
Defeat audio cache : Yes
Make use of C2 pointers : No

Read offset correction : 48
Overread into Lead-In and Lead-Out : No
Fill up missing offset samples with silence : Yes
Delete leading and trailing silent blocks : No
Null samples used in CRC calculations : Yes
Used interface : Installed external ASPI interface

Used output format : User Defined Encoder
Selected bitrate : 1024 kBit/s
Quality : High
Add ID3 tag : No
Command line compressor : C:\Program Files (x86)\Exact Audio Copy\Flac\flac.exe
Additional command line options : -5 -V -T "ARTIST=%a" -T "TITLE=%t" -T "ALBUM=%g" -T "DATE=%y" -T "TRACKNUMBER=%n" -T "GENRE=%m" -T "COMMENT=EAC FLAC -5" %s


TOC of the extracted CD

Track | Start | Length | Start sector | End sector
––––––––––––––––––––––––––––-
1 | 0:00.32 | 4:05.68 | 32 | 18474
2 | 4:06.25 | 2:59.02 | 18475 | 31901
3 | 7:05.27 | 5:12.33 | 31902 | 55334
4 | 12:17.60 | 4:32.60 | 55335 | 75794
5 | 16:50.45 | 4:09.37 | 75795 | 94506
6 | 21:00.07 | 3:12.18 | 94507 | 108924
7 | 24:12.25 | 4:09.50 | 108925 | 127649
8 | 28:22.00 | 3:13.70 | 127650 | 142194
9 | 31:35.70 | 4:18.60 | 142195 | 161604
10 | 35:54.55 | 3:50.55 | 161605 | 178909
11 | 39:45.35 | 3:40.65 | 178910 | 195474
12 | 43:26.25 | 4:04.67 | 195475 | 213841
13 | 47:31.17 | 3:16.53 | 213842 | 228594


Range status and errors

Selected range

Filename F:\Belinda Carlisle - A Woman & A Man - 1996 (Japan)\Belinda Carlisle - A Woman & A Man.wav

Peak level 98.5 %
Range quality 100.0 %
Test CRC 4065BADE
Copy CRC 4065BADE
Copy OK

No errors occurred


AccurateRip summary

Track 1 accurately ripped (confidence 1) [3DB8E086]
Track 2 accurately ripped (confidence 1) [26FBD9A6]
Track 3 accurately ripped (confidence 1) [C6DC0572]
Track 4 accurately ripped (confidence 1) [46E34C7A]
Track 5 accurately ripped (confidence 1) [93DB56CA]
Track 6 accurately ripped (confidence 1) [B23CA11A]
Track 7 accurately ripped (confidence 1) [4D813EFC]
Track 8 accurately ripped (confidence 1) [DEBF4508]
Track 9 accurately ripped (confidence 1) [B5A95335]
Track 10 accurately ripped (confidence 1) [EA10B3BD]
Track 11 accurately ripped (confidence 1) [150868D2]
Track 12 accurately ripped (confidence 1) [616EDF89]
Track 13 accurately ripped (confidence 1) [7ACB20E6]

All tracks accurately ripped

End of status report

Original releaser - bvstudio

––––––––––––––––––––––––––––––––––––––––––––––-


Belinda Carlisle - Albums Collection 1986-2007 [11CD+DVD] Combined Repost

Belinda Carlisle - A Place On Earth: The Greatest Hits (1999) 2CD Edition
EAC | FLAC | Image (Cue&Log) ~ 1 Gb (incl 5%) | Mp3 (CBR320/Stereo) ~ 321 Mb (incl 5%) | Scans ~ 57 Mb
Label: Virgin | # 7243 8 48470 2 9 | Time: 02:13:47

U2 did it; so did George Michael. Who is to say that Belinda Carlisle can't release a two-disc set (despite having already released a greatest hits CD)? And who would have known back in the early '80s that Carlisle, as the punk-pop lead singer of the Go-Gos, would go on to be the underappreciated queen of catchy hooks for two decades? Every song here is hummable, sweet, and as perfectly formatted and accessible as a Saturday morning cartoon theme – which may be why some will think they all sound alike. Lacking her first solo hit "Mad About You," it can't exactly be given the title "The Ultimate Belinda Carlisle Collection," but this dance-heavy set is right up there. It is complete with most of the infectious hits everyone remembers – "Heaven is a Place on Earth," "Circle in the Sand," "I Get Weak," "Leave a Light On" – and those which most won't, mainly because Carlisle's popularity dwindled in America after 1989 and her marketing faded to being non-existent. She kept the music coming though, and if you liked her in the '80s, chances are you will like her later music. There are some truly worthy tunes here. "Live Your Life Be Free" is a roaring proclamation of love, an anthem along the lines of "Heaven is a Place on Earth." It would have been a big club hit had it been given any radio play. "In Too Deep" is an instantly lovable confection from her 1996 comeback album A Woman and a Man. "California" is musical rock candy with Brian Wilson on backup and trendy lyrics like "I remember I was in the tanning salon when I heard that River Phoenix was gone." Three new songs complete disc one: "Feels Like I've Known You Forever" is a polished, mature pop song; "A Prayer for Everyone" is one of her most complex songs musically, though not one of her best; and the third, "All God's Children," Carlisle had the writers tailor-make after she heard Cher's "Believe" and fell in love with that song. "All God's Children" is smooth and fast, terrifically produced, and thankfully avoids using any electronic echoes on Carlisle's vocals – it's "Believe" inspired, but not a clone. The second CD (a limited edition disc) features eight remixes of her earlier hits as well as two B-sides from 1991: the corny but lively "Only a Dream" and "The Air You Breathe," the latter of which would have boasted well as an actual single release at the time, blessed with a powered chorus and great vocalist. Rather than releasing another greatest hits package, Carlisle could have released all of her B-sides, songs from soundtracks, and remixes. Still, if you can only have one Belinda Carlisle album, Place on Earth: Greatest Hits is as ultimate as you'll find.

Review by Peter Fawthrop, Allmusic.com
Tracklist:

CD1:

01. Heaven Is A Place On Earth (04:08)
02. I Get Weak (04:15)
03. Circle In The Sand (03:42)
04. Leave A Light On (04:16)
05. La Luna (04:12)
06. (We Want) The Same Thing (04:17)
07. Summer Rain (04:11)
08. Live Your Life Be Free (04:23)
09. Do You Feel Like I Feel? (04:15)
10. Little Black Book (04:12)
11. Big Scary Animal (04:15)
12. In Too Deep (04:00)
13. California (02:58)
14. Always Breaking My Heart (03:06)
15. Love In The Key Of C (03:51)
16. Feels Like I've Known You Forever (03:49)
17. A Prayer For Everyone (04:21)
18. All God's Children (03:47)

CD2:

01. Heaven Is A Place On Earth (Heavenly Version) (05:59)
02. I Get Weak (12' Version) (07:33)
03. Circle In The Sand (Beach Party Mix) (07:52)
04. World Without You (Extended Worldwide Mix) (08:28)
05. (We Want) The Same Thing (Summer Remix) (05:11)
06. Summer Rain (Justin Strauss Mix) (08:05)
07. Live Your Life Be Free (Club Mix) (05:33)
08. Only A Dream (03:12)
09. The Air You Breathe (04:30)
10. Little Black Book (Little Black Mix) (05:16)


Exact Audio Copy V0.99 prebeta 4 from 23. January 2008

EAC extraction logfile from 1. April 2009, 14:17

Belinda Carlisle / A Place On Earth - The Greatest Hits

Used drive : ASUS DRW-1608P Adapter: 2 ID: 0

Read mode : Secure
Utilize accurate stream : Yes
Defeat audio cache : Yes
Make use of C2 pointers : No

Read offset correction : 48
Overread into Lead-In and Lead-Out : No
Fill up missing offset samples with silence : Yes
Delete leading and trailing silent blocks : No
Null samples used in CRC calculations : Yes
Used interface : Native Win32 interface for Win NT & 2000

Used output format : User Defined Encoder
Selected bitrate : 1024 kBit/s
Quality : High
Add ID3 tag : Yes
Command line compressor : C:\Program Files (x86)\FLAC\flac.exe
Additional command line options : -5 -V -T "ARTIST=%a" -T "TITLE=%t" -T "ALBUM=%g" -T "DATE=%y" -T "TRACKNUMBER=%n" -T "GENRE=%m" -T "COMMENT=EAC FLAC -5" %s


TOC of the extracted CD

Track | Start | Length | Start sector | End sector
––––––––––––––––––––––––––––-
1 | 0:00.00 | 4:08.25 | 0 | 18624
2 | 4:08.25 | 4:15.30 | 18625 | 37779
3 | 8:23.55 | 3:42.02 | 37780 | 54431
4 | 12:05.57 | 4:16.03 | 54432 | 73634
5 | 16:21.60 | 4:12.60 | 73635 | 92594
6 | 20:34.45 | 4:17.67 | 92595 | 111936
7 | 24:52.37 | 4:11.55 | 111937 | 130816
8 | 29:04.17 | 4:23.53 | 130817 | 150594
9 | 33:27.70 | 4:15.37 | 150595 | 169756
10 | 37:43.32 | 4:12.35 | 169757 | 188691
11 | 41:55.67 | 4:15.55 | 188692 | 207871
12 | 46:11.47 | 4:00.60 | 207872 | 225931
13 | 50:12.32 | 2:58.30 | 225932 | 239311
14 | 53:10.62 | 3:06.03 | 239312 | 253264
15 | 56:16.65 | 3:51.52 | 253265 | 270641
16 | 60:08.42 | 3:49.20 | 270642 | 287836
17 | 63:57.62 | 4:21.48 | 287837 | 307459
18 | 68:19.35 | 3:47.37 | 307460 | 324521


Range status and errors

Selected range

Filename F:\Belinda Carlisle - A Place On Earth [2CD]\CD1\Belinda Carlisle - A Place On Earth - The Greatest Hits.wav

Peak level 98.8 %
Range quality 100.0 %
Test CRC BEE9FE1D
Copy CRC BEE9FE1D
Copy OK

No errors occurred


AccurateRip summary

Track 1 cannot be verified as accurate (confidence 3) [3166C0F8], AccurateRip returned [11E066C7]
Track 2 cannot be verified as accurate (confidence 3) [E93C0259], AccurateRip returned [3089820B]
Track 3 cannot be verified as accurate (confidence 3) [3F3AA8A7], AccurateRip returned [02BBE6B9]
Track 4 cannot be verified as accurate (confidence 3) [DBF2F220], AccurateRip returned [22C9ECF8]
Track 5 cannot be verified as accurate (confidence 3) [4D18212C], AccurateRip returned [52DDD2D2]
Track 6 cannot be verified as accurate (confidence 3) [2E309B59], AccurateRip returned [3162DB50]
Track 7 cannot be verified as accurate (confidence 3) [9A18DD76], AccurateRip returned [C7B84697]
Track 8 cannot be verified as accurate (confidence 3) [A833F311], AccurateRip returned [82CCD939]
Track 9 cannot be verified as accurate (confidence 3) [86EDF9FF], AccurateRip returned [0A3C9304]
Track 10 cannot be verified as accurate (confidence 3) [B9FAEBBD], AccurateRip returned [8CE77CB2]
Track 11 cannot be verified as accurate (confidence 3) [32BD788F], AccurateRip returned [7B99D9F3]
Track 12 cannot be verified as accurate (confidence 3) [73CBD759], AccurateRip returned [DF617108]
Track 13 cannot be verified as accurate (confidence 3) [02E8C4AE], AccurateRip returned [1E7199DF]
Track 14 cannot be verified as accurate (confidence 3) [346C23FE], AccurateRip returned [E8DF6CBB]
Track 15 cannot be verified as accurate (confidence 3) [7E367B17], AccurateRip returned [3978F23C]
Track 16 cannot be verified as accurate (confidence 3) [35DE8645], AccurateRip returned [7650C939]
Track 17 cannot be verified as accurate (confidence 3) [4F13CBFD], AccurateRip returned [71D0A582]
Track 18 cannot be verified as accurate (confidence 3) [B1268506], AccurateRip returned [0D4DA063]

No tracks could be verified as accurate
You may have a different pressing from the one(s) in the database

End of status report

Exact Audio Copy V0.99 prebeta 4 from 23. January 2008

EAC extraction logfile from 1. April 2009, 13:57

Belinda Carlisle / A Place On Earth - The Greatest Hits - CD 2 (Limited Edition Bonus CD)

Used drive : ASUS DRW-1608P Adapter: 2 ID: 0

Read mode : Secure
Utilize accurate stream : Yes
Defeat audio cache : Yes
Make use of C2 pointers : No

Read offset correction : 48
Overread into Lead-In and Lead-Out : No
Fill up missing offset samples with silence : Yes
Delete leading and trailing silent blocks : No
Null samples used in CRC calculations : Yes
Used interface : Native Win32 interface for Win NT & 2000

Used output format : User Defined Encoder
Selected bitrate : 1024 kBit/s
Quality : High
Add ID3 tag : Yes
Command line compressor : C:\Program Files (x86)\FLAC\flac.exe
Additional command line options : -5 -V -T "ARTIST=%a" -T "TITLE=%t" -T "ALBUM=%g" -T "DATE=%y" -T "TRACKNUMBER=%n" -T "GENRE=%m" -T "COMMENT=EAC FLAC -5" %s


TOC of the extracted CD

Track | Start | Length | Start sector | End sector
––––––––––––––––––––––––––––-
1 | 0:00.00 | 5:59.35 | 0 | 26959
2 | 5:59.35 | 7:33.37 | 26960 | 60971
3 | 13:32.72 | 7:53.00 | 60972 | 96446
4 | 21:25.72 | 8:28.00 | 96447 | 134546
5 | 29:53.72 | 5:11.00 | 134547 | 157871
6 | 35:04.72 | 8:05.00 | 157872 | 194246
7 | 43:09.72 | 5:33.03 | 194247 | 219224
8 | 48:43.00 | 3:12.00 | 219225 | 233624
9 | 51:55.00 | 4:30.00 | 233625 | 253874
10 | 56:25.00 | 5:16.10 | 253875 | 277584


Range status and errors

Selected range

Filename F:\Belinda Carlisle - A Place On Earth [2CD]\CD2\Belinda Carlisle - A Place On Earth - The Greatest Hits - CD 2 (Limited Edition Bonus CD).wav

Peak level 98.8 %
Range quality 100.0 %
Test CRC EA1A6810
Copy CRC EA1A6810
Copy OK

No errors occurred


AccurateRip summary

Track 1 cannot be verified as accurate (confidence 10) [C09A408A], AccurateRip returned [478DED4B]
Track 2 cannot be verified as accurate (confidence 10) [4BB3D3FC], AccurateRip returned [4E25FEA3]
Track 3 cannot be verified as accurate (confidence 10) [9FE0BC7A], AccurateRip returned [0EE9D9F5]
Track 4 cannot be verified as accurate (confidence 10) [8638B17D], AccurateRip returned [4138EA7D]
Track 5 cannot be verified as accurate (confidence 10) [4A4CB4F6], AccurateRip returned [E9E6652F]
Track 6 cannot be verified as accurate (confidence 10) [0663D81C], AccurateRip returned [CEC15192]
Track 7 cannot be verified as accurate (confidence 10) [E8014335], AccurateRip returned [A68302C0]
Track 8 cannot be verified as accurate (confidence 10) [55549C89], AccurateRip returned [B24E1727]
Track 9 cannot be verified as accurate (confidence 10) [A2D94150], AccurateRip returned [CBDEB461]
Track 10 cannot be verified as accurate (confidence 10) [FAE4739F], AccurateRip returned [1733A53C]

No tracks could be verified as accurate
You may have a different pressing from the one(s) in the database

End of status report

Original releaser - bvstudio

––––––––––––––––––––––––––––––––––––––––––––––-


Belinda Carlisle - Albums Collection 1986-2007 [11CD+DVD] Combined Repost

Collection (2002) Japan Press
EAC | FLAC | Image (Cue&Log) ~ 540 Mb (incl 5%) | Mp3 (CBR320/Stereo) ~ 165 Mb (incl 5%) | Scans ~ 70 Mb
Label: Toshiba EMI | # TOCP-53354 | Time: 01:08:48

After two other best-of albums that were far more inclusive than what's here, Collection comes up woefully short for any Carlisle fan. No Go-Go's, nothing from Belinda, nothing from Real, nothing from A Woman & a Man; in fact "Circle in the Sand" doesn't even make the cut. Only a small window from 1988 to 1991 gets the lion's share of the coverage, with a few tracks from the late '90s pasted on to balance it out. What does make it is decent, side-stepping her often uneven solo career with a focus on her lighter pop and rock tracks. But one can't help but be disappointed by the lack of variety and the key tracks that are needlessly missing. There are better collections dedicated to Carlisle that deliver more hits and provide an even view of her output.

Review by Bradley Torreano, Allmusic.com
Tracklist:

01. Heaven Is A Place On Earth (04:06)
02. I Get Weak (04:51)
03. World Without You (04:41)
04. Runaway Horses (04:41)
05. Summer Rain (05:29)
06. Do You Feel Like I Feel? (05:09)
07. Little Black Book (04:12)
08. All God's Children (03:49)
09. A Prayer For Everyone (04:20)
10. Fool For Love (03:56)
11. We Can Change (03:46)
12. Love Revolution (05:07)
13. Valentine (05:03)
14. Whatever It Takes (04:49)
15. Vision Of You (04:41)


Exact Audio Copy V0.99 prebeta 4 from 23. January 2008

Отчёт EAC об извлечении, выполненном 8. октября 2008, 23:27

Belinda Carlisle / The Collection

Дисковод: PLEXTOR DVDR PX-716A Adapter: 0 ID: 0

Режим чтения : Достоверность
Использование точного потока : Да
Отключение кэша аудио : Да
Использование указателей C2 : Нет

Коррекция смещения при чтении : 30
Способность читать области Lead-in и Lead-out : Нет
Заполнение пропущенных сэмплов тишиной : Да
Удаление блоков с тишиной в начале и конце : Нет
При вычислениях CRC использовались нулевые сэмплы : Да
Интерфейс : Встроенный Win32-интерфейс для Win NT/2000

Выходной формат : Пользовательский кодировщик
Выбранный битрейт : 128 kBit/s
Качество : Высокий
Добавление ID3-тэга : Нет
Утилита сжатия : C:\Program Files\FLAC\flac.exe
Дополнительные параметры : -8 -V -T "ARTIST=%a" -T "TITLE=%t" -T "ALBUM=%g" -T "DATE=%y" -T "TRACKNUMBER=%n" -T "GENRE=%m" -T "COMMENT=EAC FLAC -8" %s


TOC извлечённого CD

Трек | Старт | Длительность | Начальный сектор | Конечный сектор
––––––––––––––––––––––––––––––––––-
1 | 0:00.00 | 4:06.72 | 0 | 18521
2 | 4:06.72 | 4:51.43 | 18522 | 40389
3 | 8:58.40 | 4:41.45 | 40390 | 61509
4 | 13:40.10 | 4:41.65 | 61510 | 82649
5 | 18:22.00 | 5:29.35 | 82650 | 107359
6 | 23:51.35 | 5:09.37 | 107360 | 130571
7 | 29:00.72 | 4:12.13 | 130572 | 149484
8 | 33:13.10 | 3:49.35 | 149485 | 166694
9 | 37:02.45 | 4:20.15 | 166695 | 186209
10 | 41:22.60 | 3:56.70 | 186210 | 203979
11 | 45:19.55 | 3:46.67 | 203980 | 220996
12 | 49:06.47 | 5:07.60 | 220997 | 244081
13 | 54:14.32 | 5:03.48 | 244082 | 266854
14 | 59:18.05 | 4:49.50 | 266855 | 288579
15 | 64:07.55 | 4:41.12 | 288580 | 309666


Характеристики диапазона извлечения и сообщения об ошибках

Выбранный диапазон

Имя файла E:\EAC rip\Belinda Carlisle - The Collection.wav

Пиковый уровень 98.0 %
Качество диапазона 99.9 %
CRC теста F957232A
CRC копии F957232A
Копирование… OK

Ошибок не произошло


AccurateRip: сводка

Трек 1 точность не определена (достоверность 5) [2021F4A3], AccurateRip вернул [847041F5]
Трек 2 точность не определена (достоверность 6) [8574E034], AccurateRip вернул [CB444846]
Трек 3 точность не определена (достоверность 6) [D3E797F4], AccurateRip вернул [D137C0DC]
Трек 4 точность не определена (достоверность 6) [B485AA6A], AccurateRip вернул [AFF8644C]
Трек 5 точность не определена (достоверность 6) [10F4D496], AccurateRip вернул [CBEEA764]
Трек 6 точность не определена (достоверность 6) [6AB3626D], AccurateRip вернул [74A32733]
Трек 7 точность не определена (достоверность 6) [5B3887C9], AccurateRip вернул [00510F91]
Трек 8 точность не определена (достоверность 5) [4BB7E4FC], AccurateRip вернул [D1D536C0]
Трек 9 точность не определена (достоверность 5) [2E29DB54], AccurateRip вернул [0255EADA]
Трек 10 точность не определена (достоверность 6) [3686DE46], AccurateRip вернул [D3B73FA2]
Трек 11 точность не определена (достоверность 5) [7645ABED], AccurateRip вернул [6D890A29]
Трек 12 точность не определена (достоверность 6) [028C4EDE], AccurateRip вернул [6A987256]
Трек 13 точность не определена (достоверность 5) [3C9A83B3], AccurateRip вернул [E19AA7B3]
Трек 14 точность не определена (достоверность 5) [CC387879], AccurateRip вернул [59C6BCE1]
Трек 15 точность не определена (достоверность 5) [22E32A82], AccurateRip вернул [AAD3AC70]

Ни один трек не прошёл проверки на точность
В вашей базе может быть иной вариант штамповки диска

Конец отчёта

Original releaser - Konstantin_slash

––––––––––––––––––––––––––––––––––––––––––––––-


Belinda Carlisle - Albums Collection 1986-2007 [11CD+DVD] Combined Repost

Voila (2007)
EAC | FLAC | Tracks (Cue&Log) ~ 426 Mb (incl 5%) | Mp3 (CBR320/Stereo) ~ 146 Mb (incl 5%) | Scans included
Label: Rykodisc | # RCD 10883 | Time: 00:57:31

Belinda Carlisle's career has had several twists and turns, but none has been quite as interesting as her 2007 album Voila, a collection of luxurious covers of classic French pop tunes, all sung in French. Certainly, the very concept of the former new wave queen singing French pop qualifies as one of the more intriguing projects in her solo career, but it's also interesting that she's chosen this idea for her first solo album in ten years. Given that long gap between new albums, it's clear that Voila is no stunt or novelty, it's a passion project for Carlisle and it plays that way: it has the complexity and richness of a labor of love. Which doesn't necessarily mean that this album is filled with surprises, apart from its very existence. Brian Eno may contribute keyboards, but that doesn't mean that these are radical reinterpretations, nor are the selections necessarily left-field: there are a pair of Serge Gainsbourg songs, a Jacques Brel, and a few other songs that should be familiar to rock and pop listeners with a fairly deep grasp of '60s and '70s pop. Those listeners who were raised on punk, new wave, and alt-rock, but with a deep love of the '60s, are clearly the target audience for Voila, and the best thing about the album is that it will not disappoint. This is an elegant, stylish collection of adult pop, gliding by on its sleek synth textures and cabaret atmosphere. Even when it dips into Eurodisco – as it does on occasion, as on Edith Piaf's "La Vie en Rose" – it does so gracefully, and there's an appealing sly decadence to the feel of Voila; it may be a decadence sculpted out of films, LPs, and old photos, one that's knowing but affectionate, but that doesn't mean it's not an alluring, effective mood for the album, particularly because Carlisle sustains it from beginning to end, a problem that she didn't manage to conquer on her big hits of the late '80s. That is a change for her, but the true revelation of Voila is her singing: it's relaxed, assured, and nuanced, the best vocal performance she's had on record. She delivers these songs so smoothly, it's like she's been a chanteuse her entire life, and it's that deep musicality that makes Voila not just a rewarding detour but one of her best albums – and, with any luck, the first chapter in a new phase of her career.

Review by Stephen Thomas Erlewine, Allmusic.com
Tracklist:

01. Ma jeunesse fout le camp (03:16)
02. Bonnie et Clyde (05:14)
03. Avec le temps (04:06)
04. Sous le ciel de Paris (04:41)
05. Des ronds dans l'eau (02:55)
06. Pourtant tu m'aimes (03:27)
07. Ne me quitte pas (03:16)
08. La vie en rose (04:22)
09. Contact (02:56)
10. Merci cherie (03:34)
11. Jezebel (03:17)
12. I Still Love Him (English version) (03:26)
13. La vie en rose (English version) (04:22)
14. Bonnie and Clyde (English version) (05:14)
15. If You Go Away (English version) (03:17)


Exact Audio Copy V0.99 prebeta 3 from 28. July 2007

EAC extraction logfile from 20. June 2008, 17:46

Belinda Carlisle / Voila

Used drive : PIONEER DVD-RW DVR-112D Adapter: 0 ID: 0

Read mode : Secure
Utilize accurate stream : Yes
Defeat audio cache : Yes
Make use of C2 pointers : No

Read offset correction : 48
Overread into Lead-In and Lead-Out : No
Fill up missing offset samples with silence : Yes
Delete leading and trailing silent blocks : No
Null samples used in CRC calculations : Yes
Used interface : Native Win32 interface for Win NT & 2000
Gap handling : Appended to previous track

Used output format : User Defined Encoder
Selected bitrate : 320 kBit/s
Quality : High
Add ID3 tag : No
Command line compressor : C:\Program Files\FLAC\flac.exe
Additional command line options : -8 -V -T "artist=%a" -T "title=%t" -T "album=%g" -T "date=%y" -T "tracknumber=%n" -T "genre=%m" %s


TOC of the extracted CD

Track | Start | Length | Start sector | End sector
––––––––––––––––––––––––––––-
1 | 0:00.00 | 3:16.11 | 0 | 14710
2 | 3:16.11 | 5:14.38 | 14711 | 38298
3 | 8:30.49 | 4:06.67 | 38299 | 56815
4 | 12:37.41 | 4:41.18 | 56816 | 77908
5 | 17:18.59 | 2:55.18 | 77909 | 91051
6 | 20:14.02 | 3:27.24 | 91052 | 106600
7 | 23:41.26 | 3:16.43 | 106601 | 121343
8 | 26:57.69 | 4:22.60 | 121344 | 141053
9 | 31:20.54 | 2:56.33 | 141054 | 154286
10 | 34:17.12 | 3:34.60 | 154287 | 170396
11 | 37:51.72 | 3:17.38 | 170397 | 185209
12 | 41:09.35 | 3:26.61 | 185210 | 200720
13 | 44:36.21 | 4:22.60 | 200721 | 220430
14 | 48:59.06 | 5:14.64 | 220431 | 244044
15 | 54:13.70 | 3:17.63 | 244045 | 258882


Track 1

Filename C:\Temp\SHARED\Belinda Carlisle - Voila [Limited Edition]\01 - Ma jeunesse fout le camp.wav

Pre-gap length 0:00:02.00

Peak level 98.0 %
Track quality 100.0 %
Test CRC 593D0BA3
Copy CRC 593D0BA3
Track not present in AccurateRip database
Copy OK

Track 2

Filename C:\Temp\SHARED\Belinda Carlisle - Voila [Limited Edition]\02 - Bonnie et Clyde.wav

Peak level 98.0 %
Track quality 100.0 %
Test CRC 4D2DCB9C
Copy CRC 4D2DCB9C
Track not present in AccurateRip database
Copy OK

Track 3

Filename C:\Temp\SHARED\Belinda Carlisle - Voila [Limited Edition]\03 - Avec le temps.wav

Peak level 92.8 %
Track quality 100.0 %
Test CRC BCCB9CB7
Copy CRC BCCB9CB7
Track not present in AccurateRip database
Copy OK

Track 4

Filename C:\Temp\SHARED\Belinda Carlisle - Voila [Limited Edition]\04 - Sous le ciel de Paris.wav

Peak level 98.0 %
Track quality 99.9 %
Test CRC A79760A2
Copy CRC A79760A2
Track not present in AccurateRip database
Copy OK

Track 5

Filename C:\Temp\SHARED\Belinda Carlisle - Voila [Limited Edition]\05 - Des ronds dans l'eau.wav

Peak level 98.0 %
Track quality 100.0 %
Test CRC F8CC71D9
Copy CRC F8CC71D9
Track not present in AccurateRip database
Copy OK

Track 6

Filename C:\Temp\SHARED\Belinda Carlisle - Voila [Limited Edition]\06 - Pourtant tu m'aimes.wav

Peak level 98.0 %
Track quality 100.0 %
Test CRC C321AB73
Copy CRC C321AB73
Track not present in AccurateRip database
Copy OK

Track 7

Filename C:\Temp\SHARED\Belinda Carlisle - Voila [Limited Edition]\07 - Ne me quitte pas.wav

Peak level 98.0 %
Track quality 99.9 %
Test CRC 3D8F8E59
Copy CRC 3D8F8E59
Track not present in AccurateRip database
Copy OK

Track 8

Filename C:\Temp\SHARED\Belinda Carlisle - Voila [Limited Edition]\08 - La vie en rose.wav

Peak level 98.5 %
Track quality 100.0 %
Test CRC 0BA5383D
Copy CRC 0BA5383D
Track not present in AccurateRip database
Copy OK

Track 9

Filename C:\Temp\SHARED\Belinda Carlisle - Voila [Limited Edition]\09 - Contact.wav

Peak level 98.0 %
Track quality 100.0 %
Test CRC 6A7628BE
Copy CRC 6A7628BE
Track not present in AccurateRip database
Copy OK

Track 10

Filename C:\Temp\SHARED\Belinda Carlisle - Voila [Limited Edition]\10 - Merci cherie.wav

Peak level 98.0 %
Track quality 100.0 %
Test CRC 905090F5
Copy CRC 905090F5
Track not present in AccurateRip database
Copy OK

Track 11

Filename C:\Temp\SHARED\Belinda Carlisle - Voila [Limited Edition]\11 - Jezebel.wav

Peak level 98.0 %
Track quality 100.0 %
Test CRC EE8C609E
Copy CRC EE8C609E
Track not present in AccurateRip database
Copy OK

Track 12

Filename C:\Temp\SHARED\Belinda Carlisle - Voila [Limited Edition]\12 - I Still Love Him (English version).wav

Peak level 98.0 %
Track quality 100.0 %
Test CRC 9EA6D9D2
Copy CRC 9EA6D9D2
Track not present in AccurateRip database
Copy OK

Track 13

Filename C:\Temp\SHARED\Belinda Carlisle - Voila [Limited Edition]\13 - La vie en rose (English version).wav

Peak level 98.0 %
Track quality 100.0 %
Test CRC 9A74A2E2
Copy CRC 9A74A2E2
Track not present in AccurateRip database
Copy OK

Track 14

Filename C:\Temp\SHARED\Belinda Carlisle - Voila [Limited Edition]\14 - Bonnie and Clyde (English version).wav

Peak level 98.0 %
Track quality 100.0 %
Test CRC 656F4710
Copy CRC 656F4710
Track not present in AccurateRip database
Copy OK

Track 15

Filename C:\Temp\SHARED\Belinda Carlisle - Voila [Limited Edition]\15 - If You Go Away (English version).wav

Peak level 98.0 %
Track quality 100.0 %
Test CRC B89BE54F
Copy CRC B89BE54F
Track not present in AccurateRip database
Copy OK


None of the tracks are present in the AccurateRip database

No errors occurred

End of status report

Original releaser - Ultraplayer

––––––––––––––––––––––––––––––––––––––––––––––-

All thanks to original releasers (see albums info)

More interesting music in My Blog


http://filepost.com/files/19adb7ee/BCarlisle.1986.FLAC.part1.rar
http://filepost.com/files/f9b7c63d/BCarlisle.1986.FLAC.part2.rar
http://filepost.com/files/298ffa6c/BCarlisle.1986.Belinda.MP3.rar
http://filepost.com/files/c342f42e/BCarlisle.1986.Belinda.SCANS.rar

http://filepost.com/files/92f9affb/BCarlisle.1987.HOE.FLAC.part1.rar
http://filepost.com/files/c6191471/BCarlisle.1987.HOE.FLAC.part2.rar
http://filepost.com/files/1f8a3ab4/BCarlisle.1987.HOE.FLAC.part3.rar
http://filepost.com/files/d1381175/BCarlisle.1987.HOE.MP3.rar
http://filepost.com/files/5d5f9a74/BCarlisle.1987.HOE.SCANS.rar

http://filepost.com/files/6a1c2894/BCarlisle.2009.HOE.SE.FLAC.part1.rar
http://filepost.com/files/fabda191/BCarlisle.2009.HOE.SE.FLAC.part2.rar
http://filepost.com/files/fb37cd14/BCarlisle.2009.HOE.SE.FLAC.part3.rar
http://filepost.com/files/6a28b158/BCarlisle.2009.HOE.SE.FLAC.part4.rar
http://filepost.com/files/a9fb222e/BCarlisle.2009.HOE.SE.MP3.rar
http://filepost.com/files/24ecfb7f/BCarlisle.2009.HOE.SE.SCANS.rar
http://filepost.com/files/13dd179m/BCarlisle.2009.HOE.SE.DVD.part1.rar
http://filepost.com/files/ddama16b/BCarlisle.2009.HOE.SE.DVD.part2.rar
http://filepost.com/files/dcmm31b2/BCarlisle.2009.HOE.SE.DVD.part3.rar
http://filepost.com/files/f9172dm9/BCarlisle.2009.HOE.SE.DVD.part4.rar
http://filepost.com/files/d7dmbmdf/BCarlisle.2009.HOE.SE.DVD.part5.rar
http://filepost.com/files/833c4mm3/BCarlisle.2009.HOE.SE.DVD.part6.rar
http://filepost.com/files/6a77a912/BCarlisle.2009.HOE.SE.DVD.part7.rar
http://filepost.com/files/1f22c482/BCarlisle.2009.HOE.SE.DVD.part8.rar

http://filepost.com/files/6e3fbm52/BCarlisle.1989.RH.FLAC.part1.rar
http://filepost.com/files/8b9e9e31/BCarlisle.1989.RH.FLAC.part2.rar
http://filepost.com/files/eba2ebd1/BCarlisle.1989.RH.FLAC.part3.rar
http://filepost.com/files/eme57cb3/BCarlisle.1989.RH.MP3.rar
http://filepost.com/files/637b5c1f/BCarlisle.1989.RH.SCANS.rar

http://filepost.com/files/5b87919d/BCarlisle.1991.LYLBF.FLAC.part1.rar
http://filepost.com/files/3c616744/BCarlisle.1991.LYLBF.FLAC.part2.rar
http://filepost.com/files/6a1ef693/BCarlisle.1991.LYLBF.FLAC.part3.rar
http://filepost.com/files/3b131e31/BCarlisle.1991.LYLBF.MP3.rar
http://filepost.com/files/b17a9567/BCarlisle.1991.LYLBF.SCANS.part1.rar
http://filepost.com/files/699b4mm1/BCarlisle.1991.LYLBF.SCANS.part2.rar

http://filepost.com/files/6a68e64d/BCarlisle.1993.R.FLAC.part1.rar
http://filepost.com/files/a214c633/BCarlisle.1993.R.FLAC.part2.rar
http://filepost.com/files/98bf6e6f/BCarlisle.1993.R.FLAC.part3.rar
http://filepost.com/files/dc1dc23d/BCarlisle.1993.R.MP3.rar
http://filepost.com/files/69b61599/BCarlisle.1993.R.SCANS.rar

http://filepost.com/files/b48458d3/BCarlisle.1996.AWAM.FLAC.part1.rar
http://filepost.com/files/e6m7m56m/BCarlisle.1996.AWAM.FLAC.part2.rar
http://filepost.com/files/e24313ea/BCarlisle.1996.AWAM.FLAC.part3.rar
http://filepost.com/files/65f5ae8d/BCarlisle.1996.AWaAM.MP3.rar
http://filepost.com/files/2d31377m/BCarlisle.1996.AWAM.SCANS.rar

http://filepost.com/files/2m194dae/BCarlisle.1999.APOE.CD1.FLAC.part1.rar
http://filepost.com/files/b4b424ff/BCarlisle.1999.APOE.CD1.FLAC.part2.rar
http://filepost.com/files/ba2869ef/BCarlisle.1999.APOE.CD1.FLAC.part3.rar
http://filepost.com/files/4923c72a/BCarlisle.1999.APOE.CD1.FLAC.part4.rar
http://filepost.com/files/84a95656/BCarlisle.1999.APOE.CD2.FLAC.part1.rar
http://filepost.com/files/8678a14c/BCarlisle.1999.APOE.CD2.FLAC.part2.rar
http://filepost.com/files/aam2m825/BCarlisle.1999.APOE.CD2.FLAC.part3.rar
http://filepost.com/files/67214cmc/BCarlisle.1999.APOE.CD2.FLAC.part4.rar
http://filepost.com/files/61b2eeb2/BCarlisle.1999.APOE.TGH.CD1.MP3.rar
http://filepost.com/files/6af477dc/BCarlisle.1999.APOE.TGH.CD2.MP3.rar
http://filepost.com/files/b45ad576/BCarlisle.1999.APOE.SCANS.rar

http://filepost.com/files/de146984/BCarlisle.2002.Collection.FLAC.part1.rar
http://filepost.com/files/18ee8ma2/BCarlisle.2002.Collection.FLAC.part2.rar
http://filepost.com/files/3e43f98f/BCarlisle.2002.Collection.FLAC.part3.rar
http://filepost.com/files/6a913mbb/BCarlisle.2002.Collection.FLAC.part4.rar
http://filepost.com/files/68e61b6f/BCarlisle.2002.Coll.MP3.rar
http://filepost.com/files/58d1ae1c/BCarlisle.2002.Collection.SCANS.rar

http://filepost.com/files/7b574577/BCarlisle.2007.Voila.FLAC.part1.rar
http://filepost.com/files/963261b6/BCarlisle.2007.Voila.FLAC.part2.rar
http://filepost.com/files/1b79f4e2/BCarlisle.2007.Voila.FLAC.part3.rar
http://filepost.com/files/b4f6284a/BCarlisle.2007.Voila.FLAC.part4.rar
http://filepost.com/files/6dm77453/BCarlisle.2007.V.LE.MP3.rar



BCarlisle.1986.Belinda.MP3.rar
BCarlisle.1986.Belinda.SCANS.rar
BCarlisle.1986.FLAC.part1.rar
BCarlisle.1986.FLAC.part2.rar

BCarlisle.1987.HOE.FLAC.part1.rar
BCarlisle.1987.HOE.FLAC.part2.rar
BCarlisle.1987.HOE.FLAC.part3.rar
BCarlisle.1987.HOE.MP3.rar
BCarlisle.1987.HOE.SCANS.rar

BCarlisle.1989.RH.FLAC.part1.rar
BCarlisle.1989.RH.FLAC.part2.rar
BCarlisle.1989.RH.FLAC.part3.rar
BCarlisle.1989.RH.MP3.rar
BCarlisle.1989.RH.SCANS.rar

BCarlisle.1991.LYLBF.FLAC.part1.rar
BCarlisle.1991.LYLBF.FLAC.part2.rar
BCarlisle.1991.LYLBF.FLAC.part3.rar
BCarlisle.1991.LYLBF.MP3.rar
BCarlisle.1991.LYLBF.SCANS.part1.rar
BCarlisle.1991.LYLBF.SCANS.part2.rar

BCarlisle.1993.R.FLAC.part1.rar
BCarlisle.1993.R.FLAC.part2.rar
BCarlisle.1993.R.FLAC.part3.rar
BCarlisle.1993.R.MP3.rar
BCarlisle.1993.R.SCANS.rar

BCarlisle.1996.AWaAM.MP3.rar
BCarlisle.1996.AWAM.FLAC.part1.rar
BCarlisle.1996.AWAM.FLAC.part2.rar
BCarlisle.1996.AWAM.FLAC.part3.rar
BCarlisle.1996.AWAM.SCANS.rar

BCarlisle.1999.APOE.CD1.FLAC.part1.rar
BCarlisle.1999.APOE.CD1.FLAC.part2.rar
BCarlisle.1999.APOE.CD1.FLAC.part3.rar
BCarlisle.1999.APOE.CD1.FLAC.part4.rar
BCarlisle.1999.APOE.CD2.FLAC.part1.rar
BCarlisle.1999.APOE.CD2.FLAC.part2.rar
BCarlisle.1999.APOE.CD2.FLAC.part3.rar
BCarlisle.1999.APOE.CD2.FLAC.part4.rar
BCarlisle.1999.APOE.SCANS.rar
BCarlisle.1999.APOE.TGH.CD1.MP3.rar
BCarlisle.1999.APOE.TGH.CD2.MP3.rar

BCarlisle.2002.Coll.MP3.rar
BCarlisle.2002.Collection.FLAC.part1.rar
BCarlisle.2002.Collection.FLAC.part2.rar
BCarlisle.2002.Collection.FLAC.part3.rar
BCarlisle.2002.Collection.FLAC.part4.rar
BCarlisle.2002.Collection.SCANS.rar

BCarlisle.2007.V.LE.MP3.rar
BCarlisle.2007.Voila.FLAC.part1.rar
BCarlisle.2007.Voila.FLAC.part2.rar
BCarlisle.2007.Voila.FLAC.part3.rar
BCarlisle.2007.Voila.FLAC.part4.rar

BCarlisle.2009.HOE.SE.DVD.part1.rar
BCarlisle.2009.HOE.SE.DVD.part2.rar
BCarlisle.2009.HOE.SE.DVD.part3.rar
BCarlisle.2009.HOE.SE.DVD.part4.rar
BCarlisle.2009.HOE.SE.DVD.part5.rar
BCarlisle.2009.HOE.SE.DVD.part6.rar
BCarlisle.2009.HOE.SE.DVD.part7.rar
BCarlisle.2009.HOE.SE.DVD.part8.rar

BCarlisle.2009.HOE.SE.FLAC.part1.rar
BCarlisle.2009.HOE.SE.FLAC.part2.rar
BCarlisle.2009.HOE.SE.FLAC.part3.rar
BCarlisle.2009.HOE.SE.FLAC.part4.rar
BCarlisle.2009.HOE.SE.MP3.rar
BCarlisle.2009.HOE.SE.SCANS.rar