Subcategories

Art Blakey & The Jazz Messengers - The Big Beat (1960) [RVG Edition, 2005]

Posted By: Andi_Deris
Art Blakey & The Jazz Messengers - The Big Beat (1960) [RVG Edition, 2005]

Art Blakey & The Jazz Messengers - The Big Beat (1960) [RVG Edition, 2005]
EAC Rip | APE: Image+Cue+Log | 299 Mb | MP3 CBR 320 kbps | 138 Mb | Scans | Time: 49:49
Genre: Jazz, Hard Bop | Label: Blue Note/Capitol | Cat.№: 7243 5 63801 2 7

The Big Beat is an album by Art Blakey and his group The Jazz Messengers recorded on March 6, 1960 and released on the Blue Note label. It features performances by Blakey with Lee Morgan, Wayne Shorter, Bobby Timmons, and Jymie Merritt.



Art Blakey & The Jazz Messengers - The Big Beat (1960) [RVG Edition, 2005]


Track Listing

01. The Chess Players (09:31)
02. Sakeena's Vision (06:04)
03. Politely (06:04)
04. Dat Dere (08:47)
05. Lester Left Town (06:25)
06. It's Only A Paper Moon (06:37)
bonus track
07. It's Only A Paper Moon (alternate take) (06:18)

Produced by Alfred Lion
Reissue produced by Michael Cuscuna

Musicians

• Lee Morgan - trumpet
• Wayne Shorter - tenor sax
• Bobby Timmons - piano
• Jymie Merritt - bass
• Art Blakey - drums

Notes

Remastered in 2005 by Rudy Van Gelder

Blue Note Records: RVG Edition

UK: 563 8012
LC 0133

Originally recorded on March 6, 1960 at the Van Gelder Studio, Englewood Cliffs, New Jersey
All transfers from analog to digital were made at 24 bit resolution.
Tracks #1-6 originally issued in 1960 as BST 84029
Track #7 originally issued on CD in 1987 as B2-46400

Exact Audio Copy V0.99 prebeta 2 from 28. July 2007

Отчёт EAC об извлечении, выполненном 31. августа 2007, 8:01

Art Blakey & The Jazz Messengers / The Big Beat

Дисковод: HL-DT-STDVDRAM GSA-4167B Adapter: 0 ID: 0

Режим чтения : Достоверность
Использование точного потока : Да
Отключение кэша аудио : Да
Использование указателей C2 : Нет

Коррекция смещения при чтении : 667
Способность читать области Lead-in и Lead-out : Нет
Заполнение пропущенных сэмплов тишиной : Да
Удаление блоков с тишиной в начале и конце : Нет
При вычислениях CRC использовались нулевые сэмплы : Да
Интерфейс : Установленный внешний ASPI-интерфейс

Выходной формат : Внутренние WAV-операции
Формат сэмплов : 44.100 Гц; 16 бит; стерео


TOC извлечённого CD

Трек | Старт | Длительность | Начальный сектор | Конечный сектор
––––––––––––––––––––––––––––––––––-
1 | 0:00.00 | 9:31.51 | 0 | 42875
2 | 9:31.51 | 6:04.32 | 42876 | 70207
3 | 15:36.08 | 6:04.42 | 70208 | 97549
4 | 21:40.50 | 8:47.03 | 97550 | 137077
5 | 30:27.53 | 6:25.43 | 137078 | 165995
6 | 36:53.21 | 6:37.41 | 165996 | 195811
7 | 43:30.62 | 6:18.44 | 195812 | 224205
8 | 52:21.31 | 21:36.44 | 235606 | 332849


Характеристики диапазона извлечения и сообщения об ошибках

Выбранный диапазон

Имя файла H:\Muzlo\JAZZ\BIG JAZZ\RIPER-CUTTER\Art Blakey & The Jazz Messengers - The Big Beat.wav

Пиковый уровень 97.9 %
Качество диапазона 99.9 %
CRC копии 7AF0EB04
Копирование… OK

Ошибок не произошло


Конец отчёта


Many thanks to the original uploader: ordo