Arlon - Mimetic Desires (2015)

Posted By: popsakov
Arlon - Mimetic Desires (2015)

Arlon - Mimetic Desires (2015)
EAC Rip | FLAC (Img) + Cue + Log ~ 373 Mb | MP3 CBR320 ~ 128 Mb
Scans (JPG,600 dpi) ~ 47 Mb | RAR 5% Recovery
Neo Prog Rock | Margot Music #MMCD001

Formed in Przemyśl (Poland) in 2009, Arlon is a Polish progressive rock band. In 2013, the group featuring Jacek Szott (saxophone, keyboard and composition), Wiesław Rutka (guitar), Maciej Napieraj (bass), Paweł Zwirn (drums) and vocalist Paweł Szykuła, releases their first studio album ,,On The Edge”. The album receives very good reviews and in March 2014 wins the prestigious First Prize of “The Werbel 2013” (a competition for the best album of the year 2013 ) awarded by the Polish Radio Rzeszow. The year 2013 is for the band the time of promoting the album “On the Edge”. The band gives concerts in many places all over Poland, including Warsaw, Cracow, Katowice, Lublin, Rzeszów and Przemyśl. At that time the band performs at a prestigious Polish festival, the 7th Festival of Progressive Rock in Gniewkowo, and participates in the first historical concert of Rock Area On Stage in Katowice. The latter, with a guest performance of Clive Nolan ( Arena, Pendragon ), takes place on 21 November 2013.

The Album “On the Edge” also receives positive reviews in France, Italy, the Netherlands, Egypt, Brazil, the UK and the USA. Nominated by several websites and radio broadcasting stations for the best progressive rock album, the band markedly makes its presence on checklists in 2014. In the same year Arlon’s lead singer Paweł Szykuła leaves the band.

In April 2014 Wojciech Mandzyn (a classical guitarist, a vocalist and a composer) joins Arlon and contributes to the band’s new project „Mimetic Desires” with lyrics by Anetta Maria Mandzyn (an English teacher and a doctoral student in Comparative Literature). Her evocative texts add new colors to the music of Arlon, generating a unique climate of the new record. „Mimetic Desires”, the second studio album of Arlon, was made in collaboration with a composer, an arranger, a film music composer and the founder of Sinfonietta Consonus Symphonic Orchestra, Michał Mierzejewski, famous for collaborating with such prominent performers as Transatlantic, Jordan Rudess (Dream Theater), Flying Colors, Mike Portnoy (ex- Dream Theater, Winnery Dogs), Neal Morse (Neal Morse Band), Pete Trewavas (Marillion), Steve Morse (Deep Purple), Casey McPherson (Alfa Rev), Dave LaRue (Dixie Dregs, Joe Satriani), Roine Stolt (The Flower Kings), Bad Salad, Affector, Tina Guo (Hans Zimmer), Marc Papeghin, Whiterose, Collin Leijenaar, Daniel Fries or Sigma Project.

The Sinfonietta Consonus Symphonic Orchestra, appears in three tracks from the new album by Arlon. The recordings started on 29 November 2014, and were completed at the end of May 2015. 43 musicians and a choir were engaged in the project. The new album “Mimetic Desires” is about a 52-minute record with music composed and arranged mainly by the group leader, Jacek Szott and with some pieces composed by a classical guitarist and the group vocalist, Wojciech Mandzyn as well as by Wiesław Rutka, the guitarist of Arlon.
~ arlon.linuxpl.info
Arlon - Mimetic Desires (2015)


***************

Arlon - Mimetic Desires (2015)

Track List:

01. Tenebrae [09:27]
02. Quest for the Promised Land [07:33]
03. The Wounded World [08:24]
04. The Odd Theater [05:11]
05. Ekphrasis [05:12]
06. Mimetic Desires [07:54]
07. Nothing Changes [08:14]
08. Coda [01:29]

Exact Audio Copy V1.0 beta 2 from 29. April 2011

EAC extraction logfile from 30. November 2015, 19:27

Arlon / Mimetic Desires

Used drive : ASUS DRW-24B3ST Adapter: 0 ID: 0

Read mode : Secure
Utilize accurate stream : Yes
Defeat audio cache : Yes
Make use of C2 pointers : No

Read offset correction : 6
Overread into Lead-In and Lead-Out : No
Fill up missing offset samples with silence : Yes
Delete leading and trailing silent blocks : No
Null samples used in CRC calculations : Yes
Used interface : Native Win32 interface for Win NT & 2000

Used output format : User Defined Encoder
Selected bitrate : 1024 kBit/s
Quality : High
Add ID3 tag : No
Command line compressor : C:\Program Files (x86)\Exact Audio Copy\Flac\flac.exe
Additional command line options : -8 -V -T "ARTIST=%artist%" -T "TITLE=%title%" -T "ALBUM=%albumtitle%" -T "DATE=%year%" -T "TRACKNUMBER=%tracknr%" -T "TOTALTRACKS=%numtracks%" -T "GENRE=%genre%" -T "ALBUMARTIST=%albumartist%" -T "ALBUM ARTIST=%albumartist%


TOC of the extracted CD

Track | Start | Length | Start sector | End sector
––––––––––––––––––––––––––––-
1 | 0:00.00 | 9:27.00 | 0 | 42524
2 | 9:27.00 | 7:33.00 | 42525 | 76499
3 | 17:00.00 | 8:24.00 | 76500 | 114299
4 | 25:24.00 | 5:11.00 | 114300 | 137624
5 | 30:35.00 | 5:12.00 | 137625 | 161024
6 | 35:47.00 | 7:54.00 | 161025 | 196574
7 | 43:41.00 | 8:14.00 | 196575 | 233624
8 | 51:55.00 | 1:28.36 | 233625 | 240260


Range status and errors

Selected range

Filename D:\Yurek Private\Uploads\ARLON (2015) - Mimetic Desires\Arlon - Mimetic Desires.wav

Peak level 100.0 %
Extraction speed 5.7 X
Range quality 99.9 %
Test CRC BD19D29C
Copy CRC BD19D29C
Copy OK

No errors occurred


AccurateRip summary

Track 1 not present in database
Track 2 not present in database
Track 3 not present in database
Track 4 not present in database
Track 5 not present in database
Track 6 not present in database
Track 7 not present in database
Track 8 not present in database

None of the tracks are present in the AccurateRip database

End of status report

==== Log checksum 221AC5ED47EA8E1CC9BE950934D111D37E2D6DCDD4C169E77CA29D4D9E2D3CE6 ====

foobar2000 1.2.6 / Dynamic Range Meter 1.1.1
log date: 2015-12-12 13:54:21

––––––––––––––––––––––––––––––––––––––––
Analyzed: Arlon / Mimetic Desires
––––––––––––––––––––––––––––––––––––––––

DR Peak RMS Duration Track
––––––––––––––––––––––––––––––––––––––––
DR8 -0.04 dB -9.98 dB 9:27 01-Tenebrae
DR9 -0.20 dB -11.73 dB 7:33 02-Quest for the Promised Land
DR8 0.00 dB -10.05 dB 8:24 03-The Wounded World
DR8 -0.26 dB -11.58 dB 5:11 04-The Odd Theater
DR8 -0.50 dB -11.39 dB 5:12 05-Ekphrasis
DR8 -0.19 dB -10.80 dB 7:54 06-Mimetic Desires
DR8 0.00 dB -11.97 dB 8:14 07-Nothing Changes
DR10 -3.25 dB -15.39 dB 1:28 08-Coda
––––––––––––––––––––––––––––––––––––––––

Number of tracks: 8
Official DR value: DR8

Samplerate: 44100 Hz
Channels: 2
Bits per sample: 16
Bitrate: 930 kbps
Codec: FLAC
================================================================================

[CUETools log; Date: 12.12.2015 13:54:22; Version: 2.1.5]
[CTDB TOCID: QU4_pLZjd01iVzcToPXAOXy7pqQ-] found.
Track | CTDB Status
1 | (1/1) Accurately ripped
2 | (1/1) Accurately ripped
3 | (1/1) Accurately ripped
4 | (1/1) Accurately ripped
5 | (1/1) Accurately ripped
6 | (1/1) Accurately ripped
7 | (1/1) Accurately ripped
8 | (1/1) Accurately ripped
[AccurateRip ID: 00125904-00778738-650c8308] disk not present in database.

Track Peak [ CRC32 ] [W/O NULL] [ LOG ]
– 100,0 [BD19D29C] [4D83080D] CRC32
01 99,5 [FEA9DD8F] [BAC52AD9]
02 97,6 [F6EBD162] [AD8B9ABA]
03 100,0 [B60E1B65] [C85DDBB1]
04 97,0 [D169092C] [59BBB381]
05 94,4 [34A2497C] [CBD6F97F]
06 97,8 [74D5D6C4] [4A672C08]
07 100,0 [C1B6D28D] [FB1F5425]
08 68,8 [92D74277] [242AD332]

Arlon - Mimetic Desires (2015)

All thanks go to ayurek

Visit my blog!

No mirrors, please!

Download:
Nitroflare: FLAC | Scans | mp3