Archiv Produktion - Analogue Recordings 1959 - 1981: Box Set 50CDs (2016) Part1

Posted By: Discograf_man
Archiv Produktion - Analogue Recordings 1959 - 1981: Box Set 50CDs (2016) Part1

Archiv Produktion - Analogue Recordings 1959 - 1981: Box Set 50CDs (2016) Part1
Classical | FLAC (tracks)+Cue+Log | 2,92 Gb + 5% Recovery | Covers 23,47 Mb
Label: Decca (UMO) Classics | Release Year: 2016

The period between 1959 and 1981 forms one of the most productive chapters in the history of Archiv Produktion. The music recorded in those two decades certified the labels international fame not only as a record company but also as a musical research institute, responsible for preserving the sounds of original instruments, and documenting the musical heritage of the Renaissance, Baroque and Early-Classical eras.
By the end of the 1950s a major event transformed the world of early music: the arrival of stereo recording. It allowed musicians to present their period-instrument performance practice in a richer sound that would bring listeners even closer to the composers intentions.
This 50 CD Box Set includes Archiv Produktions finest analogue recordings made between 1959 and 1981, representing a Golden Age of a pioneering label that defined the way early music should be performed and recorded. Featured artists include Karl Richter, Nikolaus Harnoncourt, Pierre Fournier, John Eliot Gardiner, Trevor Pinnock and other icons of the Archiv label. The collection also includes a 150-page booklet with tracklists, rare photos and a new note by David Butchart.
Among the treasures in this box set are 9 recordings that appear on CD for the first time, including French Empire string quartets, Rameaus Pigmalion, Early Italain organ music, Schuberts Arpeggione Sonata, Weber Songs with guitar, Haydn Baryton Trios, and Hesperion XXs only recording with the label.
Other highlights include Telemanns complete constant Music Master, Cherubinis Comlete String Quartets, the complete Music of the Gothic Era with David Munrow and Purcells Choral Works with Simon Preston and Christ Church Choir Oxford.
Archiv Produktion - Analogue Recordings 1959 - 1981: Box Set 50CDs (2016) Part1

Archiv Produktion - Analogue Recordings 1959 - 1981: Box Set 50CDs (2016) Part1

CD 1 Karl Richter - J. S. Bach: Cantatas, Magnificat
Classical | FLAC (tracks)+Cue+Log | 346 Mb
Label: Decca (UMO) Classics | Release Year: 2016

Tracklist:

1. Aria: "Jauchzet Gott in allen Landen" - Maria Stader, Münchener Bach-Orchester, Karl Richter
2. Recitativo: "Wir beten zu dem Tempel an" - Maria Stader, Münchener Bach-Orchester, Karl Richter
3. Aria: "Höchster, Höchster mache deine Güte ferner alle Morgen neu" - Maria Stader, Münchener Bach-Orchester, Karl Richter
4. Chorale: "Sei Lob und Preis mit Ehren" - Münchener Bach-Orchester, Karl Richter, Münchener Bach-Chor
5. Aria: "Alleluja" - Maria Stader, Münchener Bach-Orchester, Karl Richter
6. 1. Adagio: Weichet nur, betrübte Schatten - Maria Stader, Münchener Bach-Orchester, Karl Richter, Hedwig Bilgram
7. 2. Recit: Die Welt wird wieder neu - Maria Stader, Hedwig Bilgram, Münchener Bach-Orchester, Karl Richter
8. 3. Aria: Phöbus eilt mit schnellen Pferden - Maria Stader, Hedwig Bilgram, Münchener Bach-Orchester, Karl Richter
9. 4. Recit: D'rum sucht auch Amor sein Vergnügen - Maria Stader, Hedwig Bilgram, Münchener Bach-Orchester, Karl Richter
10. 5. Aria: Wenn die Frühlingslüfte streichen - Maria Stader, Hedwig Bilgram, Münchener Bach-Orchester, Karl Richter
11. 6. Recit: Und dieses ist das Glücke - Maria Stader, Münchener Bach-Orchester, Karl Richter, Hedwig Bilgram
12. 7. Aria: Sich üben im Lieben - Maria Stader, Münchener Bach-Orchester, Karl Richter
13. 8. Recit: So sei das Band der keuschen Liebe - Maria Stader, Hedwig Bilgram, Münchener Bach-Orchester, Karl Richter
14. 9. Gavotte: Sehet in Zufriedenheit - Maria Stader, Hedwig Bilgram, Münchener Bach-Orchester, Karl Richter
15. Chorus: "Magnificat" - Münchener Bach-Orchester, Karl Richter, Münchener Bach-Chor
16. Aria: "Et exsultavit spiritus meus" - Hertha Töpper, Münchener Bach-Orchester, Karl Richter
17. Quia respexit…Omnes generationes - Maria Stader, Münchener Bach-Orchester, Karl Richter, Münchener Bach-Chor
18. Aria: "Quia fecit mihi magna" (bass) - Dietrich Fischer-Dieskau, Münchener Bach-Orchester, Karl Richter
19. Aria (Duet): "Et misericordia" (alto, tenor) - Hertha Töpper, Ernst Haefliger, Münchener Bach-Orchester, Karl Richter
20. Chorus: "Fecit potentiam" - Münchener Bach-Orchester, Karl Richter, Münchener Bach-Chor
21. Aria: "Deposuit potentes" (tenor) - Ernst Haefliger, Münchener Bach-Orchester, Karl Richter
22. Aria: "Esurientes implevit bonis" (alto) - Hertha Töpper, Münchener Bach-Orchester, Karl Richter
23. Chorus: Suscepit Israel - Maria Stader, Hertha Töpper, Münchener Bach-Orchester, Karl Richter, Münchener Bach-Chor
24. Chorus: "Sicut locutus est" - Münchener Bach-Orchester, Karl Richter, Münchener Bach-Chor
25. Chorus: "Gloria Patri" - Münchener Bach-Orchester, Karl Richter, Münchener Bach-Chor

Exact Audio Copy V1.1 from 23. June 2015

EAC extraction logfile from 18. November 2016, 9:50

Stader, Töpper, Haefliger, Fisher-Dieskau, Münchener Bach-Chor, Münchener Bach-Orchester, Karl Richter / Bach: Kantaten

Used drive : HL-DT-STBD-RE WH16NS40 Adapter: 1 ID: 0

Read mode : Secure
Utilize accurate stream : Yes
Defeat audio cache : Yes
Make use of C2 pointers : No

Read offset correction : 6
Overread into Lead-In and Lead-Out : No
Fill up missing offset samples with silence : Yes
Delete leading and trailing silent blocks : No
Null samples used in CRC calculations : Yes
Used interface : Native Win32 interface for Win NT & 2000

Used output format : Internal WAV Routines
Sample format : 44.100 Hz; 16 Bit; Stereo


TOC of the extracted CD

Track | Start | Length | Start sector | End sector
––––––––––––––––––––––––––––-
1 | 0:00.00 | 4:41.09 | 0 | 21083
2 | 4:41.09 | 2:25.00 | 21084 | 31958
3 | 7:06.09 | 4:27.00 | 31959 | 51983
4 | 11:33.09 | 3:49.38 | 51984 | 69196
5 | 15:22.47 | 2:32.12 | 69197 | 80608
6 | 17:54.59 | 6:54.10 | 80609 | 111668
7 | 24:48.69 | 0:29.39 | 111669 | 113882
8 | 25:18.33 | 3:20.13 | 113883 | 128895
9 | 28:38.46 | 0:45.58 | 128896 | 132328
10 | 29:24.29 | 2:45.40 | 132329 | 144743
11 | 32:09.69 | 0:45.48 | 144744 | 148166
12 | 32:55.42 | 4:27.07 | 148167 | 168198
13 | 37:22.49 | 0:28.40 | 168199 | 170338
14 | 37:51.14 | 1:53.55 | 170339 | 178868
15 | 39:44.69 | 3:02.03 | 178869 | 192521
16 | 42:46.72 | 2:45.50 | 192522 | 204946
17 | 45:32.47 | 4:31.72 | 204947 | 225343
18 | 50:04.44 | 2:17.31 | 225344 | 235649
19 | 52:22.00 | 3:48.02 | 235650 | 252751
20 | 56:10.02 | 2:22.35 | 252752 | 263436
21 | 58:32.37 | 2:12.02 | 263437 | 273338
22 | 60:44.39 | 2:59.16 | 273339 | 286779
23 | 63:43.55 | 1:51.74 | 286780 | 295178
24 | 65:35.54 | 1:54.35 | 295179 | 303763
25 | 67:30.14 | 2:18.61 | 303764 | 314174


Range status and errors

Selected range

Filename C:\[Temp]\CD01\Stader, Töpper, Haefliger, Fisher-Dieskau, Münchener Bach-Chor, Münchener Bach-Orchester, Karl Richter - Bach- Kantaten.wav

Peak level 87.9 %
Extraction speed 7.4 X
Range quality 100.0 %
Copy CRC F25244D7
Copy OK

No errors occurred


AccurateRip summary

Track 1 accurately ripped (confidence 3) [BBF10CA5] (AR v2)
Track 2 accurately ripped (confidence 3) [1C4446B5] (AR v2)
Track 3 accurately ripped (confidence 3) [0D768D93] (AR v2)
Track 4 accurately ripped (confidence 3) [85CEC004] (AR v2)
Track 5 accurately ripped (confidence 3) [46EEC0DD] (AR v2)
Track 6 accurately ripped (confidence 3) [063A9276] (AR v2)
Track 7 accurately ripped (confidence 3) [2200F610] (AR v2)
Track 8 accurately ripped (confidence 3) [A8693313] (AR v2)
Track 9 accurately ripped (confidence 3) [79BC115A] (AR v2)
Track 10 accurately ripped (confidence 3) [4FD0FB4C] (AR v2)
Track 11 accurately ripped (confidence 3) [3FD6847F] (AR v2)
Track 12 accurately ripped (confidence 3) [25C0776A] (AR v2)
Track 13 accurately ripped (confidence 3) [AD54A4A1] (AR v2)
Track 14 accurately ripped (confidence 3) [B4229B10] (AR v2)
Track 15 accurately ripped (confidence 3) [7AF205A5] (AR v2)
Track 16 accurately ripped (confidence 3) [A801D64E] (AR v2)
Track 17 accurately ripped (confidence 3) [569F7ECA] (AR v2)
Track 18 accurately ripped (confidence 3) [F347A485] (AR v2)
Track 19 accurately ripped (confidence 3) [679F5622] (AR v2)
Track 20 accurately ripped (confidence 3) [9A61C373] (AR v2)
Track 21 accurately ripped (confidence 3) [F95AB7B7] (AR v2)
Track 22 accurately ripped (confidence 3) [3FFB6A24] (AR v2)
Track 23 accurately ripped (confidence 3) [03F07F6C] (AR v2)
Track 24 accurately ripped (confidence 3) [0A8CDF88] (AR v2)
Track 25 accurately ripped (confidence 3) [39389F0C] (AR v2)

All tracks accurately ripped

End of status report

–– CUETools DB Plugin V2.1.6

[CTDB TOCID: Iwqo3K3xUzX0Fb3xSfHL7r_q1aE-] found
Submit result: Iwqo3K3xUzX0Fb3xSfHL7r_q1aE- has been confirmed
Track | CTDB Status
1 | (11/12) Accurately ripped
2 | (12/12) Accurately ripped
3 | (12/12) Accurately ripped
4 | (12/12) Accurately ripped
5 | (12/12) Accurately ripped
6 | (12/12) Accurately ripped
7 | (12/12) Accurately ripped
8 | (12/12) Accurately ripped
9 | (12/12) Accurately ripped
10 | (12/12) Accurately ripped
11 | (12/12) Accurately ripped
12 | (12/12) Accurately ripped
13 | (12/12) Accurately ripped
14 | (12/12) Accurately ripped
15 | (12/12) Accurately ripped
16 | (12/12) Accurately ripped
17 | (12/12) Accurately ripped
18 | (12/12) Accurately ripped
19 | (12/12) Accurately ripped
20 | (12/12) Accurately ripped
21 | (12/12) Accurately ripped
22 | (12/12) Accurately ripped
23 | (12/12) Accurately ripped
24 | (12/12) Accurately ripped
25 | (11/12) Accurately ripped

foobar2000 1.3.13 / Замер динамического диапазона (DR) 1.1.1
Дата отчёта: 2016-12-04 17:21:23

––––––––––––––––––––––––––––––––––––––––
Анализ: Münchener Bach-Orchester, Karl Richter, Münchener Bach-Chor / CD01 - Bach: Kantaten
––––––––––––––––––––––––––––––––––––––––

DR Пики RMS Продолжительность трека
––––––––––––––––––––––––––––––––––––––––
DR10 -6.21 дБ -19.15 дБ 4:41 01-Jauchzet Gott in allen Landen: 1. Jauchzet Gott in allen Landen
DR9 -6.10 дБ -20.68 дБ 2:25 02-Jauchzet Gott in allen Landen: 2. Wir beten zu dem Tempel an
DR9 -5.47 дБ -19.36 дБ 4:27 03-Jauchzet Gott in allen Landen: 3. Hochster, mache deine Gute
DR10 -6.80 дБ -20.70 дБ 3:50 04-Jauchzet Gott in allen Landen: 4. Sei Lob und Preis mit Ehren
DR10 -5.39 дБ -18.85 дБ 2:32 05-Jauchzet Gott in allen Landen: 5. Alleluja
DR11 -6.05 дБ -21.79 дБ 6:54 06-Weichet nur, betrubte Schatten: 1. Weichet nur, betrubte Schatten
DR9 -6.63 дБ -22.77 дБ 0:30 07-Weichet nur, betrubte Schatten: 2. Die Welt wird wieder neu
DR10 -6.22 дБ -20.54 дБ 3:20 08-Weichet nur, betrubte Schatten: 3. Phoebus eilt mit schnellen Pferden
DR8 -7.78 дБ -20.89 дБ 0:46 09-Weichet nur, betrubte Schatten: 4. Drum sucht auch Amor sein Vergnugen
DR10 -5.79 дБ -20.74 дБ 2:46 10-Weichet nur, betrubte Schatten: 5. Wenn die Fruhlingslufte streichen
DR9 -7.48 дБ -20.88 дБ 0:46 11-Weichet nur, betrubte Schatten: 6. Und dieses ist das Glucke
DR11 -6.74 дБ -21.38 дБ 4:27 12-Weichet nur, betrubte Schatten: 7. Sich uben im Lieben
DR10 -6.66 дБ -21.24 дБ 0:29 13-Weichet nur, betrubte Schatten: 8. So sei das Band der keuschen Liebe
DR12 -7.26 дБ -25.19 дБ 1:54 14-Weichet nur, betrubte Schatten: 9. Sehet in Zufriedenheit
DR11 -1.53 дБ -17.81 дБ 3:02 15-Magnificat in D major: 1. Magnificat
DR9 -7.76 дБ -20.48 дБ 2:46 16-Magnificat in D major: 2. Et exultavit spiritus meus
DR11 -3.38 дБ -19.28 дБ 4:32 17-Magnificat in D major: 3. Quia respexit humilitatem - Omnes generationes
DR14 -5.70 дБ -23.88 дБ 2:17 18-Magnificat in D major: 5. Quia fecit mihi magna
DR11 -5.25 дБ -22.11 дБ 3:48 19-Magnificat in D major: 6. Et misericordia
DR8 -1.27 дБ -12.65 дБ 2:22 20-Magnificat in D major: 7. Fecit potentiam
DR11 -6.47 дБ -20.62 дБ 2:12 21-Magnificat in D major: 8. Deposuit potentes
DR12 -7.68 дБ -25.63 дБ 2:59 22-Magnificat in D major: 9. Esurientes implevit bonis
DR11 -10.51 дБ -25.46 дБ 1:52 23-Magnificat in D major: 10. Suscepit Israel
DR10 -2.94 дБ -16.93 дБ 1:54 24-Magnificat in D major: 11. Sicut locutus est
DR9 -1.11 дБ -14.48 дБ 2:19 25-Magnificat in D major: 12. Gloria Patri
––––––––––––––––––––––––––––––––––––––––

Количество треков: 25
Реальные значения DR: DR10

Частота: 44100 Гц
Каналов: 2
Разрядность: 16
Битрейт: 670 кбит/с
Кодек: FLAC
================================================================================

––––––––––––––––––––––––––––––––––––––––
Статистика для: ?-CD01 - Bach Kantaten
Количество сэмплов: 184734900
Продолжительность: 1:09:49
––––––––––––––––––––––––––––––––––––––––

Левый Правый

Пики: -1.11 дБ –- -1.77 дБ
Средний RMS: -19.36 дБ –- -19.45 дБ
DR канала: 13.37 дБ –- 12.42 дБ
––––––––––––––––––––––––––––––––––––––––

Реальные значения DR: DR13

Частота: 44100 Гц
Каналов: 2
Разрядность: 16
Битрейт: 670 кбит/с
Кодек: FLAC
================================================================================

Archiv Produktion - Analogue Recordings 1959 - 1981: Box Set 50CDs (2016) Part1

CD 2 Quatuor Loewenguth - Pierre Vachon / Nicolas D’Alayrac: String Quartets
Classical | FLAC (tracks)+Cue+Log | 264 Mb
Label: Decca (UMO) Classics | Release Year: 2016

Tracklist:

1. 1. Moderato - Loewenguth Quartet
2. 2. Allegretto - Loewenguth Quartet
3. 1. Allegro spiritoso - Loewenguth Quartet
4. 2. Sicilana un poco presto - Loewenguth Quartet
5. 1. Moderato - Loewenguth Quartet
6. 2. Adagio - Loewenguth Quartet
7. 3. Allegro non tanto - Loewenguth Quartet
8. 1. Allegro commodo - Loewenguth Quartet
9. 2. Minuetto - Loewenguth Quartet


Exact Audio Copy V1.1 from 23. June 2015

EAC extraction logfile from 18. November 2016, 10:03

Loewenguth Quartet / Westeuropa zwischen Barock und Rokoko

Used drive : HL-DT-STBD-RE WH16NS40 Adapter: 1 ID: 0

Read mode : Secure
Utilize accurate stream : Yes
Defeat audio cache : Yes
Make use of C2 pointers : No

Read offset correction : 6
Overread into Lead-In and Lead-Out : No
Fill up missing offset samples with silence : Yes
Delete leading and trailing silent blocks : No
Null samples used in CRC calculations : Yes
Used interface : Native Win32 interface for Win NT & 2000

Used output format : Internal WAV Routines
Sample format : 44.100 Hz; 16 Bit; Stereo


TOC of the extracted CD

Track | Start | Length | Start sector | End sector
––––––––––––––––––––––––––––-
1 | 0:00.00 | 7:47.34 | 0 | 35058
2 | 7:47.34 | 5:29.25 | 35059 | 59758
3 | 13:16.59 | 5:21.59 | 59759 | 83892
4 | 18:38.43 | 5:04.30 | 83893 | 106722
5 | 23:42.73 | 10:03.63 | 106723 | 152010
6 | 33:46.61 | 4:04.43 | 152011 | 170353
7 | 37:51.29 | 4:47.02 | 170354 | 191880
8 | 42:38.31 | 5:46.62 | 191881 | 217892
9 | 48:25.18 | 2:43.44 | 217893 | 230161


Range status and errors

Selected range

Filename C:\[Temp]\CD02\Loewenguth Quartet - Westeuropa zwischen Barock und Rokoko.wav

Peak level 93.6 %
Extraction speed 5.3 X
Range quality 100.0 %
Copy CRC 4D78136A
Copy OK

No errors occurred


AccurateRip summary

Track 1 accurately ripped (confidence 3) [58BA0601] (AR v2)
Track 2 accurately ripped (confidence 3) [4515A883] (AR v2)
Track 3 accurately ripped (confidence 3) [56C529DE] (AR v2)
Track 4 accurately ripped (confidence 3) [96CF3DA2] (AR v2)
Track 5 accurately ripped (confidence 3) [823661D7] (AR v2)
Track 6 accurately ripped (confidence 3) [6D18C255] (AR v2)
Track 7 accurately ripped (confidence 3) [AB41B00E] (AR v2)
Track 8 accurately ripped (confidence 3) [36B8C0C2] (AR v2)
Track 9 accurately ripped (confidence 3) [171303EF] (AR v2)

All tracks accurately ripped

End of status report

–– CUETools DB Plugin V2.1.6

[CTDB TOCID: KjseWrOj_s0aexuDpRgI8fIu7kM-] found
Submit result: KjseWrOj_s0aexuDpRgI8fIu7kM- has been confirmed
Track | CTDB Status
1 | (12/12) Accurately ripped
2 | (12/12) Accurately ripped
3 | (12/12) Accurately ripped
4 | (12/12) Accurately ripped
5 | (11/12) Accurately ripped
6 | (12/12) Accurately ripped
7 | (11/12) Accurately ripped
8 | (12/12) Accurately ripped
9 | (12/12) Accurately ripped


foobar2000 1.3.13 / Замер динамического диапазона (DR) 1.1.1
Дата отчёта: 2016-12-04 17:26:47

––––––––––––––––––––––––––––––––––––––––
Анализ: Loewenguth Quartet / CD02 - Vachon & Dalayrac - String Quartets
––––––––––––––––––––––––––––––––––––––––

DR Пики RMS Продолжительность трека
––––––––––––––––––––––––––––––––––––––––
DR13 -0.57 дБ -18.85 дБ 7:47 01-Vachon String Quartet in A major: 1. Moderato
DR13 -1.71 дБ -18.85 дБ 5:29 02-Vachon String Quartet in A major: 2. Allegretto
DR13 -1.44 дБ -19.90 дБ 5:22 03-Dalayrac String Quartet in D major: 1. Allegro spiritoso
DR13 -0.73 дБ -20.01 дБ 5:04 04-Dalayrac String Quartet in D major: 2. Sicilliana (Un poco presto)
DR13 -2.96 дБ -19.96 дБ 10:04 05-Vachon String Quartet in F minor: 1. Moderato
DR12 -5.86 дБ -24.47 дБ 4:05 06-Vachon String Quartet in F minor: 2. Adagio
DR13 -2.64 дБ -20.47 дБ 4:47 07-Vachon String Quartet in F minor: 3. Allegro ma non tanto
DR14 -2.28 дБ -20.78 дБ 5:47 08-Dalayrac String Quartet in E flat major: 1. Allegro comodo
DR13 -3.59 дБ -20.53 дБ 2:44 09-Dalayrac String Quartet in E flat major: 2. Minuetto
––––––––––––––––––––––––––––––––––––––––

Количество треков: 9
Реальные значения DR: DR13

Частота: 44100 Гц
Каналов: 2
Разрядность: 16
Битрейт: 699 кбит/с
Кодек: FLAC
================================================================================

––––––––––––––––––––––––––––––––––––––––
Статистика для: ?-CD02 - Vachon & Dalayrac - String Quartets
Количество сэмплов: 135335256
Продолжительность: 51:09
––––––––––––––––––––––––––––––––––––––––

Левый Правый

Пики: -0.57 дБ –- -2.47 дБ
Средний RMS: -19.21 дБ –- -20.95 дБ
DR канала: 14.38 дБ –- 14.47 дБ
––––––––––––––––––––––––––––––––––––––––

Реальные значения DR: DR14

Частота: 44100 Гц
Каналов: 2
Разрядность: 16
Битрейт: 699 кбит/с
Кодек: FLAC
================================================================================

Archiv Produktion - Analogue Recordings 1959 - 1981: Box Set 50CDs (2016) Part1

CD 3 Ralph Kirkpatrick - J. S. Bach: 15 Inventionen Und 15 Sinfonien, Bwv 772 Bwv 801
Classical | FLAC (tracks)+Cue+Log | 286 Mb
Label: Decca (UMO) Classics | Release Year: 2016

Tracklist:

1. No. 1 In C, BWV 772 - Ralph Kirkpatrick
2. No. 2 in C minor, BWV 773 - Ralph Kirkpatrick
3. No. 3 In D, BWV 774 - Ralph Kirkpatrick
4. No. 4 In D Minor, BWV 775 - Ralph Kirkpatrick
5. No. 5 In E Flat, BWV 776 - Ralph Kirkpatrick
6. No. 6 In E, BWV 777 - Ralph Kirkpatrick
7. No. 7 In E Minor, BWV 778 - Ralph Kirkpatrick
8. No. 8 In F, BWV 779 - Ralph Kirkpatrick
9. No. 9 In F Minor, BWV 780 - Ralph Kirkpatrick
10. No. 10 In G, BWV 781 - Ralph Kirkpatrick
11. No. 11 In G Minor, BWV 782 - Ralph Kirkpatrick
12. No. 12 In A, BWV 783 - Ralph Kirkpatrick
13. No. 13 In A Minor, BWV 784 - Ralph Kirkpatrick
14. No. 14 In B Flat, BWV 785 - Ralph Kirkpatrick
15. No. 15 In B Minor, BWV 786 - Ralph Kirkpatrick
16. No. 1 In C, BWV 787 - Ralph Kirkpatrick
17. No. 2 In C Minor, BWV 788 - Ralph Kirkpatrick
18. No. 3 In D, BWV 789 - Ralph Kirkpatrick
19. No. 4 In D Minor, BWV 790 - Ralph Kirkpatrick
20. No. 5 In E Flat, BWV 791 - Ralph Kirkpatrick
21. No. 6 In E, BWV 792 - Ralph Kirkpatrick
22. No. 7 In E Minor, BWV 793 - Ralph Kirkpatrick
23. No. 8 In F, BWV 794 - Ralph Kirkpatrick
24. No. 9 In F Minor, BWV 795 - Ralph Kirkpatrick
25. No. 10 In G, BWV 796 - Ralph Kirkpatrick
26. No. 11 In G Minor, BWV 797 - Ralph Kirkpatrick
27. No. 12 In A, BWV 798 - Ralph Kirkpatrick
28. No. 13 In A Minor, BWV 799 - Ralph Kirkpatrick
29. No. 14 In B Flat, BWV 800 - Ralph Kirkpatrick
30. No. 15 In B Minor, BWV 801 - Ralph Kirkpatrick

Exact Audio Copy V1.1 from 23. June 2015

EAC extraction logfile from 18. November 2016, 10:20

Ralf Kirkpatrick / Das Schaffen Johann Sebastian Bach

Used drive : HL-DT-STBD-RE WH16NS40 Adapter: 1 ID: 0

Read mode : Secure
Utilize accurate stream : Yes
Defeat audio cache : Yes
Make use of C2 pointers : No

Read offset correction : 6
Overread into Lead-In and Lead-Out : No
Fill up missing offset samples with silence : Yes
Delete leading and trailing silent blocks : No
Null samples used in CRC calculations : Yes
Used interface : Native Win32 interface for Win NT & 2000

Used output format : Internal WAV Routines
Sample format : 44.100 Hz; 16 Bit; Stereo


TOC of the extracted CD

Track | Start | Length | Start sector | End sector
––––––––––––––––––––––––––––-
1 | 0:00.00 | 1:13.31 | 0 | 5505
2 | 1:13.31 | 1:49.15 | 5506 | 13695
3 | 3:02.46 | 1:15.03 | 13696 | 19323
4 | 4:17.49 | 0:53.30 | 19324 | 23328
5 | 5:11.04 | 1:38.29 | 23329 | 30707
6 | 6:49.33 | 2:32.11 | 30708 | 42118
7 | 9:21.44 | 1:52.34 | 42119 | 50552
8 | 11:14.03 | 0:55.69 | 50553 | 54746
9 | 12:09.72 | 1:51.27 | 54747 | 63098
10 | 14:01.24 | 1:09.51 | 63099 | 68324
11 | 15:11.00 | 1:00.68 | 68325 | 72892
12 | 16:11.68 | 1:18.50 | 72893 | 78792
13 | 17:30.43 | 1:05.18 | 78793 | 83685
14 | 18:35.61 | 2:01.31 | 83686 | 92791
15 | 20:37.17 | 1:15.19 | 92792 | 98435
16 | 21:52.36 | 1:07.24 | 98436 | 103484
17 | 22:59.60 | 1:37.66 | 103485 | 110825
18 | 24:37.51 | 1:15.44 | 110826 | 116494
19 | 25:53.20 | 2:06.70 | 116495 | 126014
20 | 28:00.15 | 2:30.66 | 126015 | 137330
21 | 30:31.06 | 1:36.57 | 137331 | 144587
22 | 32:07.63 | 2:23.15 | 144588 | 155327
23 | 34:31.03 | 1:13.38 | 155328 | 160840
24 | 35:44.41 | 3:15.55 | 160841 | 175520
25 | 39:00.21 | 0:53.67 | 175521 | 179562
26 | 39:54.13 | 1:58.18 | 179563 | 188430
27 | 41:52.31 | 1:35.46 | 188431 | 195601
28 | 43:28.02 | 1:11.38 | 195602 | 200964
29 | 44:39.40 | 1:39.63 | 200965 | 208452
30 | 46:19.28 | 1:27.55 | 208453 | 215032


Range status and errors

Selected range

Filename C:\[Temp]\CD03\Ralf Kirkpatrick - Das Schaffen Johann Sebastian Bach.wav

Peak level 83.3 %
Extraction speed 6.1 X
Range quality 100.0 %
Copy CRC 7B50C579
Copy OK

No errors occurred


AccurateRip summary

Track 1 accurately ripped (confidence 3) [BBB62C72] (AR v2)
Track 2 accurately ripped (confidence 3) [C55B8ED8] (AR v2)
Track 3 accurately ripped (confidence 3) [5BA03DF1] (AR v2)
Track 4 accurately ripped (confidence 3) [69AD5EF8] (AR v2)
Track 5 accurately ripped (confidence 3) [CF942086] (AR v2)
Track 6 accurately ripped (confidence 3) [D346366D] (AR v2)
Track 7 accurately ripped (confidence 3) [CC849B5C] (AR v2)
Track 8 accurately ripped (confidence 3) [6BF0BFEE] (AR v2)
Track 9 accurately ripped (confidence 3) [A7B9A7A1] (AR v2)
Track 10 accurately ripped (confidence 3) [7A63E3B8] (AR v2)
Track 11 accurately ripped (confidence 3) [ECF98634] (AR v2)
Track 12 accurately ripped (confidence 3) [B88B6ECA] (AR v2)
Track 13 accurately ripped (confidence 3) [CFD992B5] (AR v2)
Track 14 accurately ripped (confidence 3) [12833FD1] (AR v2)
Track 15 accurately ripped (confidence 3) [97F357DE] (AR v2)
Track 16 accurately ripped (confidence 3) [EB26D96A] (AR v2)
Track 17 accurately ripped (confidence 3) [2470636A] (AR v2)
Track 18 accurately ripped (confidence 3) [0D05415C] (AR v2)
Track 19 accurately ripped (confidence 3) [9518320C] (AR v2)
Track 20 accurately ripped (confidence 3) [F8186FE3] (AR v2)
Track 21 accurately ripped (confidence 3) [735170ED] (AR v2)
Track 22 accurately ripped (confidence 3) [46BA8706] (AR v2)
Track 23 accurately ripped (confidence 3) [90218785] (AR v2)
Track 24 accurately ripped (confidence 3) [5098A36B] (AR v2)
Track 25 accurately ripped (confidence 3) [74E90390] (AR v2)
Track 26 accurately ripped (confidence 3) [25EE806A] (AR v2)
Track 27 accurately ripped (confidence 3) [2DCA368D] (AR v2)
Track 28 accurately ripped (confidence 3) [FBBB2B5D] (AR v2)
Track 29 accurately ripped (confidence 3) [3E7F1712] (AR v2)
Track 30 accurately ripped (confidence 3) [73649131] (AR v2)

All tracks accurately ripped

End of status report

–– CUETools DB Plugin V2.1.6

[CTDB TOCID: qd7yKCl3sWG35Lq9YqHOhB.gWRU-] found
Submit result: qd7yKCl3sWG35Lq9YqHOhB.gWRU- has been confirmed
Track | CTDB Status
1 | (12/12) Accurately ripped
2 | (12/12) Accurately ripped
3 | (12/12) Accurately ripped
4 | (12/12) Accurately ripped
5 | (12/12) Accurately ripped
6 | (12/12) Accurately ripped
7 | (12/12) Accurately ripped
8 | (12/12) Accurately ripped
9 | (12/12) Accurately ripped
10 | (12/12) Accurately ripped
11 | (12/12) Accurately ripped
12 | (12/12) Accurately ripped
13 | (12/12) Accurately ripped
14 | (12/12) Accurately ripped
15 | (12/12) Accurately ripped
16 | (12/12) Accurately ripped
17 | (12/12) Accurately ripped
18 | (12/12) Accurately ripped
19 | (12/12) Accurately ripped
20 | (12/12) Accurately ripped
21 | (11/12) Accurately ripped
22 | (12/12) Accurately ripped
23 | (12/12) Accurately ripped
24 | (12/12) Accurately ripped
25 | (12/12) Accurately ripped
26 | (12/12) Accurately ripped
27 | (12/12) Accurately ripped
28 | (12/12) Accurately ripped
29 | (12/12) Accurately ripped
30 | (12/12) Accurately ripped

foobar2000 1.3.13 / Замер динамического диапазона (DR) 1.1.1
Дата отчёта: 2016-12-04 17:27:57

––––––––––––––––––––––––––––––––––––––––
Анализ: Ralf Kirkpatrick / CD03 - Bach Inventionen & Sinfonien, BWV 772-801
––––––––––––––––––––––––––––––––––––––––

DR Пики RMS Продолжительность трека
––––––––––––––––––––––––––––––––––––––––
DR12 -4.46 дБ -20.48 дБ 1:13 01-Invetio in C major BWV 772
DR13 -3.85 дБ -20.89 дБ 1:49 02-Invetio in C minor BWV 773
DR12 -4.49 дБ -19.45 дБ 1:15 03-Invetio in D major BWV 774
DR11 -1.59 дБ -16.80 дБ 0:53 04-Invetio in D minor BWV 775
DR12 -4.09 дБ -18.59 дБ 1:38 05-Invetio in E flat major BWV 776
DR14 -7.82 дБ -25.29 дБ 2:32 06-Invetio in E major BWV 777
DR13 -6.85 дБ -23.87 дБ 1:52 07-Invetio in E minor BWV 778
DR11 -2.00 дБ -16.86 дБ 0:56 08-Invetio in F major BWV 779
DR13 -7.21 дБ -22.75 дБ 1:51 09-Invetio in F minor BWV 780
DR12 -5.99 дБ -22.16 дБ 1:10 10-Invetio in G major BWV 781
DR13 -2.99 дБ -20.05 дБ 1:01 11-Invetio in G minor BWV 782
DR11 -3.01 дБ -17.20 дБ 1:19 12-Invetio in A major BWV 783
DR12 -3.97 дБ -18.31 дБ 1:05 13-Invetio in A minor BWV 784
DR14 -7.05 дБ -23.64 дБ 2:01 14-Invetio in B flat major BWV 785
DR14 -4.11 дБ -20.92 дБ 1:15 15-Invetio in B minor BWV 786
DR12 -5.17 дБ -21.26 дБ 1:07 16-Sinfonia in C major BWV 787
DR13 -5.23 дБ -22.35 дБ 1:38 17-Sinfonia in C minor BWV 788
DR12 -5.10 дБ -20.53 дБ 1:16 18-Sinfonia in D major BWV 789
DR15 -7.88 дБ -26.01 дБ 2:07 19-Sinfonia in D minor BWV 790
DR14 -6.01 дБ -23.64 дБ 2:31 20-Sinfonia in E flat major BWV 791
DR13 -7.45 дБ -23.82 дБ 1:37 21-Sinfonia in E major BWV 792
DR13 -4.74 дБ -23.05 дБ 2:23 22-Sinfonia in E minor BWV 793
DR13 -5.39 дБ -21.17 дБ 1:14 23-Sinfonia in F major BWV 794
DR15 -7.03 дБ -24.91 дБ 3:16 24-Sinfonia in F minor BWV 795
DR12 -4.38 дБ -18.94 дБ 0:54 25-Sinfonia in G major BWV 796
DR15 -7.44 дБ -27.23 дБ 1:58 26-Sinfonia in G minor BWV 797
DR12 -6.01 дБ -21.13 дБ 1:36 27-Sinfonia in A major BWV 798
DR13 -4.37 дБ -19.73 дБ 1:12 28-Sinfonia in A minor BWV 799
DR13 -6.88 дБ -23.64 дБ 1:40 29-Sinfonia in B flat major BWV 800
DR11 -1.58 дБ -17.47 дБ 1:28 30-Sinfonia in B minor BWV 801
––––––––––––––––––––––––––––––––––––––––

Количество треков: 30
Реальные значения DR: DR13

Частота: 44100 Гц
Каналов: 2
Разрядность: 16
Битрейт: 808 кбит/с
Кодек: FLAC
================================================================================

––––––––––––––––––––––––––––––––––––––––
Статистика для: ?-CD03 - Bach Inventionen & Sinfonien, BWV 772-801
Количество сэмплов: 126439404
Продолжительность: 47:47
––––––––––––––––––––––––––––––––––––––––

Левый Правый

Пики: -2.16 дБ –- -1.58 дБ
Средний RMS: -21.18 дБ –- -21.14 дБ
DR канала: 14.98 дБ –- 15.68 дБ
––––––––––––––––––––––––––––––––––––––––

Реальные значения DR: DR15

Частота: 44100 Гц
Каналов: 2
Разрядность: 16
Битрейт: 808 кбит/с
Кодек: FLAC
================================================================================

Archiv Produktion - Analogue Recordings 1959 - 1981: Box Set 50CDs (2016) Part1

CDs 4-5 Pierre Fournier - J. S. Bach: Bach: 6 Cello Suites
Classical | FLAC (tracks)+Cue+Log | 305 Mb
Label: Decca (UMO) Classics | Release Year: 2016

Tracklist:

1. 1. Prélude - Pierre Fournier
2. 2. Allemande - Pierre Fournier
3. 3. Courante - Pierre Fournier
4. 4. Sarabande - Pierre Fournier
5. 5. Menuet I-II - Pierre Fournier
6. 6. Gigue - Pierre Fournier
7. 1. Prélude - Pierre Fournier
8. 2. Allemande - Pierre Fournier
9. 3. Courante - Pierre Fournier
10. 4. Sarabande - Pierre Fournier
11. 5. Menuet I-II - Pierre Fournier
12. 6. Gigue - Pierre Fournier
13. 1. Prélude - Pierre Fournier
14. 2. Allemande - Pierre Fournier
15. 3. Courante - Pierre Fournier
16. 4. Sarabande - Pierre Fournier
17. 5. Bourrée I-II - Pierre Fournier
18. 6. Gigue - Pierre Fournier

Exact Audio Copy V1.1 from 23. June 2015

EAC extraction logfile from 18. November 2016, 10:44

Fournier, Pierre / Cello Suites

Used drive : HL-DT-STBD-RE WH16NS40 Adapter: 1 ID: 0

Read mode : Secure
Utilize accurate stream : Yes
Defeat audio cache : Yes
Make use of C2 pointers : No

Read offset correction : 6
Overread into Lead-In and Lead-Out : No
Fill up missing offset samples with silence : Yes
Delete leading and trailing silent blocks : No
Null samples used in CRC calculations : Yes
Used interface : Native Win32 interface for Win NT & 2000

Used output format : Internal WAV Routines
Sample format : 44.100 Hz; 16 Bit; Stereo


TOC of the extracted CD

Track | Start | Length | Start sector | End sector
––––––––––––––––––––––––––––-
1 | 0:00.33 | 2:50.00 | 33 | 12782
2 | 2:50.33 | 4:18.00 | 12783 | 32132
3 | 7:08.33 | 2:45.00 | 32133 | 44507
4 | 9:53.33 | 3:21.00 | 44508 | 59582
5 | 13:14.33 | 3:28.00 | 59583 | 75182
6 | 16:42.33 | 2:09.00 | 75183 | 84857
7 | 18:51.33 | 3:26.00 | 84858 | 100307
8 | 22:17.33 | 3:26.00 | 100308 | 115757
9 | 25:43.33 | 2:06.00 | 115758 | 125207
10 | 27:49.33 | 4:18.00 | 125208 | 144557
11 | 32:07.33 | 3:17.00 | 144558 | 159332
12 | 35:24.33 | 2:37.00 | 159333 | 171107
13 | 38:01.33 | 3:43.00 | 171108 | 187832
14 | 41:44.33 | 3:59.00 | 187833 | 205757
15 | 45:43.33 | 3:11.00 | 205758 | 220082
16 | 48:54.33 | 5:00.00 | 220083 | 242582
17 | 53:54.33 | 3:55.00 | 242583 | 260207
18 | 57:49.33 | 3:16.00 | 260208 | 274907


Range status and errors

Selected range

Filename C:\[Temp]\CD04\Fournier, Pierre - Cello Suites.wav

Peak level 98.6 %
Extraction speed 5.6 X
Range quality 100.0 %
Copy CRC 39E8F036
Copy OK

No errors occurred


AccurateRip summary

Track 1 accurately ripped (confidence 193) [5408D6B7] (AR v2)
Track 2 accurately ripped (confidence 192) [F2144E4D] (AR v2)
Track 3 accurately ripped (confidence 191) [00C30D00] (AR v2)
Track 4 accurately ripped (confidence 193) [E7B45C3F] (AR v2)
Track 5 accurately ripped (confidence 193) [13A6D0B7] (AR v2)
Track 6 accurately ripped (confidence 193) [B22D5498] (AR v2)
Track 7 accurately ripped (confidence 192) [6060A4CD] (AR v2)
Track 8 accurately ripped (confidence 192) [8FB3A226] (AR v2)
Track 9 accurately ripped (confidence 191) [50BAB2A9] (AR v2)
Track 10 accurately ripped (confidence 192) [7725656E] (AR v2)
Track 11 accurately ripped (confidence 190) [E8B9EB1D] (AR v2)
Track 12 accurately ripped (confidence 190) [7C679805] (AR v2)
Track 13 accurately ripped (confidence 192) [A12BED04] (AR v2)
Track 14 accurately ripped (confidence 192) [CCFBE866] (AR v2)
Track 15 accurately ripped (confidence 192) [D381F9BB] (AR v2)
Track 16 accurately ripped (confidence 192) [27D08B69] (AR v2)
Track 17 accurately ripped (confidence 192) [C22F12DA] (AR v2)
Track 18 accurately ripped (confidence 192) [9B1F9B94] (AR v2)

All tracks accurately ripped

End of status report

–– CUETools DB Plugin V2.1.6

[CTDB TOCID: 07LimMSQGT.gsBQZwhaPJPoGWnM-] found
Submit result: 07LimMSQGT.gsBQZwhaPJPoGWnM- has been confirmed
Track | CTDB Status
1 | (211/213) Accurately ripped
2 | (210/213) Accurately ripped
3 | (211/213) Accurately ripped
4 | (211/213) Accurately ripped
5 | (211/213) Accurately ripped
6 | (212/213) Accurately ripped
7 | (211/213) Accurately ripped
8 | (212/213) Accurately ripped
9 | (210/213) Accurately ripped
10 | (212/213) Accurately ripped
11 | (212/213) Accurately ripped
12 | (212/213) Accurately ripped
13 | (212/213) Accurately ripped
14 | (212/213) Accurately ripped
15 | (211/213) Accurately ripped
16 | (211/213) Accurately ripped
17 | (211/213) Accurately ripped
18 | (212/213) Accurately ripped

foobar2000 1.3.13 / Замер динамического диапазона (DR) 1.1.1
Дата отчёта: 2016-12-04 17:29:24

––––––––––––––––––––––––––––––––––––––––
Анализ: Fournier, Pierre / CD04 - Bach Cello Suites (1)
––––––––––––––––––––––––––––––––––––––––

DR Пики RMS Продолжительность трека
––––––––––––––––––––––––––––––––––––––––
DR11 -2.33 дБ -17.45 дБ 2:50 01-Suite no. 1 in G major BWV 1007 - I. Prelude
DR11 -2.64 дБ -16.46 дБ 4:18 02-Suite no. 1 in G major BWV 1007 - II. Allemande
DR12 -3.45 дБ -18.07 дБ 2:45 03-Suite no. 1 in G major BWV 1007 - III. Courante
DR13 -4.59 дБ -21.15 дБ 3:21 04-Suite no. 1 in G major BWV 1007 - IV. Sarabande
DR11 -2.26 дБ -17.23 дБ 3:28 05-Suite no. 1 in G major BWV 1007 - V. Menuet I & II
DR11 -3.32 дБ -18.05 дБ 2:09 06-Suite no. 1 in G major BWV 1007 - VI. Gigue
DR11 -2.21 дБ -16.67 дБ 3:26 07-Suite no. 2 in D minor BWV 1008 - I. Prelude
DR10 -3.23 дБ -16.02 дБ 3:26 08-Suite no. 2 in D minor BWV 1008 - II. Allemande
DR11 -3.78 дБ -18.13 дБ 2:06 09-Suite no. 2 in D minor BWV 1008 - III. Courante
DR12 -2.86 дБ -20.16 дБ 4:18 10-Suite no. 2 in D minor BWV 1008 - VI. Sarabande
DR12 -0.12 дБ -16.21 дБ 3:17 11-Suite no. 2 in D minor BWV 1008 - V. Menuet I & II
DR11 -2.35 дБ -16.21 дБ 2:37 12-Suite no. 2 in D minor BWV 1008 - VI. Gigue
DR11 -2.69 дБ -16.86 дБ 3:43 13-Suite no. 3 in C major BWV 1009 - I. Prelude
DR12 -1.26 дБ -16.06 дБ 3:59 14-Suite no. 3 in C major BWV 1009 - II. Allemande
DR11 -1.00 дБ -15.90 дБ 3:11 15-Suite no. 3 in C major BWV 1009 - III. Courante
DR12 -1.53 дБ -18.08 дБ 5:00 16-Suite no. 3 in C major BWV 1009 - IV. Sarabande
DR11 -1.33 дБ -16.08 дБ 3:55 17-Suite no. 3 in C major BWV 1009 - V. Bourree I & II
DR11 -0.48 дБ -15.25 дБ 3:16 18-Suite no. 3 in C major BWV 1009 - VI. Gigue
––––––––––––––––––––––––––––––––––––––––

Количество треков: 18
Реальные значения DR: DR11

Частота: 44100 Гц
Каналов: 2
Разрядность: 16
Битрейт: 672 кбит/с
Кодек: FLAC
================================================================================

––––––––––––––––––––––––––––––––––––––––
Статистика для: ?-CD04 - Bach Cello Suites (1)
Количество сэмплов: 161645904
Продолжительность: 1:01:05
––––––––––––––––––––––––––––––––––––––––

Левый Правый

Пики: -1.33 дБ –- -0.12 дБ
Средний RMS: -16.86 дБ –- -17.08 дБ
DR канала: 12.20 дБ –- 13.54 дБ
––––––––––––––––––––––––––––––––––––––––

Реальные значения DR: DR13

Частота: 44100 Гц
Каналов: 2
Разрядность: 16
Битрейт: 672 кбит/с
Кодек: FLAC
================================================================================

Archiv Produktion - Analogue Recordings 1959 - 1981: Box Set 50CDs (2016) Part1

CDs 4-5 Pierre Fournier - J. S. Bach: Bach: 6 Cello Suites
Classical | FLAC (tracks)+Cue+Log | 385 Mb
Label: Decca (UMO) Classics | Release Year: 2016

Tracklist:

1. 1. Prélude - Pierre Fournier
2. 2. Allemande - Pierre Fournier
3. 3. Courante - Pierre Fournier
4. 4. Sarabande - Pierre Fournier
5. 5. Bourrée I-II - Pierre Fournier
6. 6. Gigue - Pierre Fournier
7. 1. Prélude - Pierre Fournier
8. 2. Allemande - Pierre Fournier
9. 3. Courante - Pierre Fournier
10. 4. Sarabande - Pierre Fournier
11. 5. Gavotte I-II - Pierre Fournier
12. 6. Gigue - Pierre Fournier
13. 1. Prélude - Pierre Fournier
14. 2. Allemande - Pierre Fournier
15. 3. Courante - Pierre Fournier
16. 4. Sarabande - Pierre Fournier
17. 5. Gavotte I-II - Pierre Fournier
18. 6. Gigue - Pierre Fournier

Exact Audio Copy V1.1 from 23. June 2015

EAC extraction logfile from 18. November 2016, 10:58

Fournier, Pierre / Cello Suites CD2

Used drive : HL-DT-STBD-RE WH16NS40 Adapter: 1 ID: 0

Read mode : Secure
Utilize accurate stream : Yes
Defeat audio cache : Yes
Make use of C2 pointers : No

Read offset correction : 6
Overread into Lead-In and Lead-Out : No
Fill up missing offset samples with silence : Yes
Delete leading and trailing silent blocks : No
Null samples used in CRC calculations : Yes
Used interface : Native Win32 interface for Win NT & 2000

Used output format : Internal WAV Routines
Sample format : 44.100 Hz; 16 Bit; Stereo


TOC of the extracted CD

Track | Start | Length | Start sector | End sector
––––––––––––––––––––––––––––-
1 | 0:00.00 | 4:16.00 | 0 | 19199
2 | 4:16.00 | 4:32.00 | 19200 | 39599
3 | 8:48.00 | 3:46.00 | 39600 | 56549
4 | 12:34.00 | 5:07.00 | 56550 | 79574
5 | 17:41.00 | 5:06.00 | 79575 | 102524
6 | 22:47.00 | 2:48.00 | 102525 | 115124
7 | 25:35.00 | 7:01.00 | 115125 | 146699
8 | 32:36.00 | 4:35.00 | 146700 | 167324
9 | 37:11.00 | 2:06.00 | 167325 | 176774
10 | 39:17.00 | 3:29.00 | 176775 | 192449
11 | 42:46.00 | 5:05.00 | 192450 | 215324
12 | 47:51.00 | 2:43.00 | 215325 | 227549
13 | 50:34.00 | 5:01.00 | 227550 | 250124
14 | 55:35.00 | 5:43.00 | 250125 | 275849
15 | 61:18.00 | 3:49.00 | 275850 | 293024
16 | 65:07.00 | 3:47.00 | 293025 | 310049
17 | 68:54.00 | 4:38.00 | 310050 | 330899
18 | 73:32.00 | 4:05.00 | 330900 | 349274


Range status and errors

Selected range

Filename C:\[Temp]\CD05\Fournier, Pierre - Cello Suites CD2.wav

Peak level 93.8 %
Extraction speed 7.7 X
Range quality 100.0 %
Copy CRC E64EC3A5
Copy OK

No errors occurred


AccurateRip summary

Track 1 accurately ripped (confidence 184) [E3BC5AE6] (AR v2)
Track 2 accurately ripped (confidence 184) [E8300906] (AR v2)
Track 3 accurately ripped (confidence 184) [B541516E] (AR v2)
Track 4 accurately ripped (confidence 184) [44F95820] (AR v2)
Track 5 accurately ripped (confidence 181) [3B970E7C] (AR v2)
Track 6 accurately ripped (confidence 183) [685E94FA] (AR v2)
Track 7 accurately ripped (confidence 182) [5767B487] (AR v2)
Track 8 accurately ripped (confidence 183) [56A5CA05] (AR v2)
Track 9 accurately ripped (confidence 184) [9D7D8B0C] (AR v2)
Track 10 accurately ripped (confidence 183) [865FF5CD] (AR v2)
Track 11 accurately ripped (confidence 183) [01D25183] (AR v2)
Track 12 accurately ripped (confidence 183) [64293951] (AR v2)
Track 13 accurately ripped (confidence 182) [ECD7CB76] (AR v2)
Track 14 accurately ripped (confidence 183) [21E19968] (AR v2)
Track 15 accurately ripped (confidence 182) [1751C356] (AR v2)
Track 16 accurately ripped (confidence 180) [1FD0DD81] (AR v2)
Track 17 accurately ripped (confidence 179) [55642C98] (AR v2)
Track 18 accurately ripped (confidence 180) [7B59EE3E] (AR v2)

All tracks accurately ripped

End of status report

–– CUETools DB Plugin V2.1.6

[CTDB TOCID: 4f4jF1DyRwNj2etCLwHEs67Vy4g-] found
Submit result: 4f4jF1DyRwNj2etCLwHEs67Vy4g- has been confirmed
Track | CTDB Status
1 | (315/446) Accurately ripped
2 | (316/446) Accurately ripped
3 | (315/446) Accurately ripped
4 | (445/446) Accurately ripped
5 | (444/446) Accurately ripped
6 | (444/446) Accurately ripped
7 | (441/446) Accurately ripped
8 | (441/446) Accurately ripped
9 | (443/446) Accurately ripped
10 | (440/446) Accurately ripped
11 | (441/446) Accurately ripped
12 | (444/446) Accurately ripped
13 | (436/446) Accurately ripped
14 | (441/446) Accurately ripped
15 | (322/446) Accurately ripped
16 | (435/446) Accurately ripped
17 | (433/446) Accurately ripped
18 | (425/446) Accurately ripped


foobar2000 1.3.13 / Замер динамического диапазона (DR) 1.1.1
Дата отчёта: 2016-12-04 17:30:51

––––––––––––––––––––––––––––––––––––––––
Анализ: Fournier, Pierre / CD05 - Bach Cello Suites (2)
––––––––––––––––––––––––––––––––––––––––

DR Пики RMS Продолжительность трека
––––––––––––––––––––––––––––––––––––––––
DR11 -2.08 дБ -16.87 дБ 4:16 01-BWV1010 Suite fur Violoncello solo Nr 4 Es-dur 1 Praeludium
DR12 -2.75 дБ -17.71 дБ 4:32 02-BWV1010 Suite fur Violoncello solo Nr 4 Es-dur 2 Allemande
DR12 -1.36 дБ -16.84 дБ 3:46 03-BWV1010 Suite fur Violoncello solo Nr 4 Es-dur 3 Courante
DR13 -2.13 дБ -19.30 дБ 5:07 04-BWV1010 Suite fur Violoncello solo Nr 4 Es-dur 4 Sarabande
DR13 -1.18 дБ -17.80 дБ 5:06 05-BWV1010 Suite fur Violoncello solo Nr 4 Es-dur 5 Bouree 1 & 2
DR12 -3.10 дБ -19.73 дБ 2:48 06-BWV1010 Suite fur Violoncello solo Nr 4 Es-dur 6 Gigue
DR11 -2.10 дБ -16.68 дБ 7:01 07-BWV1011 Suite fur Violoncello solo Nr 5 c-moll 1 Prelude
DR11 -2.53 дБ -17.46 дБ 4:35 08-BWV1011 Suite fur Violoncello solo Nr 5 c-moll 2 Allemande
DR11 -2.65 дБ -17.12 дБ 2:06 09-BWV1011 Suite fur Violoncello solo Nr 5 c-moll 3 Courante
DR11 -6.47 дБ -22.45 дБ 3:29 10-BWV1011 Suite fur Violoncello solo Nr 5 c-moll 4 Sarabande
DR12 -1.01 дБ -16.53 дБ 5:05 11-BWV1011 Suite fur Violoncello solo Nr 5 c-moll 5 Gavottes 1 & 2
DR11 -4.64 дБ -18.38 дБ 2:43 12-BWV1011 Suite fur Violoncello solo Nr 5 c-moll 6 Gigue
DR11 -0.69 дБ -16.00 дБ 5:01 13-BWV1012 Suite fur Violoncello solo Nr 6 D-dur 1 Prelude
DR12 -2.63 дБ -17.78 дБ 5:43 14-BWV1012 Suite fur Violoncello solo Nr 6 D-dur 2 Allemande
DR12 -3.29 дБ -18.56 дБ 3:49 15-BWV1012 Suite fur Violoncello solo Nr 6 D-dur 3 Courante
DR11 -3.71 дБ -17.98 дБ 3:47 16-BWV1012 Suite fur Violoncello solo Nr 6 D-dur 4 Sarabande
DR11 -0.55 дБ -15.29 дБ 4:38 17-BWV1012 Suite fur Violoncello solo Nr 6 D-dur 5 Gavottes 1 & 2
DR12 -1.76 дБ -17.04 дБ 4:05 18-BWV1012 Suite fur Violoncello solo Nr 6 D-dur 6 Gigue
––––––––––––––––––––––––––––––––––––––––

Количество треков: 18
Реальные значения DR: DR12

Частота: 44100 Гц
Каналов: 2
Разрядность: 16
Битрейт: 670 кбит/с
Кодек: FLAC
================================================================================

––––––––––––––––––––––––––––––––––––––––
Статистика для: ?-CD05 - Bach Cello Suites (2)
Количество сэмплов: 205373700
Продолжительность: 1:17:37
––––––––––––––––––––––––––––––––––––––––

Левый Правый

Пики: -0.69 дБ –- -0.55 дБ
Средний RMS: -16.73 дБ –- -18.12 дБ
DR канала: 12.58 дБ –- 13.68 дБ
––––––––––––––––––––––––––––––––––––––––

Реальные значения DR: DR13

Частота: 44100 Гц
Каналов: 2
Разрядность: 16
Битрейт: 670 кбит/с
Кодек: FLAC
================================================================================

Archiv Produktion - Analogue Recordings 1959 - 1981: Box Set 50CDs (2016) Part1

CDs 6-7 Karl Richter - J. S. Bach: Mass In B Minor Bwv 232
Classical | FLAC (tracks)+Cue+Log | 306 Mb
Label: Decca (UMO) Classics | Release Year: 2016

Tracklist:

1. Kyrie Eleison - Münchener Bach-Orchester, Karl Richter, Münchener Bach-Chor
2. Christe eleison - Maria Stader, Hertha Töpper, Münchener Bach-Orchester, Karl Richter
3. Kyrie eleison - Münchener Bach-Orchester, Karl Richter, Münchener Bach-Chor
4. Gloria in excelsis Deo - Münchener Bach-Orchester, Karl Richter, Münchener Bach-Chor
5. Et in terra pax - Münchener Bach-Orchester, Karl Richter, Münchener Bach-Chor
6. Laudamus te - Hertha Töpper, Münchener Bach-Orchester, Karl Richter
7. Gratias agimus tibi - Münchener Bach-Orchester, Karl Richter, Münchener Bach-Chor
8. Domine Deus - Maria Stader, Ernst Haefliger, Münchener Bach-Orchester, Karl Richter
9. Qui tollis peccata mundi - Münchener Bach-Orchester, Karl Richter, Münchener Bach-Chor
10. Qui sedes ad dexteram Patris - Hertha Töpper, Münchener Bach-Orchester, Karl Richter
11. Quoniam tu solus sanctus - Kieth Engen, Münchener Bach-Orchester, Karl Richter
12. Cum Sancto Spiritu - Münchener Bach-Orchester, Karl Richter, Münchener Bach-Chor

Exact Audio Copy V1.1 from 23. June 2015

EAC extraction logfile from 18. November 2016, 11:13

Bach / Mass in B Minor BWV 232

Used drive : HL-DT-STBD-RE WH16NS40 Adapter: 1 ID: 0

Read mode : Secure
Utilize accurate stream : Yes
Defeat audio cache : Yes
Make use of C2 pointers : No

Read offset correction : 6
Overread into Lead-In and Lead-Out : No
Fill up missing offset samples with silence : Yes
Delete leading and trailing silent blocks : No
Null samples used in CRC calculations : Yes
Used interface : Native Win32 interface for Win NT & 2000

Used output format : Internal WAV Routines
Sample format : 44.100 Hz; 16 Bit; Stereo


TOC of the extracted CD

Track | Start | Length | Start sector | End sector
––––––––––––––––––––––––––––-
1 | 0:00.33 | 12:16.02 | 33 | 55234
2 | 12:16.35 | 5:49.10 | 55235 | 81419
3 | 18:05.45 | 3:52.18 | 81420 | 98837
4 | 21:57.63 | 2:01.32 | 98838 | 107944
5 | 23:59.20 | 4:48.68 | 107945 | 129612
6 | 28:48.13 | 4:31.25 | 129613 | 149962
7 | 33:19.38 | 3:27.70 | 149963 | 165557
8 | 36:47.33 | 6:36.27 | 165558 | 195284
9 | 43:23.60 | 4:02.40 | 195285 | 213474
10 | 47:26.25 | 4:29.18 | 213475 | 233667
11 | 51:55.43 | 5:52.07 | 233668 | 260074
12 | 57:47.50 | 4:11.45 | 260075 | 278944


Range status and errors

Selected range

Filename C:\[Temp]\CD06\Bach - Mass in B Minor BWV 232.wav

Peak level 94.4 %
Extraction speed 5.6 X
Range quality 100.0 %
Copy CRC 3BF54AC3
Copy OK

No errors occurred


AccurateRip summary

Track 1 accurately ripped (confidence 95) [B19C1210] (AR v2)
Track 2 accurately ripped (confidence 95) [DC611E5F] (AR v2)
Track 3 accurately ripped (confidence 95) [19A62EE5] (AR v2)
Track 4 accurately ripped (confidence 94) [054A6869] (AR v2)
Track 5 accurately ripped (confidence 94) [A6FC55F6] (AR v2)
Track 6 accurately ripped (confidence 94) [361FC5D6] (AR v2)
Track 7 accurately ripped (confidence 94) [1D8C7EB2] (AR v2)
Track 8 accurately ripped (confidence 94) [71A9AB46] (AR v2)
Track 9 accurately ripped (confidence 94) [C3DB3516] (AR v2)
Track 10 accurately ripped (confidence 94) [05B2A93B] (AR v2)
Track 11 accurately ripped (confidence 94) [6CF4E5AF] (AR v2)
Track 12 accurately ripped (confidence 94) [D294514B] (AR v2)

All tracks accurately ripped

End of status report

–– CUETools DB Plugin V2.1.6

[CTDB TOCID: G4FMQS7dgsKQAMzUbZFLdUYthVQ-] found
Submit result: G4FMQS7dgsKQAMzUbZFLdUYthVQ- has been confirmed
Track | CTDB Status
1 | (117/119) Accurately ripped
2 | (108/119) Accurately ripped
3 | (111/119) Accurately ripped
4 | (119/119) Accurately ripped
5 | (118/119) Accurately ripped
6 | (119/119) Accurately ripped
7 | (118/119) Accurately ripped
8 | (118/119) Accurately ripped
9 | (118/119) Accurately ripped
10 | (118/119) Accurately ripped
11 | (119/119) Accurately ripped
12 | (117/119) Accurately ripped


foobar2000 1.3.13 / Замер динамического диапазона (DR) 1.1.1
Дата отчёта: 2016-12-04 17:32:26

––––––––––––––––––––––––––––––––––––––––
Анализ: Münchener Bach-Orchester, Karl Richter, Münchener Bach-Chor / CD06 - Mass in B Minor BWV 232 (1)
––––––––––––––––––––––––––––––––––––––––

DR Пики RMS Продолжительность трека
––––––––––––––––––––––––––––––––––––––––
DR10 -1.71 дБ -17.81 дБ 12:16 01-Kyrie eleison
DR10 -7.87 дБ -22.16 дБ 5:49 02-Christe eleison
DR10 -6.60 дБ -21.32 дБ 3:52 03-Kyrie eleison
DR9 -2.59 дБ -15.22 дБ 2:01 04-Gloria in excelsis deo
DR9 -3.11 дБ -16.74 дБ 4:49 05-Et in terra pax
DR11 -6.18 дБ -22.20 дБ 4:31 06-Laudamus te
DR9 -0.49 дБ -14.30 дБ 3:28 07-Gratias agimus
DR13 -7.34 дБ -24.86 дБ 6:36 08-Domine Deus
DR12 -6.46 дБ -24.62 дБ 4:03 09-Qui tollis
DR10 -9.05 дБ -24.31 дБ 4:29 10-Qui sedes
DR9 -8.21 дБ -20.53 дБ 5:52 11-Quoniam tu solus Sanctus
DR10 -2.14 дБ -16.43 дБ 4:12 12-Cum Sancto Spiritu
––––––––––––––––––––––––––––––––––––––––

Количество треков: 12
Реальные значения DR: DR10

Частота: 44100 Гц
Каналов: 2
Разрядность: 16
Битрейт: 664 кбит/с
Кодек: FLAC
================================================================================

––––––––––––––––––––––––––––––––––––––––
Статистика для: ?-CD06 - Mass in B Minor BWV 232 (1)
Количество сэмплов: 164019660
Продолжительность: 1:01:59
––––––––––––––––––––––––––––––––––––––––

Левый Правый

Пики: -0.49 дБ –- -1.99 дБ
Средний RMS: -18.40 дБ –- -19.56 дБ
DR канала: 12.06 дБ –- 12.41 дБ
––––––––––––––––––––––––––––––––––––––––

Реальные значения DR: DR12

Частота: 44100 Гц
Каналов: 2
Разрядность: 16
Битрейт: 664 кбит/с
Кодек: FLAC
================================================================================

Archiv Produktion - Analogue Recordings 1959 - 1981: Box Set 50CDs (2016) Part1

CDs 6-7 Karl Richter - J. S. Bach: Mass In B Minor Bwv 232
Classical | FLAC (tracks)+Cue+Log | 301 Mb
Label: Decca (UMO) Classics | Release Year: 2016

Tracklist:

1. Credo in unum Deum - Münchener Bach-Orchester, Karl Richter, Münchener Bach-Chor
2. Patrem omnipotentem - Münchener Bach-Orchester, Karl Richter, Münchener Bach-Chor
3. Et in unum Dominum - Maria Stader, Hertha Töpper, Münchener Bach-Orchester, Karl Richter
4. Et incarnatus est - Münchener Bach-Orchester, Karl Richter, Münchener Bach-Chor
5. Crucifixus - Münchener Bach-Orchester, Karl Richter, Münchener Bach-Chor
6. Et resurrexit - Münchener Bach-Orchester, Karl Richter, Münchener Bach-Chor
7. Et in Spiritum Sanctum - Dietrich Fischer-Dieskau, Münchener Bach-Orchester, Karl Richter
8. Confiteor unum baptisma - Münchener Bach-Orchester, Karl Richter, Münchener Bach-Chor
9. Et expecto resurrectionem - Karl Richter, Münchener Bach-Orchester, Münchener Bach-Chor
10. Sanctus - Münchener Bach-Orchester, Karl Richter, Münchener Bach-Chor
11. Osanna in excelsis - Karl Richter, Münchener Bach-Orchester, Münchener Bach-Chor
12. Benedictus - Ernst Haefliger, Münchener Bach-Orchester, Karl Richter
13. Osanna in excelsis - Münchener Bach-Orchester, Karl Richter, Münchener Bach-Chor
14. Agnus Dei - Hertha Töpper, Münchener Bach-Orchester, Karl Richter
15. Dona nobis pacem - Münchener Bach-Orchester, Karl Richter, Münchener Bach-Chor

Exact Audio Copy V1.1 from 23. June 2015

EAC extraction logfile from 18. November 2016, 11:26

Karl Richter / [Disk 18] Mass in B, BWV 232

Used drive : HL-DT-STBD-RE WH16NS40 Adapter: 1 ID: 0

Read mode : Secure
Utilize accurate stream : Yes
Defeat audio cache : Yes
Make use of C2 pointers : No

Read offset correction : 6
Overread into Lead-In and Lead-Out : No
Fill up missing offset samples with silence : Yes
Delete leading and trailing silent blocks : No
Null samples used in CRC calculations : Yes
Used interface : Native Win32 interface for Win NT & 2000

Used output format : Internal WAV Routines
Sample format : 44.100 Hz; 16 Bit; Stereo


TOC of the extracted CD

Track | Start | Length | Start sector | End sector
––––––––––––––––––––––––––––-
1 | 0:00.33 | 2:40.35 | 33 | 12067
2 | 2:40.68 | 2:08.42 | 12068 | 21709
3 | 4:49.35 | 5:25.50 | 21710 | 46134
4 | 10:15.10 | 3:41.23 | 46135 | 62732
5 | 13:56.33 | 3:04.50 | 62733 | 76582
6 | 17:01.08 | 4:28.00 | 76583 | 96682
7 | 21:29.08 | 5:38.07 | 96683 | 122039
8 | 27:07.15 | 5:05.53 | 122040 | 144967
9 | 32:12.68 | 2:14.12 | 144968 | 155029
10 | 34:27.05 | 5:47.28 | 155030 | 181082
11 | 40:14.33 | 2:55.02 | 181083 | 194209
12 | 43:09.35 | 4:55.55 | 194210 | 216389
13 | 48:05.15 | 2:55.38 | 216390 | 229552
14 | 51:00.53 | 6:36.10 | 229553 | 259262
15 | 57:36.63 | 3:24.47 | 259263 | 274609


Range status and errors

Selected range

Filename C:\[Temp]\CD07\Karl Richter - Mass in B, BWV 232 (CD2).wav

Peak level 99.6 %
Extraction speed 6.6 X
Range quality 100.0 %
Copy CRC 91BD5BD2
Copy OK

No errors occurred


AccurateRip summary

Track 1 accurately ripped (confidence 93) [DA665FA7] (AR v2)
Track 2 accurately ripped (confidence 93) [B8CD80B8] (AR v2)
Track 3 accurately ripped (confidence 93) [30351D7F] (AR v2)
Track 4 accurately ripped (confidence 93) [DB364B0B] (AR v2)
Track 5 accurately ripped (confidence 93) [4882A039] (AR v2)
Track 6 accurately ripped (confidence 93) [CE42D92C] (AR v2)
Track 7 accurately ripped (confidence 93) [BE9DE0E9] (AR v2)
Track 8 accurately ripped (confidence 92) [68D82B32] (AR v2)
Track 9 accurately ripped (confidence 93) [1C1633BD] (AR v2)
Track 10 accurately ripped (confidence 93) [25506C61] (AR v2)
Track 11 accurately ripped (confidence 91) [7764ECBB] (AR v2)
Track 12 accurately ripped (confidence 93) [2FFCAFDF] (AR v2)
Track 13 accurately ripped (confidence 93) [7227747C] (AR v2)
Track 14 accurately ripped (confidence 94) [AC188C07] (AR v2)
Track 15 accurately ripped (confidence 92) [4AEC08FB] (AR v2)

All tracks accurately ripped

End of status report

–– CUETools DB Plugin V2.1.6

[CTDB TOCID: CULEO0ILvlg6aHkq9OwSAHjxFZ8-] found
Submit result: CULEO0ILvlg6aHkq9OwSAHjxFZ8- has been confirmed
Track | CTDB Status
1 | (122/122) Accurately ripped
2 | (122/122) Accurately ripped
3 | (122/122) Accurately ripped
4 | (121/122) Accurately ripped
5 | (121/122) Accurately ripped
6 | (121/122) Accurately ripped
7 | (121/122) Accurately ripped
8 | (122/122) Accurately ripped
9 | (122/122) Accurately ripped
10 | (121/122) Accurately ripped
11 | (121/122) Accurately ripped
12 | (121/122) Accurately ripped
13 | (121/122) Accurately ripped
14 | (121/122) Accurately ripped
15 | (120/122) Accurately ripped

foobar2000 1.3.13 / Замер динамического диапазона (DR) 1.1.1
Дата отчёта: 2016-12-04 17:35:38

––––––––––––––––––––––––––––––––––––––––
Анализ: Münchener Bach-Orchester, Karl Richter, Münchener Bach-Chor / CD07 - Mass in B Minor, BWV 232 (2)
––––––––––––––––––––––––––––––––––––––––

DR Пики RMS Продолжительность трека
––––––––––––––––––––––––––––––––––––––––
DR9 -5.47 дБ -17.32 дБ 2:40 01-Chor: Credo in unum Deum
DR10 -3.89 дБ -16.15 дБ 2:09 02-Patrem omnipotentem
DR11 -6.67 дБ -22.27 дБ 5:26 03-Duett: Et in unum Dominum
DR11 -6.36 дБ -23.43 дБ 3:41 04-Chor: Et incarnatus est
DR11 -6.15 дБ -23.47 дБ 3:05 05-Chor: Crucifixus
DR11 -0.08 дБ -15.68 дБ 4:28 06-Chor: Et resurrexit
DR13 -5.90 дБ -23.52 дБ 5:38 07-Arie: Et in Spiritum Sanctum
DR11 -4.48 дБ -20.26 дБ 5:06 08-Chor: Confiteor unum baptisma
DR9 -2.98 дБ -14.62 дБ 2:14 09-Chor: Et exspecto resurrectionem
DR11 -0.03 дБ -15.00 дБ 5:47 10-Chor: Sanctur
DR10 -3.19 дБ -16.73 дБ 2:55 11-Chor: Osanna in excelsis
DR12 -10.74 дБ -26.89 дБ 4:56 12-Arie: Benedictus, qui venit
DR10 -3.72 дБ -16.99 дБ 2:56 13-Chor: Osanna in excelsis (2)
DR10 -9.28 дБ -24.73 дБ 6:36 14-Arie: Agnus Dei
DR9 -4.22 дБ -17.79 дБ 3:25 15-Chor: Dona nobis pacem
––––––––––––––––––––––––––––––––––––––––

Количество треков: 15
Реальные значения DR: DR11

Частота: 44100 Гц
Каналов: 2
Разрядность: 16
Битрейт: 665 кбит/с
Кодек: FLAC
================================================================================

––––––––––––––––––––––––––––––––––––––––
Статистика для: ?-CD07 - Mass in B Minor, BWV 232 (2)
Количество сэмплов: 161470680
Продолжительность: 1:01:01
––––––––––––––––––––––––––––––––––––––––

Левый Правый

Пики: -0.03 дБ –- -0.08 дБ
Средний RMS: -18.28 дБ –- -19.05 дБ
DR канала: 13.38 дБ –- 13.45 дБ
––––––––––––––––––––––––––––––––––––––––

Реальные значения DR: DR13

Частота: 44100 Гц
Каналов: 2
Разрядность: 16
Битрейт: 665 кбит/с
Кодек: FLAC
================================================================================

Archiv Produktion - Analogue Recordings 1959 - 1981: Box Set 50CDs (2016) Part1

CD 8 August Wenzinger - G. F. Handel: Music For The Royal Fireworks / Concertio A Due Cori
Classical | FLAC (tracks)+Cue+Log | 263 Mb
Label: Decca (UMO) Classics | Release Year: 2016

Tracklist:

1. 1. Ouverture - Archiv Production Wind Ensemble, August Wenzinger
2. 2. Bourrée - Archiv Production Wind Ensemble, August Wenzinger
3. 3. La paix - Archiv Production Wind Ensemble, August Wenzinger
4. 4. La réjouissance - Archiv Production Wind Ensemble, August Wenzinger
5. 5. Menuet I-II - Archiv Production Wind Ensemble, August Wenzinger
6. 1. Pomposo - Schola Cantorum Basiliensis, August Wenzinger
7. 2. Allegro - Schola Cantorum Basiliensis, August Wenzinger
8. 3. A tempo giusto - Schola Cantorum Basiliensis, August Wenzinger
9. 4. Largo - Schola Cantorum Basiliensis, August Wenzinger
10. 5. Allegro ma non troppo - Adagio - Schola Cantorum Basiliensis, August Wenzinger
11. 6. A tempo ordinario - Schola Cantorum Basiliensis, August Wenzinger
12. 1. Ouverture - Schola Cantorum Basiliensis, August Wenzinger
13. 2. Allegro - Allegro ma non troppo - Schola Cantorum Basiliensis, August Wenzinger
14. 2b. Allegro ma non troppo - Schola Cantorum Basiliensis, August Wenzinger
15. 3. Adagio - Schola Cantorum Basiliensis, August Wenzinger
16. 4. Andante larghetto - Schola Cantorum Basiliensis, August Wenzinger
17. 5. Allegro - Schola Cantorum Basiliensis, August Wenzinger

Exact Audio Copy V1.1 from 23. June 2015

EAC extraction logfile from 18. November 2016, 11:44

Konzertgruppe der Schola Cantorum Brasiliensis, August Wenzinger / AR208 Feuerwerkmusik, Concerti a due cori

Used drive : HL-DT-STBD-RE WH16NS40 Adapter: 1 ID: 0

Read mode : Secure
Utilize accurate stream : Yes
Defeat audio cache : Yes
Make use of C2 pointers : No

Read offset correction : 6
Overread into Lead-In and Lead-Out : No
Fill up missing offset samples with silence : Yes
Delete leading and trailing silent blocks : No
Null samples used in CRC calculations : Yes
Used interface : Native Win32 interface for Win NT & 2000

Used output format : Internal WAV Routines
Sample format : 44.100 Hz; 16 Bit; Stereo


TOC of the extracted CD

Track | Start | Length | Start sector | End sector
––––––––––––––––––––––––––––-
1 | 0:00.00 | 8:22.10 | 0 | 37659
2 | 8:22.10 | 1:23.43 | 37660 | 43927
3 | 9:45.53 | 3:46.70 | 43928 | 60947
4 | 13:32.48 | 1:58.58 | 60948 | 69855
5 | 15:31.31 | 2:48.43 | 69856 | 82498
6 | 18:19.74 | 1:52.44 | 82499 | 90942
7 | 20:12.43 | 2:06.23 | 90943 | 100415
8 | 22:18.66 | 2:55.56 | 100416 | 113596
9 | 25:14.47 | 2:34.35 | 113597 | 125181
10 | 27:49.07 | 4:01.29 | 125182 | 143285
11 | 31:50.36 | 4:07.51 | 143286 | 161861
12 | 35:58.12 | 2:03.14 | 161862 | 171100
13 | 38:01.26 | 3:17.44 | 171101 | 185919
14 | 41:18.70 | 3:29.05 | 185920 | 201599
15 | 44:48.00 | 1:24.26 | 201600 | 207925
16 | 46:12.26 | 3:55.64 | 207926 | 225614
17 | 50:08.15 | 2:10.02 | 225615 | 235366


Range status and errors

Selected range

Filename C:\[Temp]\CD08\Konzertgruppe der Schola Cantorum Brasiliensis, August Wenzinger - AR208 Feuerwerkmusik, Concerti a due cori.wav

Peak level 92.4 %
Extraction speed 5.4 X
Range quality 100.0 %
Copy CRC 638A6559
Copy OK

No errors occurred


AccurateRip summary

Track 1 accurately ripped (confidence 3) [E8BBBC3C] (AR v2)
Track 2 accurately ripped (confidence 3) [B059A46E] (AR v2)
Track 3 accurately ripped (confidence 3) [E9E91E99] (AR v2)
Track 4 accurately ripped (confidence 3) [08BC3649] (AR v2)
Track 5 accurately ripped (confidence 3) [7D97329C] (AR v2)
Track 6 accurately ripped (confidence 3) [E156A9FB] (AR v2)
Track 7 accurately ripped (confidence 3) [706A3EB1] (AR v2)
Track 8 accurately ripped (confidence 3) [AD2B235B] (AR v2)
Track 9 accurately ripped (confidence 3) [FFEB5383] (AR v2)
Track 10 accurately ripped (confidence 3) [C0D5A8C3] (AR v2)
Track 11 accurately ripped (confidence 3) [7F939B78] (AR v2)
Track 12 accurately ripped (confidence 3) [F803C933] (AR v2)
Track 13 accurately ripped (confidence 3) [4CE5F98A] (AR v2)
Track 14 accurately ripped (confidence 3) [A8495B0A] (AR v2)
Track 15 accurately ripped (confidence 3) [E5928FDF] (AR v2)
Track 16 accurately ripped (confidence 3) [79F69276] (AR v2)
Track 17 accurately ripped (confidence 3) [7186DDF5] (AR v2)

All tracks accurately ripped

End of status report

–– CUETools DB Plugin V2.1.6

[CTDB TOCID: cEyRe71WS0e0SXz7hzzODGK7wtc-] found
Submit result: cEyRe71WS0e0SXz7hzzODGK7wtc- has been confirmed
Track | CTDB Status
1 | (12/12) Accurately ripped
2 | (12/12) Accurately ripped
3 | (12/12) Accurately ripped
4 | (12/12) Accurately ripped
5 | (12/12) Accurately ripped
6 | (12/12) Accurately ripped
7 | (12/12) Accurately ripped
8 | (12/12) Accurately ripped
9 | (12/12) Accurately ripped
10 | (12/12) Accurately ripped
11 | (12/12) Accurately ripped
12 | (11/12) Accurately ripped
13 | (12/12) Accurately ripped
14 | (12/12) Accurately ripped
15 | (12/12) Accurately ripped
16 | (12/12) Accurately ripped
17 | (12/12) Accurately ripped

foobar2000 1.3.13 / Замер динамического диапазона (DR) 1.1.1
Дата отчёта: 2016-12-04 17:37:34

––––––––––––––––––––––––––––––––––––––––
Анализ: Archiv Production Wind Ensemble, August Wenzinger / CD08 - Handel (1-5)
Schola Cantorum Brasiliensis, August Wenzinger / CD08 - Handel (6-17)
––––––––––––––––––––––––––––––––––––––––

DR Пики RMS Продолжительность трека
––––––––––––––––––––––––––––––––––––––––
DR12 -0.68 дБ -16.04 дБ 8:22 01-Music for the Royal Firworks: 1. Ouverture
DR12 -10.31 дБ -26.57 дБ 1:24 02-Music for the Royal Firworks: 2. Bourree
DR12 -6.23 дБ -22.83 дБ 3:47 03-Music for the Royal Firworks: 3. La Paix
DR12 -3.11 дБ -18.05 дБ 1:59 04-Music for the Royal Firworks: 4. La Rejouissance
DR11 -2.39 дБ -17.61 дБ 2:49 05-Music for the Royal Firworks: 5. Menuet I - II
DR10 -1.07 дБ -15.04 дБ 1:53 06-Concerto a due cori No. 2 in F major: 1. Pomposo
DR10 -5.18 дБ -18.29 дБ 2:06 07-Concerto a due cori No. 2 in F major: 2. Allegro
DR11 -2.90 дБ -17.66 дБ 2:56 08-Concerto a due cori No. 2 in F major: 3. A tempo giusto
DR11 -5.57 дБ -20.55 дБ 2:34 09-Concerto a due cori No. 2 in F major: 4. Largo
DR10 -2.55 дБ -18.08 дБ 4:01 10-Concerto a due cori No. 2 in F major: 5. Allegro ma non troppo - Adagio
DR10 -3.97 дБ -19.62 дБ 4:08 11-Concerto a due cori No. 2 in F major: 6. A tempo ordinario
DR9 -3.51 дБ -14.62 дБ 2:03 12-Concerto a due cori No. 3 in F major: 1. Ouverture
DR10 -3.40 дБ -19.29 дБ 3:18 13-Concerto a due cori No. 3 in F major: 2. Allegro
DR11 -4.97 дБ -20.35 дБ 3:29 14-Concerto a due cori No. 3 in F major: Allegro ma non troppo
DR10 -5.70 дБ -19.84 дБ 1:24 15-Concerto a due cori No. 3 in F major: 3. Adagio
DR10 -4.72 дБ -19.17 дБ 3:56 16-Concerto a due cori No. 3 in F major: 4. Andante largetto
DR10 -3.44 дБ -18.22 дБ 2:10 17-Concerto a due cori No. 3 in F major: 5. Allegro
––––––––––––––––––––––––––––––––––––––––

Количество треков: 17
Реальные значения DR: DR11

Частота: 44100 Гц
Каналов: 2
Разрядность: 16
Битрейт: 677 кбит/с
Кодек: FLAC
================================================================================

––––––––––––––––––––––––––––––––––––––––
Статистика для: ?-CD08 - Handel
Количество сэмплов: 138395796
Продолжительность: 52:18
––––––––––––––––––––––––––––––––––––––––

Левый Правый

Пики: -1.07 дБ –- -0.68 дБ
Средний RMS: -18.32 дБ –- -17.73 дБ
DR канала: 12.65 дБ –- 12.91 дБ
––––––––––––––––––––––––––––––––––––––––

Реальные значения DR: DR13

Частота: 44100 Гц
Каналов: 2
Разрядность: 16
Битрейт: 677 кбит/с
Кодек: FLAC
================================================================================

Archiv Produktion - Analogue Recordings 1959 - 1981: Box Set 50CDs (2016) Part1

CD 9 Adolf Scherbaum - Trumpet Concertos: Leopold Mozart, Michael Haydn, J. C. Bach
Classical | FLAC (tracks)+Cue+Log | 386 Mb
Label: Decca (UMO) Classics | Release Year: 2016

Tracklist:

1. 1. Andante - Adolf Scherbaum, Chamber Orchestra of the Saarländischen Rundfunk, Karl Ristenpart
2. 2. Allegro moderato - Adolf Scherbaum, Chamber Orchestra of the Saarländischen Rundfunk, Karl Ristenpart
3. 1. Adagio - Adolf Scherbaum, Chamber Orchestra of the Saarländischen Rundfunk, Karl Ristenpart
4. 2. Allegro - Adolf Scherbaum, Chamber Orchestra of the Saarländischen Rundfunk, Karl Ristenpart
5. 1. Allegro - Fritz Henker, Chamber Orchestra of the Saarländischen Rundfunk, Karl Ristenpart
6. 2. Adagio - Fritz Henker, Chamber Orchestra of the Saarländischen Rundfunk, Karl Ristenpart
7. 3. Presto - Fritz Henker, Chamber Orchestra of the Saarländischen Rundfunk, Karl Ristenpart
8. 1. Adagio - Adolf Scherbaum, Bach Orchester Hamburg, Robert Stehli
9. 2. Allegro - Adolf Scherbaum, Bach Orchester Hamburg, Robert Stehli
10. 3. Grave - Adolf Scherbaum, Bach Orchester Hamburg, Robert Stehli
11. 4. Allegro - Adolf Scherbaum, Bach Orchester Hamburg, Robert Stehli
12. 1. Allegro - Kammermusikkreis Emil Seiler
13. 2. Largo - Kammermusikkreis Emil Seiler
14. 3. Allegro - Kammermusikkreis Emil Seiler
15. 1. Largo - Kammermusikkreis Emil Seiler
16. 2. Allegro - Kammermusikkreis Emil Seiler
17. 3. Largo - Kammermusikkreis Emil Seiler
18. 4. Presto - Kammermusikkreis Emil Seiler

Exact Audio Copy V1.1 from 23. June 2015

EAC extraction logfile from 18. November 2016, 12:18

Various / AR209 Mannheim und Wien

Used drive : HL-DT-STBD-RE WH16NS40 Adapter: 1 ID: 0

Read mode : Secure
Utilize accurate stream : Yes
Defeat audio cache : Yes
Make use of C2 pointers : No

Read offset correction : 6
Overread into Lead-In and Lead-Out : No
Fill up missing offset samples with silence : Yes
Delete leading and trailing silent blocks : No
Null samples used in CRC calculations : Yes
Used interface : Native Win32 interface for Win NT & 2000

Used output format : Internal WAV Routines
Sample format : 44.100 Hz; 16 Bit; Stereo


TOC of the extracted CD

Track | Start | Length | Start sector | End sector
––––––––––––––––––––––––––––-
1 | 0:00.00 | 8:40.56 | 0 | 39055
2 | 8:40.56 | 4:12.19 | 39056 | 57974
3 | 12:53.00 | 7:00.70 | 57975 | 89544
4 | 19:53.70 | 3:30.59 | 89545 | 105353
5 | 23:24.54 | 8:07.67 | 105354 | 141945
6 | 31:32.46 | 7:57.68 | 141946 | 177788
7 | 39:30.39 | 5:17.72 | 177789 | 201635
8 | 44:48.36 | 1:46.41 | 201636 | 209626
9 | 46:35.02 | 2:10.40 | 209627 | 219416
10 | 48:45.42 | 1:58.42 | 219417 | 228308
11 | 50:44.09 | 1:54.12 | 228309 | 236870
12 | 52:38.21 | 5:03.15 | 236871 | 259610
13 | 57:41.36 | 2:40.11 | 259611 | 271621
14 | 60:21.47 | 4:43.62 | 271622 | 292908
15 | 65:05.34 | 3:52.53 | 292909 | 310361
16 | 68:58.12 | 4:25.63 | 310362 | 330299
17 | 73:24.00 | 3:08.28 | 330300 | 344427
18 | 76:32.28 | 2:59.43 | 344428 | 357895


Range status and errors

Selected range

Filename C:\[Temp]\CD09\Various - AR209 Mannheim und Wien.wav

Peak level 91.6 %
Extraction speed 5.2 X
Range quality 100.0 %
Copy CRC AF8F377B
Copy OK

No errors occurred


AccurateRip summary

Track 1 accurately ripped (confidence 3) [1DC79A76] (AR v2)
Track 2 accurately ripped (confidence 3) [5FF48087] (AR v2)
Track 3 accurately ripped (confidence 3) [F3A621BB] (AR v2)
Track 4 accurately ripped (confidence 3) [08171A2F] (AR v2)
Track 5 accurately ripped (confidence 3) [A21675AE] (AR v2)
Track 6 accurately ripped (confidence 3) [ECC04485] (AR v2)
Track 7 accurately ripped (confidence 3) [D5E86437] (AR v2)
Track 8 accurately ripped (confidence 3) [D56F1AA5] (AR v2)
Track 9 accurately ripped (confidence 3) [D7CA49B3] (AR v2)
Track 10 accurately ripped (confidence 3) [298954DB] (AR v2)
Track 11 accurately ripped (confidence 3) [706C3562] (AR v2)
Track 12 accurately ripped (confidence 3) [C44A119A] (AR v2)
Track 13 accurately ripped (confidence 3) [0728AB89] (AR v2)
Track 14 accurately ripped (confidence 3) [60855CD0] (AR v2)
Track 15 accurately ripped (confidence 3) [0CD7379C] (AR v2)
Track 16 accurately ripped (confidence 3) [F9043252] (AR v2)
Track 17 accurately ripped (confidence 3) [6230CD20] (AR v2)
Track 18 accurately ripped (confidence 3) [8CD68B29] (AR v2)

All tracks accurately ripped

End of status report

–– CUETools DB Plugin V2.1.6

[CTDB TOCID: Kj80ncLXbxMtQyEJeAYhyLJVSg4-] found
Submit result: Kj80ncLXbxMtQyEJeAYhyLJVSg4- has been confirmed
Track | CTDB Status
1 | (12/12) Accurately ripped
2 | (11/12) Accurately ripped
3 | (12/12) Accurately ripped
4 | (12/12) Accurately ripped
5 | (12/12) Accurately ripped
6 | (11/12) Accurately ripped
7 | (12/12) Accurately ripped
8 | (12/12) Accurately ripped
9 | (12/12) Accurately ripped
10 | (12/12) Accurately ripped
11 | (12/12) Accurately ripped
12 | (12/12) Accurately ripped
13 | (12/12) Accurately ripped
14 | (12/12) Accurately ripped
15 | (12/12) Accurately ripped
16 | (12/12) Accurately ripped
17 | (12/12) Accurately ripped
18 | (12/12) Accurately ripped

foobar2000 1.3.13 / Замер динамического диапазона (DR) 1.1.1
Дата отчёта: 2016-12-04 17:39:51

––––––––––––––––––––––––––––––––––––––––
Анализ: Adolf Scherbaum, Bach Orchester Hamburg, Robert Stehli / CD09 - Mozart, L., Haydn, M., Bach, J.C.,Telemann - Trumpet Concertos
––––––––––––––––––––––––––––––––––––––––

DR Пики RMS Продолжительность трека
––––––––––––––––––––––––––––––––––––––––
DR9 -3.33 дБ -14.90 дБ 1:47 08-Telemann Trumpet Concerto in D major: 1. Adagio
DR12 -2.98 дБ -17.59 дБ 2:11 09-Telemann Trumpet Concerto in D major: 2. Allegro
DR11 -7.82 дБ -23.04 дБ 1:59 10-Telemann Trumpet Concerto in D major: 3. Grave
DR11 -1.93 дБ -16.28 дБ 1:54 11-Telemann Trumpet Concerto in D major: 4. Allegro
––––––––––––––––––––––––––––––––––––––––

Количество треков: 4
Реальные значения DR: DR11

Частота: 44100 Гц
Каналов: 2
Разрядность: 16
Битрейт: 656 кбит/с
Кодек: FLAC
================================================================================

––––––––––––––––––––––––––––––––––––––––
Анализ: Adolf Scherbaum, Kammerorchester des Saarlandischen Rundfunks, Karl Ristenpart / CD09 - Mozart, L., Haydn, M., Bach, J.C.,Telemann - Trumpet Concertos (1-4)
Fritz Henker, Kammerorchester des Saarlandischen Rundfunks, Karl Ristenpart / CD09 - Mozart, L., Haydn, M., Bach, J.C.,Telemann - Trumpet Concertos (5-7)
Kammermusikkreis Emil Seiler / CD09 - Mozart, L., Haydn, M., Bach, J.C.,Telemann - Trumpet Concertos (8-14)
––––––––––––––––––––––––––––––––––––––––

DR Пики RMS Продолжительность трека
––––––––––––––––––––––––––––––––––––––––
DR11 -2.41 дБ -17.14 дБ 8:41 01-Leopold Mozart Trumpet Concerto in D major: 1. [Adagio]
DR10 -1.88 дБ -15.46 дБ 4:12 02-Leopold Mozart Trumpet Concerto in D major: 2. Allegro moderato
DR11 -1.22 дБ -17.15 дБ 7:01 03-Michael Haydn Trumpet Concerto in D major: 1. Adagio
DR11 -1.52 дБ -17.00 дБ 3:31 04-Michael Haydn Trumpet Concerto in D major: 2. Allegro
DR12 -2.97 дБ -18.21 дБ 8:08 05-Johann Christian Bach Bassoon Concerto in B flat major: 1. Allegro
DR11 -3.91 дБ -19.20 дБ 7:58 06-Johann Christian Bach Bassoon Concerto in B flat major: 2. Adagio
DR12 -1.73 дБ -18.75 дБ 5:18 07-Johann Christian Bach Bassoon Concerto in B flat major: 3. Presto
DR13 -0.76 дБ -17.82 дБ 5:03 12-Telemann Concerto for 3 Oboes & 3 Violins in B flat major: 1. Allegro
DR12 -4.93 дБ -20.05 дБ 2:40 13-Telemann Concerto for 3 Oboes & 3 Violins in B flat major: 2. Largo
DR12 -2.52 дБ -18.24 дБ 4:44 14-Telemann Concerto for 3 Oboes & 3 Violins in B flat major: 3. Allegro
DR10 -3.62 дБ -18.06 дБ 3:53 15-Telemann Concerto Recorder, Flute & Strings in E minor: 1. Largo
DR12 -1.90 дБ -18.23 дБ 4:26 16-Telemann Concerto Recorder, Flute & Strings in E minor: 2. Allegro
DR11 -6.70 дБ -20.89 дБ 3:08 17-Telemann Concerto Recorder, Flute & Strings in E minor: 3. largo
DR12 -1.30 дБ -17.29 дБ 3:00 18-Telemann Concerto Recorder, Flute & Strings in E minor: 4. Presto
––––––––––––––––––––––––––––––––––––––––

Количество треков: 14
Реальные значения DR: DR12

Частота: 44100 Гц
Каналов: 2
Разрядность: 16
Битрейт: 656 кбит/с
Кодек: FLAC
================================================================================

––––––––––––––––––––––––––––––––––––––––
Статистика для: ?-CD09 - Mozart, L., Haydn, M., Bach, J.C.,Telemann - Trumpet Concertos
Количество сэмплов: 210442848
Продолжительность: 1:19:32
––––––––––––––––––––––––––––––––––––––––

Левый Правый

Пики: -1.09 дБ –- -0.76 дБ
Средний RMS: -17.53 дБ –- -18.02 дБ
DR канала: 12.88 дБ –- 13.31 дБ
––––––––––––––––––––––––––––––––––––––––

Реальные значения DR: DR13

Частота: 44100 Гц
Каналов: 2
Разрядность: 16
Битрейт: 656 кбит/с
Кодек: FLAC
================================================================================

Archiv Produktion - Analogue Recordings 1959 - 1981: Box Set 50CDs (2016) Part1

CD 10 Marcel Couraud - Jean-Philippe Rameau: Pigmalion
Classical | FLAC (tracks)+Cue+Log | 234 Mb
Label: Decca (UMO) Classics | Release Year: 2016

Tracklist:

1. Ouverture - Orchestre de Chambre des Concerts Lamoureux, Marcel Courand
2. Scène 1: Fatal, Amour! Cruel vainqueur! - Eric Marion, Orchestre de Chambre des Concerts Lamoureux, Marcel Courand, Choeur Raymond Saint-Paul
3. Scène 2: Pigmalion, est-il possible - Andree Esposito, Orchestre de Chambre des Concerts Lamoureux, Marcel Courand, Choeur Raymond Saint-Paul
4. Scène 3: Que d'appas! Que de'attraits! Sa grace enchantresse - Eric Marion, Orchestre de Chambre des Concerts Lamoureux, Marcel Courand, Choeur Raymond Saint-Paul
5. Scène 4: Que vois-je? Ou suis-je? Et par qu'elle puissance - Edith Selig, Orchestre de Chambre des Concerts Lamoureux, Marcel Courand, Choeur Raymond Saint-Paul
6. Scène 5: Du pouvoir de l'Amour ce prodige est l'effet - Claudine Collart, Orchestre de Chambre des Concerts Lamoureux, Marcel Courand, Choeur Raymond Saint-Paul
7. Scène dernière: L'Amour triomphe, annoncons sa victoire - Eric Marion, Orchestre de Chambre des Concerts Lamoureux, Marcel Courand, Choeur Raymond Saint-Paul
8. 1. Tempête - Andree Esposito, Orchestre de Chambre des Concerts Lamoureux, Marcel Courand
9. 2. Air pour les Esclaves Africains - Andree Esposito, Orchestre de Chambre des Concerts Lamoureux, Marcel Courand
10. 3. Rigaudon I/II - Andree Esposito, Orchestre de Chambre des Concerts Lamoureux, Marcel Courand
11. 4. Tambourin I/II - Andree Esposito, Orchestre de Chambre des Concerts Lamoureux, Marcel Courand

Exact Audio Copy V1.1 from 23. June 2015

EAC extraction logfile from 18. November 2016, 12:41

Various Artists / Archiv Produktion: Analogue Recordings, 1959-1981 (Disc 10)

Used drive : HL-DT-STBD-RE WH16NS40 Adapter: 1 ID: 0

Read mode : Secure
Utilize accurate stream : Yes
Defeat audio cache : Yes
Make use of C2 pointers : No

Read offset correction : 6
Overread into Lead-In and Lead-Out : No
Fill up missing offset samples with silence : Yes
Delete leading and trailing silent blocks : No
Null samples used in CRC calculations : Yes
Used interface : Native Win32 interface for Win NT & 2000

Used output format : Internal WAV Routines
Sample format : 44.100 Hz; 16 Bit; Stereo


TOC of the extracted CD

Track | Start | Length | Start sector | End sector
––––––––––––––––––––––––––––-
1 | 0:00.00 | 3:59.54 | 0 | 17978
2 | 3:59.54 | 2:57.50 | 17979 | 31303
3 | 6:57.29 | 1:58.21 | 31304 | 40174
4 | 8:55.50 | 3:17.03 | 40175 | 54952
5 | 12:12.53 | 3:18.17 | 54953 | 69819
6 | 15:30.70 | 11:09.24 | 69820 | 120018
7 | 26:40.19 | 14:03.65 | 120019 | 183308
8 | 40:44.09 | 1:50.44 | 183309 | 191602
9 | 42:34.53 | 0:58.09 | 191603 | 195961
10 | 43:32.62 | 1:13.20 | 195962 | 201456
11 | 44:46.07 | 1:23.45 | 201457 | 207726


Range status and errors

Selected range

Filename C:\[Temp]\CD10\Various Artists - Archiv Produktion- Analogue Recordings, 1959-1981 (Disc 10).wav

Peak level 92.6 %
Extraction speed 6.0 X
Range quality 100.0 %
Copy CRC 8983FB0D
Copy OK

No errors occurred


AccurateRip summary

Track 1 accurately ripped (confidence 3) [8B12B225] (AR v2)
Track 2 accurately ripped (confidence 3) [73DBD751] (AR v2)
Track 3 accurately ripped (confidence 3) [84FE1BAE] (AR v2)
Track 4 accurately ripped (confidence 3) [C9919D62] (AR v2)
Track 5 accurately ripped (confidence 3) [4AB7B90B] (AR v2)
Track 6 accurately ripped (confidence 3) [22B9021F] (AR v2)
Track 7 accurately ripped (confidence 3) [75ADE4F9] (AR v2)
Track 8 accurately ripped (confidence 3) [B069092F] (AR v2)
Track 9 accurately ripped (confidence 3) [1C6BC0FD] (AR v2)
Track 10 accurately ripped (confidence 3) [71E17182] (AR v2)
Track 11 accurately ripped (confidence 3) [EB6754BF] (AR v2)

All tracks accurately ripped

End of status report

–– CUETools DB Plugin V2.1.6

[CTDB TOCID: Z4WV2KIFikWItHC_.Lmz49hsULM-] found
Submit result: Z4WV2KIFikWItHC_.Lmz49hsULM- has been confirmed
Track | CTDB Status
1 | (12/12) Accurately ripped
2 | (12/12) Accurately ripped
3 | (12/12) Accurately ripped
4 | (12/12) Accurately ripped
5 | (12/12) Accurately ripped
6 | (12/12) Accurately ripped
7 | (12/12) Accurately ripped
8 | (12/12) Accurately ripped
9 | (12/12) Accurately ripped
10 | (12/12) Accurately ripped
11 | (12/12) Accurately ripped

foobar2000 1.3.13 / Замер динамического диапазона (DR) 1.1.1
Дата отчёта: 2016-12-04 17:42:04

––––––––––––––––––––––––––––––––––––––––
Анализ: Orchestre de Chambre des Concerts Lamoureux, Marcel Courand / CD10 - Rameau
––––––––––––––––––––––––––––––––––––––––

DR Пики RMS Продолжительность трека
––––––––––––––––––––––––––––––––––––––––
DR10 -2.59 дБ -16.57 дБ 4:00 01-Pygmalion, acte de ballet: Ouverture
DR11 -6.80 дБ -22.42 дБ 2:58 02-Pygmalion, acte de ballet: Scene 1: Fatal Amour! Cruel vainqueur!
DR10 -6.26 дБ -20.17 дБ 1:58 03-Pygmalion, acte de ballet: Scene 2: Pigmalion, est-il possible
DR11 -5.77 дБ -21.71 дБ 3:17 04-Pygmalion, acte de ballet: Scene 3: Que d'appas! que d'attraits!
DR10 -6.06 дБ -21.04 дБ 3:18 05-Pygmalion, acte de ballet: Scene 4: Que vois-je? Ou suis-je?
DR12 -2.28 дБ -18.05 дБ 11:09 06-Pygmalion, acte de ballet: Scene 5: Du Pouvoir de l'Amour ce prodige est l'effet
DR11 -1.18 дБ -16.09 дБ 14:04 07-Pygmalion, acte de ballet: Scene derniere: L'Amour triomphe, annoncons sa victoire
DR10 -0.67 дБ -13.78 дБ 1:51 08-Les Indes galantes, opera-ballet: 1. Tempete
DR9 -3.91 дБ -14.98 дБ 0:58 09-Les Indes galantes, opera-ballet: 2. Air Pour les Esclaves africains
DR11 -2.64 дБ -18.61 дБ 1:13 10-Les Indes galantes, opera-ballet: 3. Rigaudon I - II
DR9 -4.53 дБ -16.96 дБ 1:24 11-Les Indes galantes, opera-ballet: 4. Tambourin I - II
––––––––––––––––––––––––––––––––––––––––

Количество треков: 11
Реальные значения DR: DR10

Частота: 44100 Гц
Каналов: 2
Разрядность: 16
Битрейт: 686 кбит/с
Кодек: FLAC
================================================================================

––––––––––––––––––––––––––––––––––––––––
Статистика для: ?-CD10 - Rameau
Количество сэмплов: 122143476
Продолжительность: 46:10
––––––––––––––––––––––––––––––––––––––––

Левый Правый

Пики: -1.46 дБ –- -0.67 дБ
Средний RMS: -18.10 дБ –- -16.72 дБ
DR канала: 12.02 дБ –- 11.61 дБ
––––––––––––––––––––––––––––––––––––––––

Реальные значения DR: DR12

Частота: 44100 Гц
Каналов: 2
Разрядность: 16
Битрейт: 686 кбит/с
Кодек: FLAC
================================================================================

Download Links:
Nitroflare