AC/DC - Iron Man 2 (2010) (Japanese Promo Sample, СD+DVD)

Posted By: apocalipsys2014
AC/DC - Iron Man 2 (2010) (Japanese Promo Sample, СD+DVD)

AC/DC - Iron Man 2 (2010)
Year & Label: 2010, Marvel Entertainment, LLC/Sоny Music Japan | CD#: SICP 2680~1
Flac (image) | MP3 CBR 320 Kbps | Artwork (JPG, 600 dpi) | File-hosts: FilePost
FLAC: 510 GB | Artwork: 160 MB | MP3: 160 MB | 5% WinRAR Recovery
DVD-5 | NTSC | VOB | Screen 16:9 | Total Duration: Approximately 53 Min | All Regions

EAC Secure-rip with LOG+CUE+COVERS | Source: torrents

All those diehard AC/DC fans who are hyperventilating into a paper bag over "AC/DC: Iron Man 2" and reciting the mantra "AC/DC hasn't turned into Kiss … AC/DC hasn't turned into Kiss …" can just relax. This album isn't meant for you. You have all this stuff — plus or minus the "Powerage" B-Side "Cold Hearted Man" (which was on the "Backtracks" box set), and unless you're a total completist, you don't need to buy it.

The audience for this album is all those kids coming out of the theaters after watching the superheroic slam-bang and wondering who that kick-ass band that provided the soundtrack to the ass-kicking was. Voila, kiddies! Crank it up and piss off your parents and neighbors just as three generations of us already have (just don't be surprised if Dad wants to borrow your copy to relive his own glory days).

"AC/DC: Iron Man 2" is less about being a collection of greatest hits than about being a decent sampler of the band's history. Oh, sure, you've got "Back In Black," "Thunderstruck," "Let There Be Rock" and "Highway to Hell," but the disc is also full of album tracks, ranging from the new-but-30-years-old single "Shoot to Thrill," originally from the holy grail itself, "Back In Black," to the recent B-side and set list staple "War Machine."

As with "Backtracks," AC/DC seems to go for a 50-50 split between current singer Brian Johnson and the late Bon Scott, with Scott-era chestnuts like "Rock'N'Roll Damnation" and "Hell Ain't a Bad Place to Be" alongside "The Razor's Edge" and "Evil Walks."

Those still clinging to the old Atlantic versions of some of this stuff are going to be amazed by how much better the catalog sounds since making its way to Sony/Columbia (those of us who bought the reissues already know). Where the original Atlantic version of "The Razor's Edge" had an almost muddy quality to it, now, you can clearly hear how guitarists Angus and Malcolm Young's parts snake around each other. The rhythm section, particularly bassist Cliff Williams, has a lot of extra heft, and, to quote Malcolm Young, the songs now are "a lot louder."

This is a great collection of songs — add in "You Shook Me All Night Long," "Dirty Deeds Done Dirt Cheap," "High Voltage" and "For Those About To Rock (We Salute You)" and you'd have a pretty convincing greatest hits collection. As it is, "AC/DC: Iron Man 2" is a superb sampler of one of the greatest rock bands of all time. I'm envious of those kids who'll be enjoying this stuff for the first time.

Highs: This is a collection of great songs and superb marketing.

Lows: If you're a fan, you probably own everything on this disc.

Bottom line: A superb collection of songs representing nearly every era of AC/DC.

~ www.metalunderground.
AC/DC official Homepage
AC/DC at Wikipedia
AC/DC The Ultimate CD Discography

Track List:

01. Shoot To Thrill [5:19]
02. Rock 'N' Roll Damnation [3:38]
03. Guns For Hire [3:26]
04. Cold Hearted Man [3:36]
05. Back In Black [4:17]
06. Thunderstruck [4:54]
07. If You Want Blood (You've Got It) [4:35]
08. Evil Walks [4:25]
09. T.N.T. [3:35]
10. Hell Ain't A Bad Place To Be [4:15]
11. Have A Drink On Me [4:00]
12. The Razor's Edge [4:24]
13. Let There Be Rock [6:08]
14. War Machine [3:11]
15. Highway To Hell 3[:29]

Exact Audio Copy V0.99 prebeta 4 from 23. January 2008

EAC extraction logfile from 30. January 2011, 18:19

AC-DC / Iron Man 2 (SICP 2680~1)

Used drive : PLEXTOR DVDR PX-760A Adapter: 0 ID: 0

Read mode : Secure
Utilize accurate stream : Yes
Defeat audio cache : Yes
Make use of C2 pointers : No

Read offset correction : 30
Overread into Lead-In and Lead-Out : No
Fill up missing offset samples with silence : Yes
Delete leading and trailing silent blocks : No
Null samples used in CRC calculations : Yes
Used interface : Installed external ASPI interface

Used output format : Internal WAV Routines
Sample format : 44.100 Hz; 16 Bit; Stereo


TOC of the extracted CD

Track | Start | Length | Start sector | End sector
––––––––––––––––––––––––––––-
1 | 0:00.00 | 5:19.18 | 0 | 23942
2 | 5:19.18 | 3:38.21 | 23943 | 40313
3 | 8:57.39 | 3:26.15 | 40314 | 55778
4 | 12:23.54 | 3:35.69 | 55779 | 71972
5 | 15:59.48 | 4:17.13 | 71973 | 91260
6 | 20:16.61 | 4:53.56 | 91261 | 113291
7 | 25:10.42 | 4:35.24 | 113292 | 133940
8 | 29:45.66 | 4:25.25 | 133941 | 153840
9 | 34:11.16 | 3:35.30 | 153841 | 169995
10 | 37:46.46 | 4:15.04 | 169996 | 189124
11 | 42:01.50 | 4:00.22 | 189125 | 207146
12 | 46:01.72 | 4:24.09 | 207147 | 226955
13 | 50:26.06 | 6:07.65 | 226956 | 254545
14 | 56:33.71 | 3:11.25 | 254546 | 268895
15 | 59:45.21 | 3:28.69 | 268896 | 284564


Range status and errors

Selected range

Filename D:\bki71\AC-DC - Iron Man 2 (SICP 2680~1).wav

Peak level 99.9 %
Range quality 100.0 %
Test CRC 069BF731
Copy CRC 069BF731
Copy OK

No errors occurred


AccurateRip summary

Track 1 accurately ripped (confidence 1) [F0476810]
Track 2 accurately ripped (confidence 1) [5A35D62E]
Track 3 accurately ripped (confidence 1) [748447D4]
Track 4 accurately ripped (confidence 1) [8D61A66A]
Track 5 accurately ripped (confidence 1) [2772B1FB]
Track 6 accurately ripped (confidence 1) [18854331]
Track 7 accurately ripped (confidence 1) [672A704C]
Track 8 accurately ripped (confidence 1) [4D7AA0BD]
Track 9 accurately ripped (confidence 1) [C0B1B79D]
Track 10 accurately ripped (confidence 1) [538152BF]
Track 11 accurately ripped (confidence 1) [33B2A3AC]
Track 12 accurately ripped (confidence 1) [3CFEA7C7]
Track 13 accurately ripped (confidence 1) [A84DF967]
Track 14 accurately ripped (confidence 1) [3F86F2E3]
Track 15 accurately ripped (confidence 1) [65C1D867]

All tracks accurately ripped

End of status report

DVD:

01. Shoot To Thrill (Iron Man 2 Video)
02. The Making Of 'Shoot To Thrill' Music Video
03. Highway To Hell (Live At River Plate Stadium, Buenos Aires - 2009)
04. Rock ‘N’ Roll Damnation (Live At Apollo Theatre, Glasgow - 1978)
05. If You Want Blood (You’ve Got It) (Highway To Hell promo clip - 1979)
06. Back In Black (Live At Plaza De Toros De Las Ventas, Madrid - 1996)
07. Guns For Hire (Live At Joe Louis Arena, Detroit, MI - 1983)
08. Thunderstruck (Live At Donington Park - 1991)
09. Let There Be Rock (Live At Plaza De Toros De Las Ventas, Madrid - 1996)
10. Hell Ain’t A Bad Place To Be (Live At Circus Krone, Munich - 2003)

Not my rip, not my scan-job. Thx very much to the original uploader bki71!
5% WinRar Recovery Record for all files.
Try before you might buy. Support the artists you like and buy their stuff whenever you can afford it.