Subcategories

AC/DC - If You Want Blood You've Got It (1978) (1988, Japan 32XD-949)

Posted By: apocalipsys2014
AC/DC - If You Want Blood You've Got It (1978) (1988, Japan 32XD-949)

AC/DC - If You Want Blood You've Got It (1979)
Year & Label: 1978/1988, Warner-Pioneer Corporation, Japan | CD#: 32XD-949
Flac (image) | MP3 CBR 320 Kbps | Artwork (JPG, 300 dpi) | File-hosts: Nitroflare.com
FLAC: 380 MB | Artwork: 25 MB | MP3: 120 MB | 5% WinRAR Recovery

EAC Secure-rip with LOG+CUE+COVERS | Source: torrents
Japanese 1st Press CD

AC/DC was fast becoming one of rock's top live acts by the late '70s. Few others could match the band's electrifying live performances: Angus Young's never-ending energy and wise-ass antics, Bon Scott's whiskey-soaked vocals, and the rest of the band's penchant for nailing simple, yet extremely effective and memorable, riffs and grooves. While most other rock bands of the era were busy experimenting with disco or creating studio-perfected epics, AC/DC was one of the few specializing in raw and bluesy hard rock, as evidenced by 1978's live set, If You Want Blood You've Got It. Recorded during their world tour in support of their Powerage album, If You Want Blood contains many of AC/DC's best compositions up until that point: "Bad Boy Boogie" (complete with the break-down section in which Young would "strip"), "The Jack," "Problem Child," "Whole Lotta Rosie," "High Voltage," "Let There Be Rock," and "Rocker." Strangely, their early anthem "Sin City" was not included, and there's a slight sense of studio enhancement on certain tracks.

www.allmusic.com
Musicians:

Vocals : Bon Scott
Guitars : Angus Young
Guitars : Malcolm Young
Bass : Cliff Williams
Drums : Phil Rudd

All tracks recorded live during 1978 World Tour
Mixed at Albert Studios, Sydney, Australia

Track List:

01. Riff Raff [5:59]
02. Hell Ain't A Bad Place To Be [4:10]
03. Bad Boy Boogie [7:27]
04. The Jack [5:50]
05. Problem Child [4:37]
06. Whole Lotta Rosie [4:08]
07. Rock 'N' Roll Damnation [3:40]
08. High Voltage [5:05]
09. Let There Be Rock [8:32]
10. Rocker [3:13]

Exact Audio Copy V0.99 prebeta 4 from 23. January 2008

EAC extraction logfile from 15. September 2010, 2:15

AC-DC / If You Want Blood You've Got It (32XD-949)

Used drive : PLEXTOR DVDR PX-760A Adapter: 0 ID: 0

Read mode : Secure
Utilize accurate stream : Yes
Defeat audio cache : Yes
Make use of C2 pointers : No

Read offset correction : 30
Overread into Lead-In and Lead-Out : No
Fill up missing offset samples with silence : Yes
Delete leading and trailing silent blocks : No
Null samples used in CRC calculations : Yes
Used interface : Installed external ASPI interface

Used output format : Internal WAV Routines
Sample format : 44.100 Hz; 16 Bit; Stereo


TOC of the extracted CD

Track | Start | Length | Start sector | End sector
––––––––––––––––––––––––––––-
1 | 0:00.00 | 5:58.65 | 0 | 26914
2 | 5:58.65 | 4:10.20 | 26915 | 45684
3 | 10:09.10 | 7:26.57 | 45685 | 79191
4 | 17:35.67 | 5:50.00 | 79192 | 105441
5 | 23:25.67 | 4:36.43 | 105442 | 126184
6 | 28:02.35 | 4:08.27 | 126185 | 144811
7 | 32:10.62 | 3:40.10 | 144812 | 161321
8 | 35:50.72 | 5:04.48 | 161322 | 184169
9 | 40:55.45 | 8:32.37 | 184170 | 222606
10 | 49:28.07 | 3:13.00 | 222607 | 237081


Range status and errors

Selected range

Filename D:\bki71\AC-DC - If You Want Blood You've Got It (32XD-949).wav

Peak level 89.0 %
Range quality 100.0 %
Test CRC D0B8F0CD
Copy CRC D0B8F0CD
Copy OK

No errors occurred


AccurateRip summary

Track 1 accurately ripped (confidence 1) [25237558]
Track 2 accurately ripped (confidence 1) [85E516BA]
Track 3 accurately ripped (confidence 1) [CD290AD4]
Track 4 accurately ripped (confidence 1) [D85D053D]
Track 5 accurately ripped (confidence 1) [F2D21691]
Track 6 accurately ripped (confidence 1) [3B253A86]
Track 7 accurately ripped (confidence 1) [755E1179]
Track 8 accurately ripped (confidence 1) [9FA2AD15]
Track 9 accurately ripped (confidence 1) [241CBF5B]
Track 10 accurately ripped (confidence 1) [2DACC2AB]

All tracks accurately ripped

End of status report

Not my rip, not my scan-job. Thx very much to the original uploader bki71!
5% WinRar Recovery Record for all files.
Try before you might buy. Support the artists you like and buy their stuff whenever you can afford it.
FLAC, image + atrwork or mp3 at Nitroflare.com:
FLAC | Artwork | Mp3 320 kbps