Subcategories

AC/DC - Bonfire (1997) (4CD Box, Original Edition)

Posted By: apocalipsys2014
AC/DC - Bonfire (1997) (4CD Box, Original Edition)

AC/DC - Bonfire (1997)
Year & Label: 1997 EMI/Albert Production | CD#: 7243 8 23766 2 0
Flac (image) | Artwork (JPEG, 300 dpi) | File-hosts: FileSonic & FileServe
Hard Rock/Heavy Metal | FLAC: ~1,8 GB | Artwork: 350 MB | 5% WinRAR Recovery

EAC Secure-rip with LOG+CUE+COVERS | Source: Torrents
1997, Non-remastered Original Edition, 4CD Box-Set

AC/DC - Bonfire (1997) (4CD Box, Original Edition)

Oddly, the legend of Bon Scott never haunted AC/DC. They grieved, certainly, but they were able to move on, releasing Back in Black as a tribute in 1980. The record became their biggest hit and helped them become one of the biggest rock & roll bands in the world. By the late '90s, the group remained popular, and a strange phenomenon had happened – there were generations of AC/DC fans who came of age after Scott's death, and had only a passing familiarity with the rocker. Perhaps that's one of the reasons why they lovingly assembled the five-disc box set Bonfire in 1997. The set is a tribute to Scott, featuring two live albums – one from New York in 1978, the other from Paris in 1979, which is essentially the soundtrack to the Let There Be Rock film – a disc of outtakes, and a remastered version of Back in Black. For hardcore fans, this is something of a dream come true, since the live albums are stronger than any of the group's other live releases, with the possible exception of If You Want Blood You've Got It. The disc of alternate takes, outtakes, and stray live cuts offers no real revelations, but there are enough interesting moments to make it worthwhile. And while any AC/DC fan has Back in Black, it's nice hearing it in this context, because it shows that even if the band could carry on splendidly, they were still missing the insane, wild-man charisma of Bon Scott. Nowhere is that charisma better preserved – both through music and stories – than on Bonfire.

~ AllMusic.com
AC/DC official homepage
AC/DC at Wikipedia
AC/DC The Ultimate CD Discography

Musicians:

Vocals : Bon Scott/Brian Johnson
Lead Guitar : Angus Young
Rhytm Guitar : Malcolm Young
Bass : Cliff Williams
Drums : Phil Rudd

AC/DC - Bonfire (1997) (4CD Box, Original Edition)

Disk 1: Live From The Atlantic Studios
Flac (image) -> 360 MB | Artwork (JPEG, 300 dpi) -> 10 MB | 5% WinRAR Recovery

Track List:

01. Live Wire [6:16]
02. Problem Child [4:40]
03. High Voltage [5:57]
04. Hell Ain't A Bad Place To Be [4:14]
05. Dog Eat Dog [4:42]
06. The Jack [8:37]
07. Whole Lotta Rosie [5:11]
08. Rocker [5:33]

Exact Audio Copy V0.99 prebeta 4 from 23. January 2008

EAC extraction logfile from 24. February 2011, 9:56

AC-DC / Live From The Atlantic Studios

Used drive : PLEXTOR DVDR PX-760A Adapter: 0 ID: 0

Read mode : Secure
Utilize accurate stream : Yes
Defeat audio cache : Yes
Make use of C2 pointers : No

Read offset correction : 30
Overread into Lead-In and Lead-Out : No
Fill up missing offset samples with silence : Yes
Delete leading and trailing silent blocks : No
Null samples used in CRC calculations : Yes
Used interface : Installed external ASPI interface

Used output format : Internal WAV Routines
Sample format : 44.100 Hz; 16 Bit; Stereo


TOC of the extracted CD

Track | Start | Length | Start sector | End sector
––––––––––––––––––––––––––––-
1 | 0:00.00 | 6:16.05 | 0 | 28204
2 | 6:16.05 | 4:39.60 | 28205 | 49189
3 | 10:55.65 | 5:57.25 | 49190 | 75989
4 | 16:53.15 | 4:13.40 | 75990 | 95004
5 | 21:06.55 | 4:42.07 | 95005 | 116161
6 | 25:48.62 | 8:36.43 | 116162 | 154904
7 | 34:25.30 | 5:10.70 | 154905 | 178224
8 | 39:36.25 | 5:33.17 | 178225 | 203216


Range status and errors

Selected range

Filename D:\bki71\AC-DC - Bonfire\Disc 1\AC-DC - Live From The Atlantic Studios.wav

Peak level 100.0 %
Range quality 100.0 %
Test CRC 562437BA
Copy CRC 562437BA
Copy OK

No errors occurred


AccurateRip summary

Track 1 accurately ripped (confidence 3) [1128DA67]
Track 2 accurately ripped (confidence 3) [68CDCB8E]
Track 3 accurately ripped (confidence 3) [D347CEE5]
Track 4 accurately ripped (confidence 3) [FC4DE51E]
Track 5 accurately ripped (confidence 3) [B7C6C26F]
Track 6 accurately ripped (confidence 2) [F849CE23]
Track 7 accurately ripped (confidence 2) [4773F637]
Track 8 accurately ripped (confidence 3) [68FFCE85]

All tracks accurately ripped

End of status report

AC/DC - Bonfire (1997) (4CD Box, Original Edition)

Disk 2: Let There Be Rock - The Movie - Live In Paris
Flac (image) -> 600 MB | Artwork (JPEG, 300 dpi) -> 13 MB | 5% WinRAR Recovery

Track List:

01. Live Wire [7:34]
02. Shot Down In Flames [3:46]
03. Hell Ain't A Bad Place To Be [4:20]
04. Sin City [5:23]
05. Bad Boy Boogie [13:15]
06. The Jack [5:54]
07. Highway To Hell [3:24]
08. Girls Got Rythm [3:27]
09. High Voltage [6:33]
10. Whole Lotta Rosie [5:08]
11. Rocker [10:16]
12. Let There Be Rock [7:43]

Exact Audio Copy V0.99 prebeta 4 from 23. January 2008

EAC extraction logfile from 24. February 2011, 11:16

AC-DC / Let There Be Rock - The Movie - Live In Paris

Used drive : PLEXTOR DVDR PX-760A Adapter: 0 ID: 0

Read mode : Secure
Utilize accurate stream : Yes
Defeat audio cache : Yes
Make use of C2 pointers : No

Read offset correction : 30
Overread into Lead-In and Lead-Out : No
Fill up missing offset samples with silence : Yes
Delete leading and trailing silent blocks : No
Null samples used in CRC calculations : Yes
Used interface : Installed external ASPI interface

Used output format : Internal WAV Routines
Sample format : 44.100 Hz; 16 Bit; Stereo


TOC of the extracted CD

Track | Start | Length | Start sector | End sector
––––––––––––––––––––––––––––-
1 | 0:00.00 | 7:33.47 | 0 | 34021
2 | 7:33.47 | 3:46.13 | 34022 | 50984
3 | 11:19.60 | 4:19.60 | 50985 | 70469
4 | 15:39.45 | 5:22.60 | 70470 | 94679
5 | 21:02.30 | 13:15.32 | 94680 | 154336
6 | 34:17.62 | 5:53.68 | 154337 | 180879
7 | 40:11.55 | 3:23.45 | 180880 | 196149
8 | 43:35.25 | 3:27.02 | 196150 | 211676
9 | 47:02.27 | 6:33.20 | 211677 | 241171
10 | 53:35.47 | 5:08.05 | 241172 | 264276
11 | 58:43.52 | 10:15.63 | 264277 | 310464
12 | 68:59.40 | 7:43.27 | 310465 | 345216


Range status and errors

Selected range

Filename D:\bki71\AC-DC - Bonfire\Disc 2\AC-DC - Let There Be Rock - The Movie - Live In Paris.wav

Peak level 97.9 %
Range quality 100.0 %
Test CRC CD0C6FBC
Copy CRC CD0C6FBC
Copy OK

No errors occurred


AccurateRip summary

Track 1 cannot be verified as accurate (confidence 1) [A5567AC5], AccurateRip returned [647E6BE7]
Track 2 cannot be verified as accurate (confidence 1) [FC89E8E8], AccurateRip returned [7AF04EB8]
Track 3 cannot be verified as accurate (confidence 1) [BAA5845F], AccurateRip returned [2CAE8B63]
Track 4 cannot be verified as accurate (confidence 1) [C57F888E], AccurateRip returned [F81EBA2A]
Track 5 cannot be verified as accurate (confidence 1) [5030121F], AccurateRip returned [1C0613F3]
Track 6 cannot be verified as accurate (confidence 1) [27D26557], AccurateRip returned [96F5192F]
Track 7 not present in database
Track 8 cannot be verified as accurate (confidence 1) [32741B12], AccurateRip returned [2EC84172]
Track 9 cannot be verified as accurate (confidence 1) [CB52E3AE], AccurateRip returned [92B118A4]
Track 10 cannot be verified as accurate (confidence 1) [A1AEA2CB], AccurateRip returned [2D97F437]
Track 11 cannot be verified as accurate (confidence 1) [214B58BD], AccurateRip returned [0036755E]
Track 12 cannot be verified as accurate (confidence 1) [E50D3AAC], AccurateRip returned [66D9C8EC]

11 track(s) could not be verified as accurate
1 track(s) not present in the AccurateRip database

No tracks could be verified as accurate
You may have a different pressing from the one(s) in the database

End of status report

AC/DC - Bonfire (1997) (4CD Box, Original Edition)

Disk 3: Volts
Flac (image) -> 500 MB | Artwork (JPEG, 300 dpi) -> 15 MB | 5% WinRAR Recovery

Track List:

01. Dirty Eyes [3:21]
02. Touch Too Much [6:34]
03. If You Want Blood You Got It [4:27]
04. Back Seat Confidential [5:24]
05. Get It Hot [4:16]
06. Sin City [4:51]
07. Walk All Over You [4:58]
08. T.N.T. [4:23]
09. She's Got Balls [7:56]
10. School Days [5:24]
11. It's A Long Way To The Top If You Wanna Rock'N'Roll [5:15]
12. Ride On [9:43]

Exact Audio Copy V0.99 prebeta 4 from 23. January 2008

EAC extraction logfile from 24. February 2011, 12:12

AC-DC / Volts

Used drive : PLEXTOR DVDR PX-760A Adapter: 0 ID: 0

Read mode : Secure
Utilize accurate stream : Yes
Defeat audio cache : Yes
Make use of C2 pointers : No

Read offset correction : 30
Overread into Lead-In and Lead-Out : No
Fill up missing offset samples with silence : Yes
Delete leading and trailing silent blocks : No
Null samples used in CRC calculations : Yes
Used interface : Installed external ASPI interface

Used output format : Internal WAV Routines
Sample format : 44.100 Hz; 16 Bit; Stereo


TOC of the extracted CD

Track | Start | Length | Start sector | End sector
––––––––––––––––––––––––––––-
1 | 0:00.00 | 3:20.74 | 0 | 15073
2 | 3:20.74 | 6:34.26 | 15074 | 44649
3 | 9:55.25 | 4:27.05 | 44650 | 64679
4 | 14:22.30 | 5:24.04 | 64680 | 88983
5 | 19:46.34 | 4:15.64 | 88984 | 108172
6 | 24:02.23 | 4:51.01 | 108173 | 129998
7 | 28:53.24 | 4:57.49 | 129999 | 152322
8 | 33:50.73 | 4:23.10 | 152323 | 172057
9 | 38:14.08 | 7:56.37 | 172058 | 207794
10 | 46:10.45 | 5:23.74 | 207795 | 232093
11 | 51:34.44 | 5:15.03 | 232094 | 255721
12 | 56:49.47 | 9:43.06 | 255722 | 299452


Range status and errors

Selected range

Filename D:\bki71\AC-DC - Bonfire\Disc 3\AC-DC - Volts.wav

Peak level 100.0 %
Range quality 100.0 %
Test CRC BA97CF52
Copy CRC BA97CF52
Copy OK

No errors occurred


AccurateRip summary

Track 1 accurately ripped (confidence 2) [D7B11A7E]
Track 2 accurately ripped (confidence 2) [71E8E976]
Track 3 accurately ripped (confidence 2) [78B769A7]
Track 4 accurately ripped (confidence 2) [878F0F30]
Track 5 accurately ripped (confidence 2) [15B7BE89]
Track 6 accurately ripped (confidence 2) [32056D12]
Track 7 accurately ripped (confidence 2) [A7A2A9C0]
Track 8 accurately ripped (confidence 3) [26B3FBBD]
Track 9 accurately ripped (confidence 2) [7C6857FD]
Track 10 not present in database
Track 11 not present in database
Track 12 not present in database

9 track(s) accurately ripped
3 track(s) not present in the AccurateRip database

Some tracks could not be verified as accurate

End of status report

AC/DC - Bonfire (1997) (4CD Box, Original Edition)

Disk 4: Back In Black
Flac (image) -> 350 MB | Artwork (JPEG, 300 dpi) -> 10 MB | 5% WinRAR Recovery

Track List:

01. Hells Bells [5:13]
02. Shoot To Thrill [5:18]
03. What Do You Do For Money Honey [3:36]
04. Given The Dog A Bone [3:32]
05. Let Me Put My Love Into You [4:15]
06. Back In Black [4:16]
07. You Shook Me All Night Long [3:30]
08. Have A Drink On Me [3:59]
09. Shake A Leg [4:06]
10. Rock And Roll Ain't Noise Pollution [4:16]

Exact Audio Copy V0.99 prebeta 4 from 23. January 2008

EAC extraction logfile from 24. February 2011, 14:04

AC-DC / Back In Black

Used drive : PLEXTOR DVDR PX-760A Adapter: 0 ID: 0

Read mode : Secure
Utilize accurate stream : Yes
Defeat audio cache : Yes
Make use of C2 pointers : No

Read offset correction : 30
Overread into Lead-In and Lead-Out : No
Fill up missing offset samples with silence : Yes
Delete leading and trailing silent blocks : No
Null samples used in CRC calculations : Yes
Used interface : Installed external ASPI interface

Used output format : Internal WAV Routines
Sample format : 44.100 Hz; 16 Bit; Stereo


TOC of the extracted CD

Track | Start | Length | Start sector | End sector
––––––––––––––––––––––––––––-
1 | 0:00.00 | 5:12.42 | 0 | 23441
2 | 5:12.42 | 5:18.20 | 23442 | 47311
3 | 10:30.62 | 3:35.63 | 47312 | 63499
4 | 14:06.50 | 3:32.20 | 63500 | 79419
5 | 17:38.70 | 4:15.02 | 79420 | 98546
6 | 21:53.72 | 4:15.70 | 98547 | 117741
7 | 26:09.67 | 3:30.25 | 117742 | 133516
8 | 29:40.17 | 3:59.23 | 133517 | 151464
9 | 33:39.40 | 4:06.02 | 151465 | 169916
10 | 37:45.42 | 4:15.63 | 169917 | 189104


Range status and errors

Selected range

Filename D:\bki71\AC-DC - Bonfire\Disc 4\AC-DC - Back In Black.wav

Peak level 99.8 %
Range quality 100.0 %
Test CRC 7B368B7C
Copy CRC 7B368B7C
Copy OK

No errors occurred


AccurateRip summary

Track 1 cannot be verified as accurate (confidence 5) [3DD997B8], AccurateRip returned [1B2845FE]
Track 2 cannot be verified as accurate (confidence 5) [43473EF8], AccurateRip returned [69BC6B88]
Track 3 cannot be verified as accurate (confidence 5) [A3630F12], AccurateRip returned [85EB1CD1]
Track 4 cannot be verified as accurate (confidence 5) [09C5906D], AccurateRip returned [6B760EFA]
Track 5 cannot be verified as accurate (confidence 5) [332610F4], AccurateRip returned [C0851014]
Track 6 cannot be verified as accurate (confidence 5) [43077CA5], AccurateRip returned [1EA60A63]
Track 7 cannot be verified as accurate (confidence 5) [CDE2DE15], AccurateRip returned [E7D4B81E]
Track 8 cannot be verified as accurate (confidence 5) [3A19A6CB], AccurateRip returned [D6658589]
Track 9 cannot be verified as accurate (confidence 5) [9F0A7352], AccurateRip returned [CDC5D3C2]
Track 10 cannot be verified as accurate (confidence 5) [FA150B0E], AccurateRip returned [F70F5B6B]

No tracks could be verified as accurate
You may have a different pressing from the one(s) in the database

End of status report

FLAC, image + artwork at FileSonic.com
Complete Links

FLAC, image + artwork at FileServe
Complete Links

All links are interchangeable…
Not my rip, not my scan-job. Thx very much to the original uploader bki71!
5% WinRar Recovery Record for all files.
Try before you might buy. Support the artists you like and buy their stuff whenever you can afford it.

***