Subcategories

AC/DC - Bonfire (1997) [5CD Edition]

Posted By: v3122
AC/DC - Bonfire (1997) [5CD Edition]

AC/DC - Bonfire (1997)
EAC | Flac(Image) + Cue + Log & MP3 CBR 320Kbps
5CD | EastWest, 62119-2 | ~ 1687 or 590 Mb | Scans(png) -> 371 Mb
Hard Rock

Oddly, the legend of Bon Scott never haunted AC/DC. They grieved, certainly, but they were able to move on, releasing Back in Black as a tribute in 1980. The record became their biggest hit and helped them become one of the biggest rock & roll bands in the world. By the late '90s, the group remained popular, and a strange phenomenon had happened – there were generations of AC/DC fans who came of age after Scott's death, and had only a passing familiarity with the rocker. Perhaps that's one of the reasons why they lovingly assembled the five-disc box set Bonfire in 1997. The set is a tribute to Scott, featuring two live albums – one from New York in 1978, the other from Paris in 1979, which is essentially the soundtrack to the Let There Be Rock film – a disc of outtakes, and a remastered version of Back in Black. For hardcore fans, this is something of a dream come true, since the live albums are stronger than any of the group's other live releases, with the possible exception of If You Want Blood You've Got It. The disc of alternate takes, outtakes, and stray live cuts offers no real revelations, but there are enough interesting moments to make it worthwhile. And while any AC/DC fan has Back in Black, it's nice hearing it in this context, because it shows that even if the band could carry on splendidly, they were still missing the insane, wild-man charisma of Bon Scott. Nowhere is that charisma better preserved – both through music and stories – than on Bonfire

by Stephen Thomas Erlewine, AMG
AC/DC - Bonfire (1997) [5CD Edition]


AC/DC - Bonfire (1997):

AC/DC - Bonfire (1997) [5CD Edition]

Tracklist CD1 - Live From The Atlantic Studios:

01. Live Wire (6:16)
02. Problem Child (4:40)
03. High Voltage (5:57)
04. Hell Ain't A Bad Place To Be (4:14)
05. Dog Eat Dog (4:42)
06. The Jack (8:37)
07. Whole Lotta Rosie (5:11)
08. Rocker (5:33)

Exact Audio Copy V0.99 prebeta 5 from 4. May 2009

EAC extraction logfile from 17. July 2011, 0:55

AC-DC / Live From The Atlantic Studios

Used drive : PLEXTOR DVDR PX-760A Adapter: 0 ID: 0

Read mode : Secure
Utilize accurate stream : Yes
Defeat audio cache : Yes
Make use of C2 pointers : No

Read offset correction : 30
Overread into Lead-In and Lead-Out : No
Fill up missing offset samples with silence : Yes
Delete leading and trailing silent blocks : No
Null samples used in CRC calculations : Yes
Used interface : Native Win32 interface for Win NT & 2000

Used output format : User Defined Encoder
Selected bitrate : 1024 kBit/s
Quality : High
Add ID3 tag : No
Command line compressor : C:\Program Files (x86)\Exact Audio Copy\Flac\flac.exe
Additional command line options : -8 -V %s


TOC of the extracted CD

Track | Start | Length | Start sector | End sector
––––––––––––––––––––––––––––-
1 | 0:00.32 | 6:16.05 | 32 | 28236
2 | 6:16.37 | 4:39.60 | 28237 | 49221
3 | 10:56.22 | 5:57.25 | 49222 | 76021
4 | 16:53.47 | 4:13.40 | 76022 | 95036
5 | 21:07.12 | 4:42.08 | 95037 | 116194
6 | 25:49.20 | 8:36.42 | 116195 | 154936
7 | 34:25.62 | 5:10.70 | 154937 | 178256
8 | 39:36.57 | 5:33.18 | 178257 | 203249


Range status and errors

Selected range

Filename D:\bki71\Bonfire (EastWest 62119-2)\Disc 1\AC-DC - Live From The Atlantic Studios.wav

Peak level 100.0 %
Range quality 99.9 %
Test CRC 7B922F28
Copy CRC 7B922F28
Copy OK

No errors occurred


AccurateRip summary

Track 1 accurately ripped (confidence 52) [C09FCB09]
Track 2 accurately ripped (confidence 52) [58EAE775]
Track 3 accurately ripped (confidence 52) [56E4D427]
Track 4 accurately ripped (confidence 51) [7D0D8160]
Track 5 accurately ripped (confidence 50) [E64DC8C8]
Track 6 accurately ripped (confidence 51) [5785A7C1]
Track 7 accurately ripped (confidence 51) [A2674D9A]
Track 8 accurately ripped (confidence 49) [0B00C50E]

All tracks accurately ripped

End of status report

foobar2000 1.2.9 / Dynamic Range Meter 1.1.1
log date: 2015-12-18 19:50:33

––––––––––––––––––––––––––––––––––––––––
Analyzed: AC-DC / Live From The Atlantic Studios
––––––––––––––––––––––––––––––––––––––––

DR Peak RMS Duration Track
––––––––––––––––––––––––––––––––––––––––
DR8 0.00 dB -9.40 dB 6:16 01-Live Wire
DR8 0.00 dB -9.35 dB 4:40 02-Problem Child
DR8 0.00 dB -9.49 dB 5:57 03-High Voltage
DR8 0.00 dB -8.70 dB 4:14 04-Hell Ain't A Bad Place To Be
DR8 0.00 dB -8.77 dB 4:42 05-Dog Eat Dog
DR8 0.00 dB -10.77 dB 8:37 06-The Jack
DR8 0.00 dB -8.62 dB 5:11 07-Whole Lotta Rosie
DR7 0.00 dB -8.75 dB 5:33 08-Rocker
––––––––––––––––––––––––––––––––––––––––

Number of tracks: 8
Official DR value: DR8

Samplerate: 44100 Hz
Channels: 2
Bits per sample: 16
Bitrate: 1019 kbps
Codec: FLAC
================================================================================



[CUETools log; Date: 18.12.2015 19:23:42; Version: 2.1.4]
Pregap length 00:00:32.
[CTDB TOCID: 5R6jtU8AVhO.bSwfL_06bNrQ5CM-] found.
Track | CTDB Status
1 | (28/29) Accurately ripped
2 | (28/29) Accurately ripped
3 | (28/29) Accurately ripped
4 | (28/29) Accurately ripped
5 | (28/29) Accurately ripped
6 | (28/29) Accurately ripped
7 | (27/29) Accurately ripped
8 | (27/29) Accurately ripped
[AccurateRip ID: 000dc045-005bdd80-6f0a9608] found.
Track [ CRC | V2 ] Status
01 [c09fcb09|babaeb6c] (060+058/120) Accurately ripped
02 [58eae775|27a6c2ea] (060+059/121) Accurately ripped
03 [56e4d427|a3cb8b23] (060+059/121) Accurately ripped
04 [7d0d8160|9a6c8d9c] (059+059/120) Accurately ripped
05 [e64dc8c8|33dc18d9] (058+059/119) Accurately ripped
06 [5785a7c1|2e074e18] (059+059/120) Accurately ripped
07 [a2674d9a|78b66c83] (059+059/120) Accurately ripped
08 [0b00c50e|3de6e184] (057+059/118) Accurately ripped
Offsetted by -1064:
01 [c8dc89f9] (000/120) No match
02 [b84cef1a] (000/121) No match
03 [4565c333] (000/121) No match
04 [ed567505] (000/120) No match (V2 was not tested)
05 [90e1af3b] (000/119) No match
06 [bd4ae2dc] (000/120) No match (V2 was not tested)
07 [8258fa22] (000/120) No match
08 [d5026bf2] (000/118) No match
Offsetted by -1063:
01 [ae6b9f67] (000/120) No match
02 [a7b3181e] (000/121) No match
03 [2ea3ed9f] (000/121) No match
04 [e1a43a3c] (000/120) No match
05 [926f8d2f] (000/119) No match (V2 was not tested)
06 [976bdd61] (000/120) No match
07 [bb2db45a] (000/120) No match
08 [8502d8ea] (000/118) No match (V2 was not tested)
Offsetted by -1062:
01 [508ad658] (000/120) No match
02 [8d5b3c4b] (000/121) No match (V2 was not tested)
03 [e7ce2e3f] (000/121) No match
04 [995f5b61] (000/120) No match
05 [99b5eda4] (000/119) No match
06 [ac9a2a2f] (000/120) No match
07 [ff0c00d2] (000/120) No match
08 [28eb23f2] (000/118) No match
Offsetted by -1060:
01 [3cfd8f6f] (000/120) No match (V2 was not tested)
02 [395ca473] (000/121) No match
03 [b11f85f0] (000/121) No match (V2 was not tested)
04 [2b940b70] (000/120) No match
05 [eb30ac98] (000/119) No match
06 [3af501ab] (000/120) No match
07 [7e8517df] (000/120) No match
08 [52825b7e] (000/118) No match
Offsetted by -1059:
01 [82d1de54] (000/120) No match
02 [9caee39c] (000/121) No match
03 [5402f155] (000/121) No match
04 [9e16f01e] (000/120) No match
05 [522c8c0f] (000/119) No match
06 [5c558eeb] (000/120) No match
07 [c261f1d1] (000/120) No match (V2 was not tested)
08 [df144cae] (000/118) No match

Track Peak [ CRC32 ] [W/O NULL] [ LOG ]
– 99,9 [7B922F28] [EB3ED1DA] CRC32
01 99,9 [984A4B78] [51BC3A97]
02 99,9 [423D4AEA] [1AA1CC47]
03 99,9 [FCFB4DB0] [FB6C0A30]
04 99,9 [E22423B0] [FE48CC50]
05 99,9 [24A435E4] [AF7F8A8A]
06 99,9 [36D10BA6] [6FDCDF6F]
07 99,9 [A779D9AC] [587C5F83]
08 99,9 [721BF44A] [6A45B4FC]


AC/DC - Bonfire (1997) [5CD Edition]

Tracklist CD2 - Let There Be Rock - The Movie - Live In Paris
Part One:


01. Live Wire (8:04)
02. Shot Down In Flames (3:39)
03. Hell Ain't A Bad Place To Be (4:31)
04. Sin City (5:25)
05. Walk All Over You (5:06)
06. Bad Boy Boogie (13:21)

Exact Audio Copy V0.99 prebeta 5 from 4. May 2009

EAC extraction logfile from 17. July 2011, 1:29

AC-DC / Let There Be Rock - The Movie - Live In Paris (Part One)

Used drive : PLEXTOR DVDR PX-760A Adapter: 0 ID: 0

Read mode : Secure
Utilize accurate stream : Yes
Defeat audio cache : Yes
Make use of C2 pointers : No

Read offset correction : 30
Overread into Lead-In and Lead-Out : No
Fill up missing offset samples with silence : Yes
Delete leading and trailing silent blocks : No
Null samples used in CRC calculations : Yes
Used interface : Native Win32 interface for Win NT & 2000

Used output format : User Defined Encoder
Selected bitrate : 1024 kBit/s
Quality : High
Add ID3 tag : No
Command line compressor : C:\Program Files (x86)\Exact Audio Copy\Flac\flac.exe
Additional command line options : -8 -V %s


TOC of the extracted CD

Track | Start | Length | Start sector | End sector
––––––––––––––––––––––––––––-
1 | 0:00.32 | 8:04.23 | 32 | 36354
2 | 8:04.55 | 3:39.35 | 36355 | 52814
3 | 11:44.15 | 4:31.32 | 52815 | 73171
4 | 16:15.47 | 5:25.05 | 73172 | 97551
5 | 21:40.52 | 5:06.35 | 97552 | 120536
6 | 26:47.12 | 13:20.38 | 120537 | 180574


Range status and errors

Selected range

Filename D:\bki71\Bonfire (EastWest 62119-2)\Disc 2\Part One\AC-DC - Let There Be Rock - The Movie - Live In Paris (Part One).wav

Peak level 97.9 %
Range quality 100.0 %
Test CRC E54E2C7D
Copy CRC E54E2C7D
Copy OK

No errors occurred


AccurateRip summary

Track 1 accurately ripped (confidence 49) [7D8699E3]
Track 2 accurately ripped (confidence 49) [F2271877]
Track 3 accurately ripped (confidence 48) [856B6884]
Track 4 accurately ripped (confidence 48) [BFA51950]
Track 5 accurately ripped (confidence 46) [0F38DBD0]
Track 6 accurately ripped (confidence 48) [66C8506C]

All tracks accurately ripped

End of status report


foobar2000 1.2.9 / Dynamic Range Meter 1.1.1
log date: 2015-12-18 19:24:37

––––––––––––––––––––––––––––––––––––––––
Analyzed: AC-DC / Let There Be Rock - The Movie - Live In Paris (Part One)
––––––––––––––––––––––––––––––––––––––––

DR Peak RMS Duration Track
––––––––––––––––––––––––––––––––––––––––
DR7 -0.18 dB -8.94 dB 8:04 01-Live Wire
DR7 -0.18 dB -7.78 dB 3:39 02-Shot Down In Flames
DR7 -0.18 dB -8.19 dB 4:31 03-Hell Ain't A Bad Place To Be
DR7 -0.18 dB -8.36 dB 5:25 04-Sin City
DR7 -0.18 dB -8.24 dB 5:06 05-Walk All Over You
DR7 -0.18 dB -9.39 dB 13:21 06-Bad Boy Boogie
––––––––––––––––––––––––––––––––––––––––

Number of tracks: 6
Official DR value: DR7

Samplerate: 44100 Hz
Channels: 2
Bits per sample: 16
Bitrate: 929 kbps
Codec: FLAC
================================================================================



[CUETools log; Date: 18.12.2015 19:26:15; Version: 2.1.4]
Pregap length 00:00:32.
[CTDB TOCID: KqwlDbmxufJTv9x8ECbCkHac.FY-] found.
Track | CTDB Status
1 | (28/28) Accurately ripped
2 | (28/28) Accurately ripped
3 | (27/28) Accurately ripped
4 | (28/28) Accurately ripped
5 | (28/28) Accurately ripped
6 | (28/28) Accurately ripped
[AccurateRip ID: 00088f8e-002dc262-4e096706] found.
Track [ CRC | V2 ] Status
01 [7d8699e3|fe436964] (055+054/109) Accurately ripped
02 [f2271877|c0d25a6d] (056+053/109) Accurately ripped
03 [856b6884|28295927] (055+053/108) Accurately ripped
04 [bfa51950|966cc53e] (054+053/107) Accurately ripped
05 [0f38dbd0|91572ebb] (053+053/106) Accurately ripped
06 [66c8506c|1b84992e] (054+054/108) Accurately ripped

Track Peak [ CRC32 ] [W/O NULL] [ LOG ]
– 97,9 [E54E2C7D] [172747D6] CRC32
01 97,9 [C43A04D5] [3361004A]
02 97,9 [68D0D252] [D6799E65]
03 97,9 [939A9916] [988FB95A]
04 97,9 [EBE703D0] [A161B99F]
05 97,9 [737411F1] [647E1B01]
06 97,9 [5D9717E6] [D5E9AE09]


Tracklist CD3 - Let There Be Rock - The Movie - Live In Paris
Part Two:


01. The Jack (6:05)
02. Highway To Hell (3:31)
03. Girls Got Rhythm (3:20)
04. High Voltage (6:32)
05. Whole Lotta Rosie (4:55)
06. Rocker (10:45)
07. T.N.T. (4:14)
08. Let There Be Rock (7:34)

Exact Audio Copy V0.99 prebeta 5 from 4. May 2009

EAC extraction logfile from 17. July 2011, 2:06

AC-DC / Let There Be Rock - The Movie - Live In Paris (Part Two)

Used drive : PLEXTOR DVDR PX-760A Adapter: 0 ID: 0

Read mode : Secure
Utilize accurate stream : Yes
Defeat audio cache : Yes
Make use of C2 pointers : No

Read offset correction : 30
Overread into Lead-In and Lead-Out : No
Fill up missing offset samples with silence : Yes
Delete leading and trailing silent blocks : No
Null samples used in CRC calculations : Yes
Used interface : Native Win32 interface for Win NT & 2000

Used output format : User Defined Encoder
Selected bitrate : 1024 kBit/s
Quality : High
Add ID3 tag : No
Command line compressor : C:\Program Files (x86)\Exact Audio Copy\Flac\flac.exe
Additional command line options : -8 -V %s


TOC of the extracted CD

Track | Start | Length | Start sector | End sector
––––––––––––––––––––––––––––-
1 | 0:00.32 | 6:05.05 | 32 | 27411
2 | 6:05.37 | 3:30.48 | 27412 | 43209
3 | 9:36.10 | 3:20.07 | 43210 | 58216
4 | 12:56.17 | 6:32.20 | 58217 | 87636
5 | 19:28.37 | 4:55.35 | 87637 | 109796
6 | 24:23.72 | 10:45.13 | 109797 | 158184
7 | 35:09.10 | 4:13.47 | 158185 | 177206
8 | 39:22.57 | 7:34.05 | 177207 | 211261


Range status and errors

Selected range

Filename D:\bki71\Bonfire (EastWest 62119-2)\Disc 2\Part Two\AC-DC - Let There Be Rock - The Movie - Live In Paris (Part Two).wav

Peak level 97.9 %
Range quality 100.0 %
Test CRC F7959F78
Copy CRC F7959F78
Copy OK

No errors occurred


AccurateRip summary

Track 1 accurately ripped (confidence 47) [C991998B]
Track 2 accurately ripped (confidence 47) [68AC8B88]
Track 3 accurately ripped (confidence 47) [5770572F]
Track 4 accurately ripped (confidence 48) [88DC469C]
Track 5 accurately ripped (confidence 47) [955FA370]
Track 6 accurately ripped (confidence 48) [07257383]
Track 7 accurately ripped (confidence 48) [AC5DF8E7]
Track 8 accurately ripped (confidence 47) [7320CAC0]

All tracks accurately ripped

End of status report


foobar2000 1.2.9 / Dynamic Range Meter 1.1.1
log date: 2015-12-19 15:25:53

––––––––––––––––––––––––––––––––––––––––
Analyzed: AC-DC / Let There Be Rock - The Movie - Live In Paris (Part Two)
––––––––––––––––––––––––––––––––––––––––

DR Peak RMS Duration Track
––––––––––––––––––––––––––––––––––––––––
DR7 -0.18 dB -8.60 dB 6:05 01-The Jack
DR6 -0.18 dB -8.19 dB 3:31 02-Highway To Hell
DR7 -0.18 dB -8.01 dB 3:20 03-Girls Got Rhythm
DR7 -0.18 dB -8.94 dB 6:32 04-High Voltage
DR7 -0.18 dB -8.76 dB 4:55 05-Whole Lotta Rosie
DR6 -0.18 dB -8.39 dB 10:45 06-Rocker
DR7 -0.18 dB -8.87 dB 4:14 07-T.N.T.
DR7 -0.18 dB -8.41 dB 7:34 08-Let There Be Rock
––––––––––––––––––––––––––––––––––––––––

Number of tracks: 8
Official DR value: DR7

Samplerate: 44100 Hz
Channels: 2
Bits per sample: 16
Bitrate: 969 kbps
Codec: FLAC
================================================================================



[CUETools log; Date: 18.12.2015 19:27:56; Version: 2.1.4]
Pregap length 00:00:32.
[CTDB TOCID: A6EnlJGt_OwlcMfudkyPocAe1iY-] found.
Track | CTDB Status
1 | (25/25) Accurately ripped
2 | (25/25) Accurately ripped
3 | (25/25) Accurately ripped
4 | (25/25) Accurately ripped
5 | (25/25) Accurately ripped
6 | (25/25) Accurately ripped
7 | (25/25) Accurately ripped
8 | (25/25) Accurately ripped
[AccurateRip ID: 000d51ff-005aa596-690b0008] found.
Track [ CRC | V2 ] Status
01 [c991998b|28468d5d] (053+055/108) Accurately ripped
02 [68ac8b88|8c6bc165] (053+055/108) Accurately ripped
03 [5770572f|587fbed8] (053+055/108) Accurately ripped
04 [88dc469c|22d8f833] (054+055/109) Accurately ripped
05 [955fa370|d8027299] (053+055/108) Accurately ripped
06 [07257383|16e8d3fe] (054+055/109) Accurately ripped
07 [ac5df8e7|2ab81fae] (054+055/109) Accurately ripped
08 [7320cac0|98c5db26] (053+055/108) Accurately ripped

Track Peak [ CRC32 ] [W/O NULL] [ LOG ]
– 97,9 [F7959F78] [3D8ED165] CRC32
01 97,9 [28AE3A25] [6C4AB0F3]
02 97,9 [A72D69BE] [FA242CC7]
03 97,9 [275ED93E] [7F9E6C05]
04 97,9 [AB60B73A] [4318F9DC]
05 97,9 [AA8F8681] [BEC345A0]
06 97,9 [10560900] [542E88DE]
07 97,9 [E1EF874C] [4797D43A]
08 97,9 [44AFF9B2] [AAD28870]


AC/DC - Bonfire (1997) [5CD Edition]

Tracklist CD4 - Volts:

01. Dirty Eyes (first tittle and lyrics to the riffs of "Rosie") (3:21)
02. Touch Too Much (is the same title as the track on "Highway To Hell" with other lyrics and music) (6:34)
03. If You Want Blood You Got It (this version is the first recording of the track) (4:28)
04. Back Seat Confidential (Bon's first title and lyrics to the riffs that ended up as "Beatin' Around The Bush") (5:24)
05. Get It Hot (same title as the track on "Highway To Hell" with other lyrics and music) (4:17)
06. Sin City ( live from "Midnight Special") (4:58)
07. She's Got Balls (from "Bondi Lifesaver") (7:57)
08. School Days (from "T.N.T." Australian Release) (5:24)
09. It's A Long Way To The Top (If You Wanna Rock 'N' Roll) ( from "High Voltage") (5:15)
10. Ride On (from "Dirty Deeds Done Dirt Cheap") (10:03)

Exact Audio Copy V0.99 prebeta 5 from 4. May 2009

EAC extraction logfile from 17. July 2011, 2:25

AC-DC / Volts

Used drive : PLEXTOR DVDR PX-760A Adapter: 0 ID: 0

Read mode : Secure
Utilize accurate stream : Yes
Defeat audio cache : Yes
Make use of C2 pointers : No

Read offset correction : 30
Overread into Lead-In and Lead-Out : No
Fill up missing offset samples with silence : Yes
Delete leading and trailing silent blocks : No
Null samples used in CRC calculations : Yes
Used interface : Native Win32 interface for Win NT & 2000

Used output format : User Defined Encoder
Selected bitrate : 1024 kBit/s
Quality : High
Add ID3 tag : No
Command line compressor : C:\Program Files (x86)\Exact Audio Copy\Flac\flac.exe
Additional command line options : -8 -V %s


TOC of the extracted CD

Track | Start | Length | Start sector | End sector
––––––––––––––––––––––––––––-
1 | 0:00.32 | 3:21.13 | 32 | 15119
2 | 3:21.45 | 6:34.25 | 15120 | 44694
3 | 9:55.70 | 4:28.05 | 44695 | 64799
4 | 14:24.00 | 5:23.70 | 64800 | 89094
5 | 19:47.70 | 4:17.02 | 89095 | 108371
6 | 24:04.72 | 4:58.13 | 108372 | 130734
7 | 29:03.10 | 7:57.07 | 130735 | 166516
8 | 37:00.17 | 5:23.65 | 166517 | 190806
9 | 42:24.07 | 5:14.73 | 190807 | 214429
10 | 47:39.05 | 10:03.07 | 214430 | 259661


Range status and errors

Selected range

Filename D:\bki71\Bonfire (EastWest 62119-2)\Disc 3\AC-DC - Volts.wav

Peak level 100.0 %
Range quality 100.0 %
Test CRC 58C0CF71
Copy CRC 58C0CF71
Copy OK

No errors occurred


AccurateRip summary

Track 1 accurately ripped (confidence 46) [7C3FD28D]
Track 2 accurately ripped (confidence 47) [AFA7FE88]
Track 3 accurately ripped (confidence 48) [0A28E1E3]
Track 4 accurately ripped (confidence 47) [98075E85]
Track 5 accurately ripped (confidence 47) [6479C8DE]
Track 6 accurately ripped (confidence 45) [1E20690D]
Track 7 accurately ripped (confidence 46) [100DAF28]
Track 8 accurately ripped (confidence 47) [48092639]
Track 9 accurately ripped (confidence 48) [F4FE128B]
Track 10 accurately ripped (confidence 48) [206E1F88]

All tracks accurately ripped

End of status report


foobar2000 1.2.9 / Dynamic Range Meter 1.1.1
log date: 2015-12-19 15:59:03

––––––––––––––––––––––––––––––––––––––––
Analyzed: AC-DC / Volts
––––––––––––––––––––––––––––––––––––––––

DR Peak RMS Duration Track
––––––––––––––––––––––––––––––––––––––––
DR7 0.00 dB -8.78 dB 3:21 01-Dirty Eyes
DR7 0.00 dB -8.61 dB 6:34 02-Touch Too Much
DR8 0.00 dB -9.52 dB 4:28 03-If You Want Blood You Got It
DR7 0.00 dB -9.08 dB 5:24 04-Back Seat Confidential
DR8 0.00 dB -8.86 dB 4:17 05-Get It Hot
DR7 0.00 dB -8.50 dB 4:58 06-Sin City
DR7 0.00 dB -9.45 dB 7:57 07-She's Got Balls
DR8 0.00 dB -9.86 dB 5:24 08-School Days
DR9 0.00 dB -10.19 dB 5:15 09-It's A Long Way To The Top If You Wanna Rock 'N' Roll
DR9 0.00 dB -13.15 dB 10:03 10-Ride On
––––––––––––––––––––––––––––––––––––––––

Number of tracks: 10
Official DR value: DR8

Samplerate: 44100 Hz
Channels: 2
Bits per sample: 16
Bitrate: 913 kbps
Codec: FLAC
================================================================================



[CUETools log; Date: 18.12.2015 19:30:03; Version: 2.1.4]
Pregap length 00:00:32.
[CTDB TOCID: gJxnFSoewy12pJOPXjMQ5N_EplI-] found.
Track | CTDB Status
1 | (26/29) Accurately ripped, or (1/29) differs in 9 samples @02:09:29
2 | (28/29) Accurately ripped
3 | (28/29) Accurately ripped
4 | (28/29) Accurately ripped
5 | (28/29) Accurately ripped
6 | (27/29) Accurately ripped, or (1/29) differs in 706 samples @03:09:46,03:10:14-03:10:15,03:10:28-03:10:29,04:13:19-04:13:20,04:34:44,04:38:38-04:38:39,04:38:53,04:40:35-04:40:36,04:42:18,04:42:47-04:42:48
7 | (27/29) Accurately ripped, or (1/29) differs in 52 samples @03:12:42-03:12:43
8 | (28/29) Accurately ripped
9 | (28/29) Accurately ripped
10 | (27/29) Accurately ripped, or (1/29) differs in 8119 samples @04:29:26-04:29:27,04:29:62-04:29:63,04:30:06-04:30:07,04:30:24-04:30:25,04:30:42-04:30:43,04:30:61-04:30:62,04:31:04-04:31:05,04:31:22-04:31:24,04:31:40-04:31:42,04:31:59-04:31:61,04:32:02-04:32:03,04:32:20-04:32:22,04:32:39-04:32:41,04:32:57-04:32:58,04:33:00-04:33:02,04:33:19-04:33:20,04:33:37-04:33:38,04:33:55-04:33:56,04:33:73-04:34:00,04:34:17-04:34:18,04:34:35-04:34:36,04:34:53-04:34:55,04:34:71-04:34:73,04:35:15-04:35:16,04:35:33-04:35:35,04:35:52-04:35:53,04:35:70-04:35:71,04:36:13-04:36:15,04:36:31-04:36:33,04:36:50-04:36:51,04:36:68-04:36:69,04:37:11-04:37:13,04:37:30-04:37:31,04:37:48-04:37:49,04:37:66-04:37:68,04:38:10-04:38:11,04:38:20,04:38:28-04:38:29,04:38:46-04:38:47,04:38:65,04:39:08-04:39:09,04:39:18,04:39:26,04:39:45,04:39:63-04:39:65,04:40:06,04:40:16,04:40:24,04:40:43-04:40:45,04:40:53,04:40:61-04:40:63,04:41:24-04:41:25,04:41:43,04:41:61
[AccurateRip ID: 001398a9-009ffaa6-8d0d860a] found.
Track [ CRC | V2 ] Status
01 [7c3fd28d|a8fa972d] (052+059/111) Accurately ripped
02 [afa7fe88|2d45d994] (053+059/112) Accurately ripped
03 [0a28e1e3|78917247] (055+059/114) Accurately ripped
04 [98075e85|3c39a7ad] (054+059/113) Accurately ripped
05 [6479c8de|a35b1626] (054+059/113) Accurately ripped
06 [1e20690d|737cce62] (052+054/106) Accurately ripped
07 [100daf28|4f470fe0] (052+055/107) Accurately ripped
08 [48092639|548155c5] (053+054/107) Accurately ripped
09 [f4fe128b|4cac6e5b] (054+054/108) Accurately ripped
10 [206e1f88|393ea089] (053+054/107) Accurately ripped

Track Peak [ CRC32 ] [W/O NULL] [ LOG ]
– 99,9 [58C0CF71] [461C52F2] CRC32
01 99,9 [CA0786DA] [BEA57CCC]
02 99,9 [F64F81E9] [2ECB34C8]
03 99,9 [28388FC7] [BD5F649E]
04 99,9 [84809D6F] [CA164305]
05 99,9 [43ECFC1C] [F93E07D4]
06 99,9 [E4A3A756] [1FF8F9EB]
07 99,9 [12CB59F9] [921B378E]
08 99,9 [E7345C0E] [31BAE8A5]
09 99,9 [1CA55B69] [A1DB1798]
10 99,9 [0CA6C1B6] [D42857EB]


AC/DC - Bonfire (1997) [5CD Edition]

Tracklist CD5 - Back In Black:

01. Hells Bells (5:13)
02. Shoot To Thrill (5:18)
03. What Do You Do For Money Honey (3:36)
04. Given The Dog A Bone (3:32)
05. Let Me Put My Love Into You (4:15)
06. Back In Black (4:16)
07. You Shook Me All Night Long (3:30)
08. Have A Drink On Me (3:59)
09. Shake A Leg (4:06)
10. Rock And Roll Ain't Noise Pollution (4:16)

Exact Audio Copy V0.99 prebeta 5 from 4. May 2009

EAC extraction logfile from 17. July 2011, 2:41

AC-DC / Back In Black

Used drive : PLEXTOR DVDR PX-760A Adapter: 0 ID: 0

Read mode : Secure
Utilize accurate stream : Yes
Defeat audio cache : Yes
Make use of C2 pointers : No

Read offset correction : 30
Overread into Lead-In and Lead-Out : No
Fill up missing offset samples with silence : Yes
Delete leading and trailing silent blocks : No
Null samples used in CRC calculations : Yes
Used interface : Native Win32 interface for Win NT & 2000

Used output format : User Defined Encoder
Selected bitrate : 1024 kBit/s
Quality : High
Add ID3 tag : No
Command line compressor : C:\Program Files (x86)\Exact Audio Copy\Flac\flac.exe
Additional command line options : -8 -V %s


TOC of the extracted CD

Track | Start | Length | Start sector | End sector
––––––––––––––––––––––––––––-
1 | 0:00.32 | 5:12.50 | 32 | 23481
2 | 5:13.07 | 5:18.20 | 23482 | 47351
3 | 10:31.27 | 3:35.63 | 47352 | 63539
4 | 14:07.15 | 3:32.20 | 63540 | 79459
5 | 17:39.35 | 4:14.70 | 79460 | 98579
6 | 21:54.30 | 4:16.02 | 98580 | 117781
7 | 26:10.32 | 3:30.30 | 117782 | 133561
8 | 29:40.62 | 3:59.23 | 133562 | 151509
9 | 33:40.10 | 4:05.72 | 151510 | 169956
10 | 37:46.07 | 4:15.63 | 169957 | 189144


Range status and errors

Selected range

Filename D:\bki71\Bonfire (EastWest 62119-2)\Disc 4\AC-DC - Back In Black.wav

Peak level 99.8 %
Range quality 100.0 %
Test CRC 5622757C
Copy CRC 5622757C
Copy OK

No errors occurred


AccurateRip summary

Track 1 accurately ripped (confidence 33) [3383ACC6]
Track 2 accurately ripped (confidence 34) [833DAC3C]
Track 3 accurately ripped (confidence 34) [2EB74FE3]
Track 4 accurately ripped (confidence 34) [EF4CEA89]
Track 5 accurately ripped (confidence 34) [F03A6239]
Track 6 accurately ripped (confidence 34) [4D4EC91D]
Track 7 accurately ripped (confidence 34) [576C6472]
Track 8 accurately ripped (confidence 34) [28B09539]
Track 9 accurately ripped (confidence 33) [DF5B097E]
Track 10 accurately ripped (confidence 27) [5C973E6E]

All tracks accurately ripped

End of status report


foobar2000 1.2.9 / Dynamic Range Meter 1.1.1
log date: 2015-12-19 15:25:24

––––––––––––––––––––––––––––––––––––––––
Analyzed: AC-DC / Back In Black
––––––––––––––––––––––––––––––––––––––––

DR Peak RMS Duration Track
––––––––––––––––––––––––––––––––––––––––
DR9 -0.01 dB -10.46 dB 5:13 01-Hells Bells
DR9 -0.01 dB -10.68 dB 5:18 02-Shoot To Thrill
DR9 -0.01 dB -10.00 dB 3:36 03-What Do You Do For Money Honey
DR9 -0.01 dB -10.12 dB 3:32 04-Given The Dog A Bone
DR9 -0.01 dB -10.87 dB 4:15 05-Let Me Put My Love Into You
DR9 -0.01 dB -10.68 dB 4:16 06-Back In Black
DR9 -0.01 dB -10.29 dB 3:30 07-You Shook Me All Night Long
DR9 -0.01 dB -10.92 dB 3:59 08-Have A Drink On Me
DR8 -0.01 dB -9.94 dB 4:06 09-Shake A Leg
DR10 -0.01 dB -11.57 dB 4:16 10-Rock And Roll Ain't Noise Pollution
––––––––––––––––––––––––––––––––––––––––

Number of tracks: 10
Official DR value: DR9

Samplerate: 44100 Hz
Channels: 2
Bits per sample: 16
Bitrate: 1005 kbps
Codec: FLAC
================================================================================



[CUETools log; Date: 18.12.2015 19:32:42; Version: 2.1.4]
Pregap length 00:00:32.
[CTDB TOCID: NXcyA4btX3hdxROi5t5B6uzAgwQ-] found.
Track | CTDB Status
1 | (26/28) Accurately ripped, or (2/28) differs in 493 samples @01:39:23-01:39:27,01:39:35,01:39:55-01:39:58,01:39:66-01:39:72,01:40:03,01:40:33,01:41:01-01:41:08,01:41:44-01:41:46,01:42:10-01:42:17,01:42:52-01:42:57,02:09:53-02:09:54,02:10:22-02:10:25,02:10:43-02:10:44,02:10:65-02:10:69,02:12:01,02:12:21
2 | (28/28) Accurately ripped
3 | (28/28) Accurately ripped
4 | (28/28) Accurately ripped
5 | (28/28) Accurately ripped
6 | (28/28) Accurately ripped
7 | (28/28) Accurately ripped
8 | (27/28) Accurately ripped
9 | (27/28) Accurately ripped
10 | (26/28) Accurately ripped
[AccurateRip ID: 001064e2-008138ed-7809d90a] found.
Track [ CRC | V2 ] Status
01 [3383acc6|a4e7dfb1] (39+44/83) Accurately ripped
02 [833dac3c|4b903955] (40+44/84) Accurately ripped
03 [2eb74fe3|711eb695] (40+44/84) Accurately ripped
04 [ef4cea89|b5187359] (40+44/84) Accurately ripped
05 [f03a6239|3dfc0b5e] (40+44/84) Accurately ripped
06 [4d4ec91d|7a08f4df] (40+43/83) Accurately ripped
07 [576c6472|09a5c0cf] (40+45/85) Accurately ripped
08 [28b09539|7c30d399] (40+44/84) Accurately ripped
09 [df5b097e|34705e1c] (39+44/83) Accurately ripped
10 [5c973e6e|aa9fd4e2] (33+42/81) Accurately ripped

Track Peak [ CRC32 ] [W/O NULL] [ LOG ]
– 99,8 [5622757C] [0F389B39] CRC32
01 99,8 [D77300E2] [0C6DB048]
02 99,8 [752B7901] [227D2F57]
03 99,8 [A7D78133] [261133F9]
04 99,8 [07669532] [CDEBE6F4]
05 99,8 [0FB206E5] [85182725]
06 99,8 [FFDC149F] [B62587CB]
07 99,8 [8CA1EEC6] [8CDFDA7F]
08 99,8 [069A4117] [C60F3BB4]
09 99,8 [121685D6] [9884307E]
10 99,8 [A0B6E5D4] [9EDCFC7A]


AC/DC - Bonfire (1997) [5CD Edition]

All thanks go to bki71

Download AC/DC - Bonfire (1997):