Subcategories

7 for 4 - Time (2004)

Posted By: Andi_Deris
7 for 4 - Time (2004)

7 for 4 - Time (2004)
EAC Rip | FLAC: Image+Cue+Log | 431 Mb | MP3 CBR 320 kbps | 143 Mb | Scans | Time: 58:21
Genre: Progressive Rock, Jazz Rock, Fusion | Label: MGI Records | Cat.№: MGR 1020

Time is the second CD from 7 for 4, a German instrumental band. Similar to the first album, all the tracks except one are instrumentals. The guest vocalist is Conny Kreitmeier on "Where Are You Now". The liner notes describe this album to be a mixture of Latin, Country, Classic, and Metal. Although still very enjoyable, this isn't quite up the the high level they set with their debut.



7 for 4 - Time (2004)


Track Listing

01. Zeitgeist (4:45)
02. Temperamento (5:10)
03. Where Are You Now (5:26)
04. 7:44 am (7:46)
05. Time (Chapter I) (4:06)
06. Rock 'n' Rolex (5:07)
07. Perpetuum Mobile (5:57)
08. Time (Chapter II) (5:31)
09. Flux Capacitor (6:33)
10. Burnt Chicken Wings (6:05)
11. Slow [e]motion (1:55)

Produced by Wolfgang Zenk

The Band

• Wolfgang Zenk - guitar
• Markus Grützner - bass
• Klaus Engl - drums
• Markus Froschmeier - keyboards

guest
• Conny Kreitmeier - vocals on ’’Where Are You Now’’

Exact Audio Copy V0.99 prebeta 4 from 23. January 2008

EAC extraction logfile from 8. February 2009, 11:52

7 for 4 / Time

Used drive : LITE-ON DVDRW SOHW-1653S Adapter: 1 ID: 0

Read mode : Secure
Utilize accurate stream : Yes
Defeat audio cache : Yes
Make use of C2 pointers : No

Read offset correction : 12
Overread into Lead-In and Lead-Out : No
Fill up missing offset samples with silence : Yes
Delete leading and trailing silent blocks : No
Null samples used in CRC calculations : Yes
Used interface : Installed external ASPI interface

Used output format : Internal WAV Routines
Sample format : 44.100 Hz; 16 Bit; Stereo


TOC of the extracted CD

Track | Start | Length | Start sector | End sector
––––––––––––––––––––––––––––-
1 | 0:00.00 | 4:45.51 | 0 | 21425
2 | 4:45.51 | 5:10.46 | 21426 | 44721
3 | 9:56.22 | 5:26.17 | 44722 | 69188
4 | 15:22.39 | 7:46.00 | 69189 | 104138
5 | 23:08.39 | 4:06.59 | 104139 | 122647
6 | 27:15.23 | 5:07.24 | 122648 | 145696
7 | 32:22.47 | 5:57.34 | 145697 | 172505
8 | 38:20.06 | 5:31.68 | 172506 | 197398
9 | 43:51.74 | 6:33.16 | 197399 | 226889
10 | 50:25.15 | 6:05.49 | 226890 | 254313
11 | 56:30.64 | 1:55.52 | 254314 | 262990


Range status and errors

Selected range

Filename C:\Program Files\BitComet\Downloads\7 for 4 - Time (2004)\7 for 4 - Time.wav

Peak level 99.9 %
Range quality 100.0 %
Copy CRC 4CCA13FA
Copy OK

No errors occurred


AccurateRip summary

Track 1 not present in database
Track 2 not present in database
Track 3 not present in database
Track 4 not present in database
Track 5 not present in database
Track 6 not present in database
Track 7 not present in database
Track 8 not present in database
Track 9 not present in database
Track 10 not present in database
Track 11 not present in database

None of the tracks are present in the AccurateRip database

End of status report


Many thanks to the original uploader: erro