Subcategories

7 for 4 - Splash (2014)

Posted By: Andi_Deris
7 for 4 - Splash (2014)

7 for 4 - Splash (2014)
EAC Rip | FLAC: Image+Cue+Log | 407 Mb | MP3 CBR 320 kbps | 144 Mb | Scans | 58 Mb | Time: 52:12
Genre: Progressive Rock, Jazz Rock, Fusion | Label: MGI Records | Cat.№: MGR 1026

It's been quite awhile since Wolfgang Zenk put out a new 7for4 album so this comes as a welcome surprise. As you may by now know, Zenk came to everyone's attention when he became a member of Sieges Even, redirecting their tech metal sound into fusion realms. 7for4 is his full on fusion vehicle and Splash is a total burner from beginning to end. For this album the band is down to a trio with Zenk also taking over on keyboards but it doesn't slow anything down. This is tasteful fusion with good positive energy.



7 for 4 - Splash (2014)


Track Listing

01. Junk Funk (4:33)
02. Fortune (4:56)
03. Downhill (2:44)
04. If Only (6:06)
05. The Scent (5:57)
06. Murder She Said (4:11)
07. Fiesta (6:05)
08. Shhhh (5:13)
09. Lesson Learned (4:54)
10. Doubt And Ask (7:33)

Produced by Wolfgang Zenk

The Band

• Wolfgang Zenk - guitars, keyboards
• Markus Grützner - bass
• Klaus Engl - drums

Notes

The instrumental band 7for4 stops for nothing: Whether Funk, Jazz, Metal or Country, they pack the best elements from most different styles into extraordinary but coherent compositions and perform their music with impressive virtuosity. Catchy melodies and spherical tunes alternate with full power passages, surprising the listener again and again with complex rhythms and virtuosic playing and soloing.

Exact Audio Copy V1.0 beta 3 from 29. August 2011

Отчёт EAC об извлечении, выполненном 1. июля 2014, 7:05

7 for 4 / Splash

Дисковод: PLEXTOR DVDR PX-760A Adapter: 1 ID: 0

Режим чтения : Достоверность
Использование точного потока : Да
Отключение кэша аудио : Да
Использование указателей C2 : Нет

Коррекция смещения при чтении : 30
Способность читать области Lead-in и Lead-out : Да
Заполнение пропущенных сэмплов тишиной : Да
Удаление блоков с тишиной в начале и конце : Нет
При вычислениях CRC использовались нулевые сэмплы : Да
Интерфейс : Установленный внешний ASPI-интерфейс

Выходной формат : Пользовательский кодировщик
Выбранный битрейт : 32 kBit/s
Качество : Низкий
Добавление ID3-тега : Нет
Утилита сжатия : C:\Program Files\Exact Audio Copy\Flac\flac.exe
Дополнительные параметры : -8 -V -T "ARTIST=%artist%" -T "ALBUM=%albumtitle%" -T "DATE=%year%" -T "GENRE=%genre%" -T "COMMENT=EAC FLAC -8" %source%


TOC извлечённого CD

Трек | Старт | Длительность | Начальный сектор | Конечный сектор
––––––––––––––––––––––––––––––––––-
1 | 0:00.00 | 4:33.50 | 0 | 20524
2 | 4:33.50 | 4:56.10 | 20525 | 42734
3 | 9:29.60 | 2:44.04 | 42735 | 55038
4 | 12:13.64 | 6:06.00 | 55039 | 82488
5 | 18:19.64 | 5:57.21 | 82489 | 109284
6 | 24:17.10 | 4:11.24 | 109285 | 128133
7 | 28:28.34 | 6:05.54 | 128134 | 155562
8 | 34:34.13 | 5:12.72 | 155563 | 179034
9 | 39:47.10 | 4:54.47 | 179035 | 201131
10 | 44:41.57 | 7:33.33 | 201132 | 235139


Характеристики диапазона извлечения и сообщения об ошибках

Выбранный диапазон

Имя файла E:\Muzons\7 for 4\7 for 4 - Splash (2014)\7 for 4 - Splash.wav

Пиковый уровень 97.4 %
Скорость извлечения 2.5 X
Качество диапазона 100.0 %
CRC теста D3300646
CRC копии D3300646
Копирование… OK

Ошибок не произошло


AccurateRip: сводка

Трек 1 отсутствует в базе данных
Трек 2 отсутствует в базе данных
Трек 3 отсутствует в базе данных
Трек 4 отсутствует в базе данных
Трек 5 отсутствует в базе данных
Трек 6 отсутствует в базе данных
Трек 7 отсутствует в базе данных
Трек 8 отсутствует в базе данных
Трек 9 отсутствует в базе данных
Трек 10 отсутствует в базе данных

Ни одного трека нет в базе AccurateRip

Конец отчёта

==== Контрольная сумма отчёта B38444D1C1B2252A420727A597DCA3A0E66CE46FE2589DE964A75FD8BDCB42A8 ====


Many thanks to the original uploader: erro