Subcategories

7 for 4 - Contact (2001)

Posted By: Andi_Deris
7 for 4 - Contact (2001)

7 for 4 - Contact (2001)
EAC Rip | FLAC: Tracks+Cue+Log | 410 Mb | MP3 CBR 320 kbps | 144 Mb | Scans | 72 Mb | Time: 51:31
Genre: Progressive Rock, Jazz Rock, Fusion | Label: MGI Records | Cat.№: MGR 744

7 for 4 is the brain child of Virtuoso guitarist Wolfgang Zenk (no medals for those who figure out the country of origin), who is better known as the former guitarist for German progressive metal band Sieges Even and with 7 for 4 he has decided to explore jazz fusion territory.



7 for 4 - Contact (2001)


Track Listing

01. X-Dreams (5:14)
02. Tokamak (3:57)
03. La Provence (6:06)
04. E-Gyptian (5:05)
05. Highlands (7:11)
06. Rushian (5:15)
07. Rockalaxy (4:50)
08. Catking (7:46)
09. Subspace Distortion (6:07)

Produced by Wolfgang Zenk

The Band

• Wolfgang Zenk - guitar
• Markus Froschmeier - keyboards
• Klaus Engl - drums
• Markus Grützner - bass

guest
• Greg Keller - vocals on ’’Catking’’

Notes

The instrumental band 7for4 stops for nothing: Whether Funk, Jazz, Metal or Country, they pack the best elements from most different styles into extraordinary but coherent compositions and perform their music with impressive virtuosity. Catchy melodies and spherical tunes alternate with full power passages, surprising the listener again and again with complex rhythms and virtuosic playing and soloing.

Exact Audio Copy V0.99 prebeta 4 from 23. January 2008

EAC extraction logfile from 10. March 2008, 22:23

7 for 4 / Contact

Used drive : HL-DT-STDVDRAM GSA-4167B Adapter: 0 ID: 0

Read mode : Secure
Utilize accurate stream : Yes
Defeat audio cache : Yes
Make use of C2 pointers : No

Read offset correction : 667
Overread into Lead-In and Lead-Out : No
Fill up missing offset samples with silence : Yes
Delete leading and trailing silent blocks : No
Null samples used in CRC calculations : Yes
Used interface : Native Win32 interface for Win NT & 2000
Gap handling : Appended to previous track

Used output format : User Defined Encoder
Selected bitrate : 128 kBit/s
Quality : High
Add ID3 tag : No
Command line compressor : c:\Program Files\FLAC\flac.exe
Additional command line options : –verify –best -T "artist=%a" -T "title=%t" -T "album=%g" -T "date=%y" -T "tracknumber=%n" -T "genre=%m" %s


TOC of the extracted CD

Track | Start | Length | Start sector | End sector
––––––––––––––––––––––––––––-
1 | 0:00.00 | 5:14.15 | 0 | 23564
2 | 5:14.15 | 3:57.20 | 23565 | 41359
3 | 9:11.35 | 6:06.05 | 41360 | 68814
4 | 15:17.40 | 5:05.28 | 68815 | 91717
5 | 20:22.68 | 7:11.18 | 91718 | 124060
6 | 27:34.11 | 5:15.26 | 124061 | 147711
7 | 32:49.37 | 4:50.21 | 147712 | 169482
8 | 37:39.58 | 7:46.59 | 169483 | 204491
9 | 45:26.42 | 6:07.56 | 204492 | 232072


Track 1

Filename C:\Music\01 - X-Dreams.wav

Pre-gap length 0:00:02.00

Peak level 98.8 %
Track quality 100.0 %
Test CRC F548CC40
Copy CRC F548CC40
Track not present in AccurateRip database
Copy OK

Track 2

Filename C:\Music\02 - Tokamak.wav

Pre-gap length 0:00:02.00

Peak level 98.8 %
Track quality 100.0 %
Test CRC D7BB5BB4
Copy CRC D7BB5BB4
Track not present in AccurateRip database
Copy OK

Track 3

Filename C:\Music\03 - La Provence.wav

Pre-gap length 0:00:02.00

Peak level 98.8 %
Track quality 100.0 %
Test CRC 1AB8DAC2
Copy CRC 1AB8DAC2
Track not present in AccurateRip database
Copy OK

Track 4

Filename C:\Music\04 - E-Gyptian.wav

Pre-gap length 0:00:02.00

Peak level 98.8 %
Track quality 100.0 %
Test CRC 644A85ED
Copy CRC 644A85ED
Track not present in AccurateRip database
Copy OK

Track 5

Filename C:\Music\05 - Highlands.wav

Pre-gap length 0:00:02.00

Peak level 98.8 %
Track quality 100.0 %
Test CRC F531E29E
Copy CRC F531E29E
Track not present in AccurateRip database
Copy OK

Track 6

Filename C:\Music\06 - Rushian.wav

Pre-gap length 0:00:02.00

Peak level 98.8 %
Track quality 100.0 %
Test CRC B10481C0
Copy CRC B10481C0
Track not present in AccurateRip database
Copy OK

Track 7

Filename C:\Music\07 - Rockalaxy.wav

Pre-gap length 0:00:02.00

Peak level 98.8 %
Track quality 100.0 %
Test CRC 8FB779E3
Copy CRC 8FB779E3
Track not present in AccurateRip database
Copy OK

Track 8

Filename C:\Music\08 - Catking.wav

Pre-gap length 0:00:02.00

Peak level 98.8 %
Track quality 100.0 %
Test CRC 1991CAE9
Copy CRC 1991CAE9
Track not present in AccurateRip database
Copy OK

Track 9

Filename C:\Music\09 - Subspace Distortion.wav

Pre-gap length 0:00:02.00

Peak level 98.8 %
Track quality 100.0 %
Test CRC 295D5A1D
Copy CRC 295D5A1D
Track not present in AccurateRip database
Copy OK


None of the tracks are present in the AccurateRip database

No errors occurred

End of status report


Many thanks to the original uploader: Musicgate