Subcategories

Various Artists - Total Music Immersion (2002) [2.0 & 5.1] PS3 ISO + MCH FLAC {RE-UP}

Posted By: HDAtall
Various Artists - Total Music Immersion (2002) [2.0 & 5.1] PS3 ISO + MCH FLAC {RE-UP}

Various Artists - Total Music Immersion (2002) [2.0 & 5.1]
PS3 Rip | SACD ISO | DST64 2.0 & 5.1 > 1-bit/2.8224 MHz | 64:16 minutes | Scans included | 3,59 GB
or FLAC 5.1 Multichannel (converted with foobar2000 to tracks) 24bit/88,2 kHz | Scans included | 1,36 GB
Features 2.0 Stereo and 5.1 multichannel surround sound | Philips Super Audio CD Sampler # PH-SACD 313

Hybrid SACD Promo sampler from PHILIPS with 16 cuts by different artists. Some of the songs were especially mastered in multichannel surround sound for this release.

Tracklist:

01. Destiny's Child – Independent woman, Part 1
From the album “Survivor” cat n°. COL 5017837
5.1 remix from PCM master
Courtesy of Sony Music Entertainment

02. Céline Dion – It's all coming back to me now
From the album “All The Way – A decade Of Song” cat n°. BS 63760
5.1 remix from PCM master
Courtesy of Sony Music Entertainment.

03. Carel Kraayenhof, Bandoneon – Astor Piazzolla : Adiòs Nonino
Concertgebouw Chamber Orchestra and Netherlands Chamber Choir

From the album “The Royal Wedding”, cat n°. PTC 5186 005
5.0 DSD recordings
Courtesy of Pentatone Music.Distributed by Universal Music Group

04. Herbert Grönemeyer – Halt Mich
5.1 remix from analogue master
Courtesy of EMI Germany

05. Ginuwine – 2-way
From the album “The Life”, cat n°. ES 69622
5.1 remix from PCM master
Courtesy of Sony Music Entertainment

06. Groove Armada – Superstylin
From the album “Goodbye Country” (Hello nightclub), cat n° pepperrecords 9230498
5.1 remix from PCM master
Courtesy of Zomba Records Ltd.

07. Spyro Gyra – Florida Straights
From the album “in Modern Times”, cat n° HUSA 9061
5.1 remix from PCM master
Courtesy of Heads Up Int.

08. DJ Jean – Love Come Home
5.1 remix from PCM master
Courtesy of Digidance.

09. Frankie Goes To Hollywood – Relax
From the album “Rage Hard – The Sonic Collection”, cat n° ZTT177SACD
5.1 remix from analogue master
Courtesy of ZTT Records

10. Guano Apes – No Speech
From the album “Don’t Give Me Name”, cat n° super sonic records 790442
5.1 remix from analogue master
Courtesy of Gun Rcords, BMG Entertainment

11. Alice In Chains – Man In The Box
From the album “Greatest Hits”, cat n° CS 85922
5.1 remix from PCM master
Courtesy of Sony Music Entertainment

12. Earth Wind And Fire – Sing A Song
From the album “Gratitude”, cat n° CS 65737
5.1 remix from analogue master
Courtesy of Sony Music Entertainment

13. James Taylor – Jump Up Behind Me
From the album “Hourglass”, cat n° ACS 67912
5.1 remix from PCM master
Courtesy of Sony Music Entertainment

14. Diana Krall – The Look Of Love
From the album “The Look Of Love”, cat n° Verve 314 5895 9724
5.1 remix from analogue master
Courtesy of Verve / Universal Music Group

15. LSO, conducted by Jerry Goldsmith – Jerry Goldsmith: Theme from Papillon
From the album “The film msuic of Jerry Goldsmith”, cat n° SACD-60433
5.0 DSD recording
Courtesy of Telarc Records

16. Budapest Festival Orchestra conducted by Ivan Fischer – Johann Strauss: Long Live The Hungarians
Producted by Philips Int. for a Philips SACD demonstration disc called “Budapest Live” (Not for sale).
5.0 DSD recording

foobar2000 1.2.8 / Dynamic Range Meter 1.1.1

––––––––––––––––––––––––––––––––––––––––
Analyzed: Various artists / Total Music Immersion
––––––––––––––––––––––––––––––––––––––––

DR Peak RMS Duration Track
––––––––––––––––––––––––––––––––––––––––
DR10 -8.10 dB -20.48 dB 3:40 01-Independent women part I
DR11 -6.88 dB -21.82 dB 5:32 02-It's all coming back to me now
DR12 -5.01 dB -28.62 dB 4:39 03-Astor Piazzolla: Adiós Nonino
DR11 -6.22 dB -23.68 dB 4:00 04-Halt mich
DR11 -7.98 dB -21.53 dB 4:15 05-2-way
DR14 -7.86 dB -23.84 dB 6:01 06-Superstylin
DR14 -5.34 dB -21.14 dB 4:18 07-Florida Straits
DR14 -4.94 dB -25.63 dB 3:42 08-Love come home
DR13 -5.34 dB -22.40 dB 3:59 09-Relax
DR12 -4.18 dB -20.34 dB 3:30 10-No speech
DR9 -10.01 dB -19.92 dB 4:28 11-Man in the box
DR11 -7.21 dB -21.90 dB 3:25 12-Sing a song
DR11 -7.54 dB -20.71 dB 3:26 13-Jump up behind me
DR14 -3.88 dB -23.85 dB 4:41 14-The look of love
DR13 -5.10 dB -25.56 dB 1:44 15-Jerry Goldsmith: theme from Papillon
DR14 -3.95 dB -26.12 dB 2:59 16-Johann Strauss: Long Live the Hungarians
––––––––––––––––––––––––––––––––––––––––

Number of tracks: 16
Official DR value: DR12

Samplerate: 2822400 Hz / PCM Samplerate: 88200 Hz
Channels: 6
Bits per sample: 24
Bitrate: 16934 kbps
Codec: DST64
================================================================================

––––––––––––––––––––––––––––––––––––––––
Analyzed: Various artists / Total Music Immersion
––––––––––––––––––––––––––––––––––––––––

DR Peak RMS Duration Track
––––––––––––––––––––––––––––––––––––––––
DR6 -8.46 dB -16.34 dB 3:40 01-Independent women part I
DR8 -6.00 dB -18.40 dB 5:30 02-It's all coming back to me now
DR14 -5.46 dB -25.14 dB 4:40 03-Astor Piazzolla: Adiós Nonino
DR9 -6.48 dB -18.58 dB 4:02 04-Halt mich
DR7 -6.96 dB -16.16 dB 4:12 05-2-way
DR10 -5.68 dB -18.04 dB 6:01 06-Superstylin
DR11 -5.91 dB -18.28 dB 4:17 07-Florida Straits
DR9 -5.12 dB -15.94 dB 3:40 08-Love come home
DR9 -4.80 dB -16.45 dB 3:57 09-Relax
DR11 -3.62 dB -15.82 dB 3:30 10-No speech
DR7 -8.05 dB -15.96 dB 4:28 11-Man in the box
DR8 -5.91 dB -16.12 dB 3:25 12-Sing a song
DR9 -6.01 dB -16.99 dB 3:27 13-Jump up behind me
DR13 -7.28 dB -22.50 dB 4:41 14-The look of love
DR14 -5.61 dB -25.54 dB 1:45 15-Jerry Goldsmith: theme from Papillon
DR16 -3.97 dB -24.54 dB 3:00 16-Johann Strauss: Long Live the Hungarians
––––––––––––––––––––––––––––––––––––––––

Number of tracks: 16
Official DR value: DR10

Samplerate: 2822400 Hz / PCM Samplerate: 88200 Hz
Channels: 2
Bits per sample: 24
Bitrate: 5645 kbps
Codec: DST64


Thanks to Matt & ManWhoCan!
Uncompressed SACD ISO size > 4,13 GB