Subcategories

Various Artists - The Super Audio Collection Volume 6 (2013) [Linn 24-192]

Posted By: HDV
Various Artists - The Super Audio Collection Volume 6 (2013) [Linn 24-192]

Various Artists - The Super Audio Collection Volume 6 (2013)
FLAC (tracks) 24 bit/192 kHz | Time - 64:08 minutes | 2,53 GB
Official Digital Download - Source: LinnRecords.com | Covers & Digital Booklet

The sixth volume in the perpetually popular Linn Collection series features an appealing selection of tracks from the award-winning label's catalogue of artists. ‘The Super Audio Collection Volume 6' showcases the breadth of talent present in the Linn catalogue. Includes premiere recordings, memorable debuts and new takes on popular repertoire.

Tracklist:

Track 1 : Lazy Afternoon
Composer Jerome Moross, John La Touche
Soloist Claire Martin
Band Kenny Barron, Peter Washington, Kenny Washington, Steve Wilson

Track 2 : Electric Counterpoint Version for Percussions – Movement III: Fast
Composer Steve Reich
Soloist Kuniko Kato

Track 3 : Browning a5 (The leaves be green)
Composer William Byrd
Band Phantasm

Track 4 : Esther – Act Three, Scene 1
Composer George Frideric Handel
Conductor John Butt
Band Dunedin Consort

Track 5 : Piano Sonata No. 10 in C Major, K. 330: II. Andante cantabile
Composer Wolfgang Amadeus Mozart
Soloist Gottlieb Wallisch

Track 6 : On This Island, Op. 11 – Nocturne
Composer Benjamin Britten
Soloist James Gilchrist
Guest Artist Anna Tilbrook - piano

Track 7 : Sonata in G minor, Z. 790 – V. Largo
Composer Henry Purcell
Band Retrospect Trio

Track 8 : Apollo et Hyacinthus – Duetto: Discede crudelis!
Composer Wolfgang Amadeus Mozart
Conductor Ian Page
Band Classical Opera

Track 9 : Suite No 1 in G Major, BWV. 1007– III. Courante
Composer J.S. Bach
Soloist Richard Tunnicliffe

Track 10 : Lux aeterna (Strathclyde Motet)
Composer James MacMillan
Conductor Alan Tavener
Band Cappella Nova

Track 11 : The Four Seasons – Violin Concerto in F minor, Op. 8, No 4, RV. 297, ‘L’Inverno’ (Winter) – I. Allegro con molto
Composer Antonio Vivaldi
Conductor Pavlo Beznosiuk
Band Avison Ensemble

Track 12 : Liebeslieder Opus 52 – Am Donaustrande, da steht ein Haus
Composer Johannes Brahms
Band Prince Consort

Track 13 : Quartet for oboe, violin, viola and cello in F Major, K. 370 – III. Rondeau Allegro
Composer Wolfgang Amadeus Mozart
Conductor Alexander Janiczek
Band Scottish Chamber Orchestra Ensemble

Track 14 : Missa Philippus Secundus Rex Hispaniae – Agnus Dei
Composer Philippe Rogier
Conductor Philip Cave
Band Magnificat

Track 15 : Symphonie Fantastique, Op. 14 – Marche au supplice
Composer Hector Berlioz
Conductor Robin Ticciati
Band Scottish Chamber Orchestra


Analyzed: Various Artists / The Super Audio Collection Volume 6
––––––––––––––––––––––––––––––––––––––––

DR Peak RMS Duration Track
––––––––––––––––––––––––––––––––––––––––
DR11 -3.52 dB -17.52 dB 4:00 01-Lazy Afternoon
DR10 -6.53 dB -20.07 dB 4:31 02-Electric Counterpoint Version for Percussions – Movement III: Fast
DR11 -6.00 dB -20.38 dB 4:38 03-Browning a5 (The leaves be green)
DR13 -1.05 dB -18.68 dB 6:13 04-Esther – Act Three, Scene 1
DR16 -2.56 dB -22.93 dB 5:51 05-Piano Sonata No. 10 in C Major, K. 330: II. Andante cantabile
DR14 -3.05 dB -24.55 dB 3:55 06-On This Island, Op. 11 – Nocturne
DR11 -7.30 dB -22.42 dB 1:53 07-Sonata in G minor, Z. 790 – V. Largo
DR14 -2.39 dB -20.87 dB 6:21 08-Apollo et Hyacinthus – Duetto: Discede crudelis!
DR12 -6.86 dB -22.24 dB 2:46 09-Suite No 1 in G Major, BWV. 1007– III. Courante
DR11 -0.65 dB -16.37 dB 3:45 10-Lux aeterna (Strathclyde Motet)
DR13 -0.89 dB -20.45 dB 3:27 11-The Four Seasons – Violin Concerto in F minor, Op. 8, No 4, RV. 297, ‘L’Inverno’ (Winter) – I. Allegro con molto
DR13 -2.54 dB -21.08 dB 2:08 12-Liebeslieder Opus 52 – Am Donaustrande, da steht ein Haus
DR12 -5.58 dB -21.44 dB 4:27 13-Quartet for oboe, violin, viola and cello in F Major, K. 370 – III. Rondeau Allegro
DR11 -1.12 dB -17.35 dB 3:37 14-Missa Philippus Secundus Rex Hispaniae – Agnus Dei
DR14 -0.63 dB -19.95 dB 6:37 15-Symphonie Fantastique, Op. 14 – Marche au supplice
––––––––––––––––––––––––––––––––––––––––

Number of tracks: 15
Official DR value: DR13

Samplerate: 192000 Hz
Channels: 2
Bits per sample: 24
Bitrate: 5075 kbps
Codec: FLAC
================================================================================


Thanks to the Original customer!