Various Artists - Looking Into You: A Tribute To Jackson Browne (2014) [Official Digital Download 24bit/96kHz] RE-UP

Posted By: HDV
Various Artists - Looking Into You: A Tribute To Jackson Browne (2014) [Official Digital Download 24bit/96kHz] RE-UP

V.A. - Looking Into You: A Tribute To Jackson Browne (2014)
FLAC (tracks) 24 bit/96 kHz | Time - 114:41 minutes | 2,42 GB
Studio Master, Official Digital Download | Artwork: Digital booklet

Looking Into You, the first ever tribute album honoring Jackson Browne, features a mix of Browne's old friends, fellow Rock and Roll Hall of Famers, and younger admirers offering their own interpretations of 23 hits and album cuts from the songwriter's extensive catalog. Among those who lent their talents to this double-disc set are Ben Harper, Don Henley with Blind Pilot, Lyle Lovett, Keb' Mo', Bonnie Raitt, Bruce Springsteen & Patti Scialfa, and Lucinda Williams.

Split fairly neatly between his contemporaries and those who followed in his footsteps, Looking into You: A Tribute to Jackson Browne is a generous tribute to the quintessential singer/songwriter, running 23 songs over the course of two CDs. In all that space, the producers don't find much room for Browne's lighter moments – his new wave and soft rock flirtations of the early '80s are absent, there's no "Somebody's Baby" or "Tender Is the Night," nor is the road warrior of Running on Empty emphasized, although Texan homebody Bob Schneider sings that album's title track – and the predilection for ruminative introspection eventually gets a little heavy, but on a track-by-track basis this collection is very good. Perhaps Browne's contemporaries fare the best – Bonnie Raitt and David Lindley team for a fine "Everywhere I Go," J.D. Souther sings "My Opening Farewell," Bruce Springsteen and wife Patti Scialfa team for "Linda Paloma," and Karla Bonoff resurfaces with "Something Fine" – but there are also nice turns by Lyle Lovett ("Our Lady of the Well"), Paul Thorn ("Doctor My Eyes"), Sean & Sara Watkins ("Your Bright Baby Blues"), and the surprise duo of Joan as Police Woman and Marc Cohn ("Too Many Angels"). If there are no knockouts here, the sly, subtle approach also emphasizes the fine craft of Browne, which is a nice thing to say about a tribute album.

Tracklist:

01 - Don Henley & Blind Pilot - These Days
02 - Bonnie Raitt & David Lindley - Everywhere I Go
03 - Bob Schneider - Running on Empty
04 - Indigo Girls - Fountain of Sorrow
05 - Paul Thorn - Doctor My Eyes
06 - Jimmy LaFave - For Everyman
07 - Griffin House - Barricades of Heaven
08 - Lyle Lovett - Our Lady of the Well
09 - Ben Harper - Jamaica Say You Will
10 - Eliza Gilkyson - Before the Deluge
11 - Venice - For a Dancer
12 - Kevin Welch - Looking into You
13 - Keb' Mo' - Rock Me on the Water
14 - Lucinda Williams - The Pretender
15 - Lyle Lovett - Rosie
16 - Karla Bonoff - Something Fine
17 - Marc Cohn & Joan As Police Woman - Too Many Angels
18 - Sean Watkins & Sara Watkins - Your Bright Baby Blues
19 - Bruce Springsteen & Patti Scialfa - Linda Paloma
20 - Shawn Colvin - Call It a Loan
21 - Bruce Hornsby - I'm Alive
22 - Joan Osborne - Late for the Sky
23 - JD Souther - My Opening Farewell

Recorded at Flora Recording and Playback, Portland, OR; Ocean Way Studios, Hollywood, CA;
Cedar Creek Recording, Austin, TX; Tree Sound Studios, Norcross, GA;
Phantom Powers Studio; Studio 5109; Lennon Music Studios; Stu Stu Studio, Franklin TN;
Moraine Studio, Nashville, TN; Fivestarstudios, Los Angeles, CA; The Maid’s Room, New York, NY;
Stone Hill Studio; Paragon Studios, Nashville, TN.

Analyzed: Ben Harper / Looking into You: A Tribute to Jackson Browne (1)
Bob Schneider / Looking into You: A Tribute to Jackson Browne (2)
Bonnie Raitt & David Lindley / Looking into You: A Tribute to Jackson Browne (3)
Bruce Hornsby / Looking into You: A Tribute to Jackson Browne (4)
Bruce Springsteen & Patti Scialfa / Looking into You: A Tribute to Jackson Browne (5)
Don Henley & Blind Pilot / Looking into You: A Tribute to Jackson Browne (6)
Eliza Gilkyson / Looking into You: A Tribute to Jackson Browne (7)
Griffin House / Looking into You: A Tribute to Jackson Browne (8)
Indigo Girls / Looking into You: A Tribute to Jackson Browne (9)
JD Souther / Looking into You: A Tribute to Jackson Browne (10)
Jimmy LaFave / Looking into You: A Tribute to Jackson Browne (11)
Joan Osborne / Looking into You: A Tribute to Jackson Browne (12)
Karla Bonoff / Looking into You: A Tribute to Jackson Browne (13)
Keb' Mo' / Looking into You: A Tribute to Jackson Browne (14)
Kevin Welch / Looking into You: A Tribute to Jackson Browne (15)
Lucinda Williams / Looking into You: A Tribute to Jackson Browne (16)
Lyle Lovett / Looking into You: A Tribute to Jackson Browne (17-18)
Marc Cohn & Joan As Police Woman / Looking into You: A Tribute to Jackson Browne (19)
Paul Thorn / Looking into You: A Tribute to Jackson Browne (20)
Sean Watkins & Sara Watkins / Looking into You: A Tribute to Jackson Browne (21)
Shawn Colvin / Looking into You: A Tribute to Jackson Browne (22)
Venice / Looking into You: A Tribute to Jackson Browne (23)
––––––––––––––––––––––––––––––––––––––––

DR Peak RMS Duration Track
––––––––––––––––––––––––––––––––––––––––
DR7 -0.07 dB -10.55 dB 3:22 09-Jamaica Say You Will
DR9 -0.15 dB -10.75 dB 4:54 03-Running on Empty
DR8 -0.05 dB -9.51 dB 4:59 02-Everywhere I Go
DR9 -0.09 dB -11.10 dB 4:06 21-I'm Alive
DR7 -0.09 dB -8.93 dB 3:46 19-Linda Paloma
DR8 -0.08 dB -10.44 dB 3:35 01-These Days
DR7 -0.10 dB -9.31 dB 5:59 10-Before the Deluge
DR8 -0.09 dB -10.13 dB 6:00 07-Barricades of Heaven
DR7 -0.09 dB -8.47 dB 7:47 04-Fountain of Sorrow
DR8 -0.14 dB -9.07 dB 4:52 23-My Opening Farewell
DR7 -0.09 dB -9.55 dB 6:53 06-For Everyman
DR8 -0.10 dB -11.58 dB 5:17 22-Late for the Sky
DR10 -0.10 dB -12.64 dB 4:38 16-Something Fine
DR8 -0.08 dB -10.05 dB 4:15 13-Rock Me on the Water
DR10 -0.10 dB -13.19 dB 5:39 12-Looking into You
DR8 -0.10 dB -11.37 dB 6:56 14-The Pretender
DR7 0.00 dB -10.26 dB 3:53 08-Our Lady of the Well
DR8 -0.10 dB -10.38 dB 3:44 15-Rosie
DR8 -0.08 dB -10.83 dB 4:46 17-Too Many Angels
DR7 -0.07 dB -8.59 dB 3:29 05-Doctor My Eyes
DR7 -0.09 dB -9.60 dB 6:37 18-Your Bright Baby Blues
DR9 -0.10 dB -10.71 dB 4:29 20-Call It a Loan
DR7 -0.10 dB -10.65 dB 4:45 11-For a Dancer
––––––––––––––––––––––––––––––––––––––––

Number of tracks: 23
Official DR value: DR8

Samplerate: 96000 Hz
Channels: 2
Bits per sample: 24
Bitrate: 2921 kbps
Codec: FLAC
================================================================================


Thanks to the Original customer!