Rush - Sectors (2011/2013) [Official Digital Download 24bit/96kHz]

Posted By: HDV
Rush - Sectors (2011/2013) [Official Digital Download 24bit/96kHz]

Rush - Sectors (2011/2013)
FLAC (tracks) 24 bit/96 kHz | Time - 720:40 minutes | 15,42 GB
Official Digital Download - Source: | Digital booklets

proud to celebrate the legacy of Canadian rock trio Rush with three separate five-album sets which together spans their entire historic Mercury Records recording career. Each sector contains five of their fifteen Mercury albums in chronological order. In addition, each volume includes a booklet with unpublished photos, original album lyrics and credits.


Rush - Sectors (2011/2013) [Official Digital Download 24bit/96kHz]

Rush - Rush (1974/2013)
FLAC (tracks) 24 bit/96 kHz | Time - 40:19 minutes | 911 MB
Official Digital Download - Source: | Digital booklet

Their hard-rocking, self-titled 1974 debut hit the Billboard 200 and features classics such as “Working Man” and “Finding My Way.”

Tracklist:

01 - Finding My Way
02 - Need Some Love
03 - Take A Friend
04 - Here Again
05 - What You're Doing
06 - In The Mood
07 - Before And After
08 - Working Man

Analyzed: Rush / Rush
––––––––––––––––––––––––––––––––––––––––

DR Peak RMS Duration Track
––––––––––––––––––––––––––––––––––––––––
DR8 -0.10 dB -9.45 dB 5:07 01-Finding My Way
DR9 -0.10 dB -10.17 dB 2:21 02-Need Some Love
DR9 -0.10 dB -10.22 dB 4:27 03-Take A Friend
DR8 -0.10 dB -9.96 dB 7:36 04-Here Again
DR10 -0.10 dB -10.59 dB 4:24 05-What You're Doing
DR10 -0.10 dB -10.72 dB 3:37 06-In The Mood
DR9 -0.10 dB -11.37 dB 5:36 07-Before And After
DR9 -0.10 dB -9.82 dB 7:10 08-Working Man
––––––––––––––––––––––––––––––––––––––––

Number of tracks: 8
Official DR value: DR9

Samplerate: 96000 Hz
Channels: 2
Bits per sample: 24
Bitrate: 3279 kbps
Codec: FLAC
================================================================================



…………………………………………………………………………………………………………………………………..

Rush - Sectors (2011/2013) [Official Digital Download 24bit/96kHz]

Rush - Fly By Night (1975/2013)
FLAC (tracks) 24 bit/96 kHz | Time - 37:50 minutes | 838 MB
Official Digital Download - Source: | Digital booklet

Released in 1975, Fly By Night sees the debut of drummer Neil Peart who would help drive the band towards more complex material. Included are fan favorites such as the title track, “Anthem” and the eight-minute composition “By-Tor And The Snow Dog,” which shows the band’s musical growth and progression.

Tracklist:

01 - Anthem
02 - Best I Can
03 - Beneath, Between & Behind
04 - By-Tor And The Snow Dog
05 - Fly By Night
06 - Making Memories
07 - Rivendell
08 - In The End

Analyzed: Rush / Fly By Night
––––––––––––––––––––––––––––––––––––––––

DR Peak RMS Duration Track
––––––––––––––––––––––––––––––––––––––––
DR9 -0.05 dB -9.97 dB 4:26 01-Anthem
DR10 -0.05 dB -10.81 dB 3:28 02-Best I Can
DR9 -0.05 dB -10.34 dB 3:05 03-Beneath, Between & Behind
DR10 -0.05 dB -12.47 dB 8:40 04-By-Tor And The Snow Dog
DR9 -0.05 dB -10.88 dB 3:22 05-Fly By Night
DR10 -0.05 dB -12.20 dB 3:00 06-Making Memories
DR14 -1.75 dB -21.37 dB 5:00 07-Rivendell
DR11 -0.05 dB -14.16 dB 6:49 08-In The End
––––––––––––––––––––––––––––––––––––––––

Number of tracks: 8
Official DR value: DR10

Samplerate: 96000 Hz
Channels: 2
Bits per sample: 24
Bitrate: 2817 kbps
Codec: FLAC
================================================================================



…………………………………………………………………………………………………………………………………..

Rush - Sectors (2011/2013) [Official Digital Download 24bit/96kHz]

Rush - Caress Of Steel (1975/2013)
FLAC (tracks) 24 bit/96 kHz | Time - 45:19 minutes | 1,01 GB
Official Digital Download - Source: | Digital booklet

Also released in 1975, Caress Of Steel hit the Top 200 and gives a further glimpse of the band leaning towards prog-rock and features Rush classics such as “Lakeside Park” and “Bastille Day”.

Tracklist:

01 - Bastille Day
02 - I Think I'm Going Bald
03 - Lakeside Park
04 - The Necromancer
05 - The Fountain Of Lamneth

Analyzed: Rush / Caress Of Steel
––––––––––––––––––––––––––––––––––––––––

DR Peak RMS Duration Track
––––––––––––––––––––––––––––––––––––––––
DR7 -0.10 dB -8.95 dB 4:42 01-Bastille Day
DR8 -0.10 dB -9.41 dB 3:43 02-I Think I'm Going Bald
DR9 -0.10 dB -11.59 dB 4:12 03-Lakeside Park
DR7 -0.09 dB -10.28 dB 12:37 04-The Necromancer
DR7 0.00 dB -11.04 dB 20:06 05-The Fountain Of Lamneth
––––––––––––––––––––––––––––––––––––––––

Number of tracks: 5
Official DR value: DR8

Samplerate: 96000 Hz
Channels: 2
Bits per sample: 24
Bitrate: 3002 kbps
Codec: FLAC
================================================================================



…………………………………………………………………………………………………………………………………..

Rush - Sectors (2011/2013) [Official Digital Download 24bit/96kHz]

Rush - 2112 (1976/2013)
FLAC (tracks) 24 bit/96 kHz | Time - 38:54 minutes | 879 MB
Official Digital Download - Source: | Digital booklet

One of Rush’s all-time classics, 2112 was the band’s commercial breakthrough reaching the Top 100 on the album chart and remains one of their most popular albums, successfully merging prog-rock with their hard rock roots, a first for its time. 2112 features epic tracks such as the 20-minute title track “2112”.

Tracklist:

01 - 2112: Overture / The Temples Of Syrinx / Discovery / Presentation / Oracle / Soliloquy / Grand Finale
02 - A Passage To Bangkok
03 - The Twilight Zone
04 - Lessons
05 - Tears
06 - Something For Nothing

Analyzed: Rush / 2112 - Deluxe Edition
––––––––––––––––––––––––––––––––––––––––

DR Peak RMS Duration Track
––––––––––––––––––––––––––––––––––––––––
DR8 -0.05 dB -11.14 dB 20:33 01-2112: Overture / The Temples Of Syrinx / Discovery / Presentation / Oracle / Soliloquy / Grand Finale
DR8 -0.05 dB -9.36 dB 3:35 02-A Passage To Bangkok
DR9 -0.05 dB -10.52 dB 3:20 03-The Twilight Zone
DR7 -0.05 dB -9.56 dB 3:53 04-Lessons
DR10 -0.05 dB -14.00 dB 3:34 05-Tears
DR9 -0.05 dB -10.86 dB 3:59 06-Something For Nothing
––––––––––––––––––––––––––––––––––––––––

Number of tracks: 6
Official DR value: DR8

Samplerate: 96000 Hz
Channels: 2
Bits per sample: 24
Bitrate: 3077 kbps
Codec: FLAC
================================================================================



…………………………………………………………………………………………………………………………………..

Rush - Sectors (2011/2013) [Official Digital Download 24bit/96kHz]

Rush - All The World's A Stage (1976/2013)
FLAC (tracks) 24 bit/96 kHz | Time - 79:47 minutes | 1,92 GB
Official Digital Download - Source: | Digital booklet

Hitting Top 50, this was Rush’s first live album and features classics such as “Fly By Night/In The Mood” which reached the Top 100, “2112,” “Bastille Day” and “Something For Nothing”.

Tracklist:

01 - Bastille Day (Live At Massey Hall, Toronto / 1976)
02 - Anthem (Live At Massey Hall, Toronto / 1976)
03 - Fly By Night / In The Mood (Live At Massey Hall, Toronto / 1976)
04 - Something For Nothing (Live At Massey Hall, Toronto / 1976)
05 - Lakeside Park (Live At Massey Hall, Toronto / 1976)
06 - 2112 (Live At Massey Hall, Toronto / 1976)
07 - By-Tor And The Snow Dog (Live At Massey Hall, Toronto / 1976)
08 - In The End (Live At Massey Hall, Toronto / 1976)
09 - Working Man/Finding My Way (Live At Massey Hall, Toronto / 1976)
10 - What You're Doing (Live At Massey Hall, Toronto / 1976)

Analyzed: Rush / All The World's A Stage
––––––––––––––––––––––––––––––––––––––––

DR Peak RMS Duration Track
––––––––––––––––––––––––––––––––––––––––
DR9 -0.05 dB -10.64 dB 4:58 01-Bastille Day (Live At Massey Hall, Toronto / 1976)
DR9 -0.05 dB -10.97 dB 4:57 02-Anthem (Live At Massey Hall, Toronto / 1976)
DR9 -0.05 dB -9.99 dB 5:04 03-Fly By Night / In The Mood (Live At Massey Hall, Toronto / 1976)
DR7 -0.05 dB -9.19 dB 4:02 04-Something For Nothing (Live At Massey Hall, Toronto / 1976)
DR9 -0.05 dB -10.89 dB 5:04 05-Lakeside Park (Live At Massey Hall, Toronto / 1976)
DR9 -0.05 dB -11.27 dB 15:51 06-2112 (Live At Massey Hall, Toronto / 1976)
DR8 -0.05 dB -10.57 dB 11:58 07-By-Tor And The Snow Dog (Live At Massey Hall, Toronto / 1976)
DR7 -0.05 dB -10.50 dB 7:14 08-In The End (Live At Massey Hall, Toronto / 1976)
DR7 -0.05 dB -9.40 dB 14:57 09-Working Man/Finding My Way (Live At Massey Hall, Toronto / 1976)
DR6 -0.05 dB -7.91 dB 5:42 10-What You're Doing (Live At Massey Hall, Toronto / 1976)
––––––––––––––––––––––––––––––––––––––––

Number of tracks: 10
Official DR value: DR8

Samplerate: 96000 Hz
Channels: 2
Bits per sample: 24
Bitrate: 3352 kbps
Codec: FLAC
================================================================================



…………………………………………………………………………………………………………………………………..

Rush - Sectors (2011/2013) [Official Digital Download 24bit/96kHz]

Rush - A Farewell To Kings (1977/2013)
FLAC (tracks) 24 bit/96 kHz | Time - 37:27 minutes | 841 MB
Official Digital Download - Source: | Digital booklet

Their 1977 Top 40 release features their hits “Closer To The Heart,” “Xanadu” and the title track, “A Farewell To Kings”.

Tracklist:

01 - A Farewell To Kings
02 - Xanadu
03 - Closer To The Heart
04 - Cinderella Man
05 - Madrigal
06 - Cygnus X-1 Book One-The Voyage Prologue

Analyzed: Rush / A Farewell To Kings
––––––––––––––––––––––––––––––––––––––––

DR Peak RMS Duration Track
––––––––––––––––––––––––––––––––––––––––
DR8 -0.10 dB -10.93 dB 5:55 01-A Farewell To Kings
DR7 -0.05 dB -10.08 dB 11:10 02-Xanadu
DR9 -0.05 dB -12.57 dB 2:56 03-Closer To The Heart
DR9 -0.05 dB -11.07 dB 4:23 04-Cinderella Man
DR14 -0.10 dB -17.72 dB 2:37 05-Madrigal
DR7 -0.10 dB -11.09 dB 10:26 06-Cygnus X-1 Book One-The Voyage Prologue
––––––––––––––––––––––––––––––––––––––––

Number of tracks: 6
Official DR value: DR9

Samplerate: 96000 Hz
Channels: 2
Bits per sample: 24
Bitrate: 2880 kbps
Codec: FLAC
================================================================================



…………………………………………………………………………………………………………………………………..

Rush - Sectors (2011/2013) [Official Digital Download 24bit/96kHz]

Rush - Hemispheres (1978/2013)
FLAC (tracks) 24 bit/96 kHz | Time - 36:16 minutes | 875 MB
Official Digital Download - Source: | Digital booklet

Reaching Top 50 on the album chart, Hemispheres includes the 20-minute opus “Cygnus X-1 Book II – Hemispheres” and the metaphoric social commentary “The Trees”.

Tracklist:

01 - Cygnus X-1 Book II Hemispheres
02 - Circumstances
03 - The Trees
04 - La Villa Strangiato

Analyzed: Rush / Hemispheres
––––––––––––––––––––––––––––––––––––––––

DR Peak RMS Duration Track
––––––––––––––––––––––––––––––––––––––––
DR9 -0.10 dB -11.37 dB 18:10 01-Cygnus X-1 Book II Hemispheres
DR8 -0.10 dB -9.43 dB 3:45 02-Circumstances
DR8 -0.10 dB -11.15 dB 4:45 03-The Trees
DR8 -0.10 dB -10.64 dB 9:36 04-La Villa Strangiato
––––––––––––––––––––––––––––––––––––––––

Number of tracks: 4
Official DR value: DR8

Samplerate: 96000 Hz
Channels: 2
Bits per sample: 24
Bitrate: 3213 kbps
Codec: FLAC
================================================================================



…………………………………………………………………………………………………………………………………..

Rush - Sectors (2011/2013) [Official Digital Download 24bit/96kHz]

Rush - Permanent Waves (1980/2013)
FLAC (tracks) 24 bit/96 kHz | Time - 35:36 minutes | 871 MB
Official Digital Download - Source: | Digital booklet

This 1980 release hit No.4 on the Billboard 200 and features classics such as “Freewill” and “The Spirit Of Radio”.

Tracklist:

01 - The Spirit Of Radio
02 - Freewill
03 - Jacob's Ladder
04 - Entre Nous
05 - Different Strings
06 - Natural Science

Analyzed: Rush / Permanent Waves
––––––––––––––––––––––––––––––––––––––––

DR Peak RMS Duration Track
––––––––––––––––––––––––––––––––––––––––
DR9 -0.10 dB -10.68 dB 4:59 01-The Spirit Of Radio
DR10 -0.10 dB -10.99 dB 5:24 02-Freewill
DR9 -0.10 dB -12.36 dB 7:29 03-Jacob's Ladder
DR9 -0.10 dB -10.41 dB 4:37 04-Entre Nous
DR9 -0.10 dB -12.67 dB 3:50 05-Different Strings
DR8 -0.10 dB -10.77 dB 9:16 06-Natural Science
––––––––––––––––––––––––––––––––––––––––

Number of tracks: 6
Official DR value: DR9

Samplerate: 96000 Hz
Channels: 2
Bits per sample: 24
Bitrate: 3276 kbps
Codec: FLAC
================================================================================



…………………………………………………………………………………………………………………………………..

Rush - Sectors (2011/2013) [Official Digital Download 24bit/96kHz]

Rush - Moving Pictures (1981/2013)
FLAC (tracks) 24 bit/96 kHz | Time - 40:06 minutes | 445 MB
Official Digital Download - Source: | Digital booklet

Considered one of the greatest hard rock albums of all time, this quadruple Platinum-selling masterpiece features rock radio staples “Tom Sawyer,” “Red Barchetta,” “Vital Signs” and “Limelight”.

Tracklist:

01 - Tom Sawyer
02 - Red Barchetta
03 - YYZ
04 - Limelight
05 - The Camera Eye
06 - Witch Hunt
07 - Vital Signs

Analyzed: Rush / Moving Pictures
––––––––––––––––––––––––––––––––––––––––

DR Peak RMS Duration Track
––––––––––––––––––––––––––––––––––––––––
DR11 -0.10 dB -12.05 dB 4:37 01-Tom Sawyer
DR11 -0.10 dB -12.69 dB 6:10 02-Red Barchetta
DR11 -0.10 dB -12.78 dB 4:26 03-YYZ
DR11 -0.10 dB -12.80 dB 4:22 04-Limelight
DR11 -0.10 dB -13.06 dB 10:59 05-The Camera Eye
DR10 -0.10 dB -13.20 dB 4:46 06-Witch Hunt
DR11 -0.10 dB -12.95 dB 4:46 07-Vital Signs
––––––––––––––––––––––––––––––––––––––––

Number of tracks: 7
Official DR value: DR11

Samplerate: 96000 Hz
Channels: 2
Bits per sample: 24
Bitrate: 1412 kbps
Codec: FLAC
================================================================================



…………………………………………………………………………………………………………………………………..

Rush - Sectors (2011/2013) [Official Digital Download 24bit/96kHz]

Rush - Exit…Stage Left (1981/2013)
FLAC (tracks) 24 bit/96 kHz | Time - 76:53 minutes | 1,79 GB
Official Digital Download - Source: | Digital booklet

Released in 1981, this Top 10 live album features performances of favorites such as “Tom Sawyer,” “Freewill,” “YYZ” and deeper album tracks such as “La Villa Strangiato” and “Broon’s Bane”.

Tracklist:

01 - The Spirit Of Radio (Live In Canada / 1980)
02 - Red Barchetta (Live In Canada / 1980)
03 - YYZ (Live In Canada / 1980)
04 - A Passage To Bangkok (Live In The UK / 1980)
05 - Closer To The Heart (Live In The UK / 1980)
06 - Beneath, Between & Behind (Live In The UK / 1980)
07 - Jacob's Ladder (Live In The UK / 1980)
08 - Broon's Bane (Live In Canada / 1980)
09 - The Trees (Live In Canada / 1980)
10 - Xanadu (Live In Canada / 1980)
11 - Freewill (Live In Canada / 1980)
12 - Tom Sawyer (Live In Canada / 1980)
13 - La Villa Strangiato (Live In Canada / 1980)

Analyzed: Rush / Exit…Stage Left
––––––––––––––––––––––––––––––––––––––––

DR Peak RMS Duration Track
––––––––––––––––––––––––––––––––––––––––
DR8 -0.05 dB -9.20 dB 5:13 01-The Spirit Of Radio (Live In Canada / 1980)
DR7 -0.05 dB -8.61 dB 6:49 02-Red Barchetta (Live In Canada / 1980)
DR6 -0.05 dB -8.48 dB 7:45 03-YYZ (Live In Canada / 1980)
DR6 -0.05 dB -7.53 dB 3:46 04-A Passage To Bangkok (Live In The UK / 1980)
DR5 -0.05 dB -7.36 dB 3:08 05-Closer To The Heart (Live In The UK / 1980)
DR5 -0.05 dB -6.93 dB 2:35 06-Beneath, Between & Behind (Live In The UK / 1980)
DR6 -0.05 dB -9.31 dB 8:48 07-Jacob's Ladder (Live In The UK / 1980)
DR11 -4.51 dB -19.51 dB 1:37 08-Broon's Bane (Live In Canada / 1980)
DR6 -0.05 dB -8.61 dB 4:50 09-The Trees (Live In Canada / 1980)
DR6 -0.05 dB -8.82 dB 12:10 10-Xanadu (Live In Canada / 1980)
DR6 -0.05 dB -7.44 dB 5:33 11-Freewill (Live In Canada / 1980)
DR7 -0.05 dB -8.10 dB 5:00 12-Tom Sawyer (Live In Canada / 1980)
DR8 -0.05 dB -10.69 dB 9:38 13-La Villa Strangiato (Live In Canada / 1980)
––––––––––––––––––––––––––––––––––––––––

Number of tracks: 13
Official DR value: DR7

Samplerate: 96000 Hz
Channels: 2
Bits per sample: 24
Bitrate: 3109 kbps
Codec: FLAC
================================================================================



…………………………………………………………………………………………………………………………………..

Rush - Sectors (2011/2013) [Official Digital Download 24bit/96kHz]

Rush - Signals (1982/2013)
FLAC (tracks) 24 bit/96 kHz | Time - 43:00 minutes | 1,01 GB
Official Digital Download - Source: | Digital booklet

The synthesizer-driven Signals reached Top 10 and produced their No. 1 hit “New World Man” and the Top 20 hits “Subdivisions” and “The Analog Kid”.

Tracklist:

01 - Subdivisions
02 - The Analog Kid
03 - Chemistry
04 - Digital Man
05 - The Weapon
06 - New World Man
07 - Losing It
08 - Countdown

Analyzed: Rush / Signals
––––––––––––––––––––––––––––––––––––––––

DR Peak RMS Duration Track
––––––––––––––––––––––––––––––––––––––––
DR8 -0.10 dB -9.86 dB 5:38 01-Subdivisions
DR9 -0.10 dB -10.74 dB 4:50 02-The Analog Kid
DR9 -0.10 dB -10.89 dB 4:59 03-Chemistry
DR10 -0.10 dB -11.77 dB 6:28 04-Digital Man
DR9 -0.10 dB -10.90 dB 6:32 05-The Weapon
DR9 -0.10 dB -10.76 dB 3:49 06-New World Man
DR10 -0.10 dB -12.05 dB 4:53 07-Losing It
DR8 -0.10 dB -10.48 dB 5:51 08-Countdown
––––––––––––––––––––––––––––––––––––––––

Number of tracks: 8
Official DR value: DR9

Samplerate: 96000 Hz
Channels: 2
Bits per sample: 24
Bitrate: 3160 kbps
Codec: FLAC
================================================================================



…………………………………………………………………………………………………………………………………..

Rush - Sectors (2011/2013) [Official Digital Download 24bit/96kHz]

Rush - Grace Under Pressure (1984/2013)
FLAC (tracks) 24 bit/96 kHz | Time - 39:44 minutes | 1003 MB
Official Digital Download - Source: | Digital booklet

This 1984 release hit Top 10 on Billboard’s album chart and features classics such as “Red Sector A” and “Distant Early Warning”.

Tracklist:

01 - Distant Early Warning
02 - Afterimage
03 - Red Sector A
04 - The Enemy Within
05 - The Body Electric
06 - Kid Gloves
07 - Red Lenses
08 - Between The Wheels

Analyzed: Rush / Grace Under Pressure
––––––––––––––––––––––––––––––––––––––––

DR Peak RMS Duration Track
––––––––––––––––––––––––––––––––––––––––
DR8 -0.05 dB -9.56 dB 4:57 01-Distant Early Warning
DR10 -0.05 dB -11.21 dB 5:05 02-Afterimage
DR10 -0.05 dB -11.57 dB 5:11 03-Red Sector A
DR9 -0.05 dB -10.94 dB 4:39 04-The Enemy Within
DR9 -0.10 dB -10.20 dB 5:01 05-The Body Electric
DR8 -0.05 dB -8.96 dB 4:21 06-Kid Gloves
DR11 -0.05 dB -12.54 dB 4:45 07-Red Lenses
DR9 -0.05 dB -10.73 dB 5:47 08-Between The Wheels
––––––––––––––––––––––––––––––––––––––––

Number of tracks: 8
Official DR value: DR9

Samplerate: 96000 Hz
Channels: 2
Bits per sample: 24
Bitrate: 3329 kbps
Codec: FLAC
================================================================================



…………………………………………………………………………………………………………………………………..

Rush - Sectors (2011/2013) [Official Digital Download 24bit/96kHz]

Rush - Power Windows (1985/2013)
FLAC (tracks) 24 bit/96 kHz | Time - 44:46 minutes | 1,06 GB
Official Digital Download - Source: | Digital booklet

Released in 1985, Power Windows features Top 10 hits “Marathon” and “The Big Money,” plus the Top 50 hits “Territories” and “Mystic Rhythms”.

Tracklist:

01 - The Big Money
02 - Grand Designs
03 - Manhattan Project
04 - Marathon
05 - Territories
06 - Middletown Dreams
07 - Emotion Detector
08 - Mystic Rhythms

Analyzed: Rush / Power Windows
––––––––––––––––––––––––––––––––––––––––

DR Peak RMS Duration Track
––––––––––––––––––––––––––––––––––––––––
DR7 -0.05 dB -8.57 dB 5:37 01-The Big Money
DR7 -0.05 dB -9.13 dB 5:07 02-Grand Designs
DR7 -0.05 dB -8.60 dB 5:05 03-Manhattan Project
DR8 -0.05 dB -9.62 dB 6:10 04-Marathon
DR7 -0.05 dB -9.15 dB 6:19 05-Territories
DR7 -0.05 dB -9.37 dB 5:15 06-Middletown Dreams
DR8 -0.05 dB -9.27 dB 5:11 07-Emotion Detector
DR7 -0.05 dB -8.95 dB 6:02 08-Mystic Rhythms
––––––––––––––––––––––––––––––––––––––––

Number of tracks: 8
Official DR value: DR7

Samplerate: 96000 Hz
Channels: 2
Bits per sample: 24
Bitrate: 3203 kbps
Codec: FLAC
================================================================================



…………………………………………………………………………………………………………………………………..

Rush - Sectors (2011/2013) [Official Digital Download 24bit/96kHz]

Rush - Hold Your Fire (1987/2013)
FLAC (tracks) 24 bit/96 kHz | Time - 50:25 minutes | 1,13 GB
Official Digital Download - Source: | Digital booklet

The Top 20 album includes “Force Ten” and “Time Stand Still” with both reaching No. 3 on the Mainstream Rock chart, plus the Top 50 hits “Lock And Key” and “Mission”.

Tracklist:

01 - Force Ten
02 - Time Stand Still
03 - Open Secrets
04 - Second Nature
05 - Prime Mover
06 - Lock And Key
07 - Mission
08 - Turn The Page
09 - Tai Shan
10 - High Water

Analyzed: Rush / Hold Your Fire
––––––––––––––––––––––––––––––––––––––––

DR Peak RMS Duration Track
––––––––––––––––––––––––––––––––––––––––
DR9 -0.05 dB -10.42 dB 4:32 01-Force Ten
DR8 -0.05 dB -9.82 dB 5:08 02-Time Stand Still
DR8 -0.05 dB -9.62 dB 5:39 03-Open Secrets
DR9 -0.05 dB -10.29 dB 4:36 04-Second Nature
DR9 -0.05 dB -10.51 dB 5:19 05-Prime Mover
DR7 -0.05 dB -8.65 dB 5:09 06-Lock And Key
DR8 -0.05 dB -10.45 dB 5:18 07-Mission
DR8 -0.05 dB -10.63 dB 4:55 08-Turn The Page
DR7 -0.05 dB -9.51 dB 4:17 09-Tai Shan
DR6 -0.05 dB -7.67 dB 5:33 10-High Water
––––––––––––––––––––––––––––––––––––––––

Number of tracks: 10
Official DR value: DR8

Samplerate: 96000 Hz
Channels: 2
Bits per sample: 24
Bitrate: 3080 kbps
Codec: FLAC
================================================================================



…………………………………………………………………………………………………………………………………..

Rush - Sectors (2011/2013) [Official Digital Download 24bit/96kHz]

Rush - A Show Of Hands (1989/2013)
FLAC (tracks) 24 bit/96 kHz | Time - 74:19 minutes | 1008 MB
Official Digital Download - Source: | Digital booklet

While 1976’s All The World’s A Stage shows Rush’s hard rock roots and 1982’s Exit…Stage Left showcases their mix of synth and prog-rock, the Top 50 double live album A Show Of Hands concentrates on the band’s later synth-driven era with tracks such as “Subdivisions,” “Force Ten,” “Red Sector A” and “Marathon”.

Tracklist:

01 - Intro (Rush/A Show Of Hands)
02 - The Big Money (Live Birmingham England, 1988)
03 - Subdivisions (Live Birmingham England, 1988)
04 - Marathon (Live Birmingham England, 1988)
05 - Turn The Page (Live New Orleans, 1988)
06 - Manhattan Project (Live Phoenix Arizona, 1988)
07 - Mission (Live San Diego, 1988)
08 - Distant Early Warning (Live Birmingham England, 1988)
09 - Mystic Rhythms (Live At The Meadowlands, New Jersey, 1988)
10 - Witch Hunt (Part III Of Fear) [Live At The Meadowlands, New Jersey, 1986]
11 - The Rhythm Method (Live Birmingham England, 1988)
12 - Force Ten (Live Phoenix Arizona, 1988)
13 - Time Stand Still (Live Birmingham England, 1988)
14 - Red Sector A (Live Birmingham England, 1988)
15 - Closer To The Heart (Live Birmingham England, 1988)

Analyzed: Rush / A Show Of Hands
––––––––––––––––––––––––––––––––––––––––

DR Peak RMS Duration Track
––––––––––––––––––––––––––––––––––––––––
DR12 -0.74 dB -17.98 dB 0:53 01-Intro (Rush/A Show Of Hands)
DR8 -0.05 dB -9.24 dB 5:58 02-The Big Money (Live Birmingham England, 1988)
DR7 -0.05 dB -8.38 dB 5:22 03-Subdivisions (Live Birmingham England, 1988)
DR8 -0.05 dB -8.61 dB 6:39 04-Marathon (Live Birmingham England, 1988)
DR7 -0.05 dB -8.28 dB 4:40 05-Turn The Page (Live New Orleans, 1988)
DR7 -0.05 dB -8.93 dB 5:19 06-Manhattan Project (Live Phoenix Arizona, 1988)
DR7 -0.05 dB -8.45 dB 5:46 07-Mission (Live San Diego, 1988)
DR9 -0.05 dB -9.79 dB 5:15 08-Distant Early Warning (Live Birmingham England, 1988)
DR8 -0.05 dB -8.99 dB 5:32 09-Mystic Rhythms (Live At The Meadowlands, New Jersey, 1988)
DR8 -0.05 dB -9.64 dB 3:59 10-Witch Hunt (Part III Of Fear) [Live At The Meadowlands, New Jersey, 1986]
DR8 -0.05 dB -9.95 dB 4:37 11-The Rhythm Method (Live Birmingham England, 1988)
DR8 -0.05 dB -9.61 dB 4:55 12-Force Ten (Live Phoenix Arizona, 1988)
DR9 -0.05 dB -10.25 dB 5:12 13-Time Stand Still (Live Birmingham England, 1988)
DR9 -0.05 dB -10.30 dB 5:18 14-Red Sector A (Live Birmingham England, 1988)
DR8 -0.05 dB -10.29 dB 4:54 15-Closer To The Heart (Live Birmingham England, 1988)
––––––––––––––––––––––––––––––––––––––––

Number of tracks: 15
Official DR value: DR8

Samplerate: 96000 Hz
Channels: 2
Bits per sample: 24
Bitrate: 1686 kbps
Codec: FLAC
================================================================================



Mastered by Andy Van Dette from Masterdisk from the original masters through analog console, equalizers and compressors before being recaptured at 96kHz.

Many Thanks to the Original customer!

RUSH:
Part 1

FLY BY NIGHT:
Part 1

CARESS OF STEEL:
Part 1 | Part 2

2112:
Part 1

ALL THE WORLD'S A STAGE:
Part 1 | Part 2

A FAREWELL KINGS:
Part 1 | Part 2

HEMISPHERES:
Part 1 | Part 2

PERMANENT WAVES:
Part 1

MOVING PICTURES:
Part 1

EXIT… STAGE LEFT:
Part 1 | Part 2

SIGNALS
Part 1 | Part 2

GRACE UNDER PLEASURE:
Part 1 | Part 2

POWER WINDOWS:
Part 1 | Part 2

HOLD YOUR FIRE:
Part 1 | Part 2

A SHOW OF HANDS:
Part 1 | Part 2

Digital booklets packed with:
Sector One: with "Rush" album
Sector Two: with "Moving Pictures" album
Sector Three: with "Grace Under Pleasure" album

password: www.avaxhome.ws