Subcategories

Robert Plant - Lullaby And... The Ceaseless Roar (2014) [Official Digital Download 24bit/44,1kHz] RE-UP

Posted By: HDV
Robert Plant - Lullaby And... The Ceaseless Roar (2014) [Official Digital Download 24bit/44,1kHz] RE-UP

Robert Plant - Lullaby And… The Ceaseless Roar (2014)
FLAC (tracks) 24 bit/44,1 kHz | Time - 50:00 minutes | 562 MB
Studio Master, Official Digital Download | Artwork: Front cover

Lullaby and… The Ceaseless Roar is Plant’s first record since 2010’s Band of Joy, which followed 2007’s six-time Grammy Award–winning collaboration with Alison Krauss, Raising Sand. Justin Adams and John Baggott of The Sensational Space Shifters appeared on Plant’s 2002 release Dreamland, while all but Camara and Smith appeared on 2005’s Mighty Rearranger. The new-album line-up recently toured the world before recording lullaby and… The Ceaseless Roar at Helium Studios in Wiltshire and Real World Studios in Bath, UK. The track “Rainbow” was recorded in Contino Rooms in London. Tchad Blake mixed all but three tracks on the album.

Returning to his native England after an extended sojourn in America, Robert Plant heavily reconnects with his homeland's mysticism on 2014's lullaby and… The Ceaseless Roar. Despite the shift in geography, the singer is picking up a thread he left hanging with 2010's Band of Joy. On that album, Plant blurred boundaries between several musical styles, playing covers with a group assembled by producer Buddy Miller, but here he shifts that omnivorous aesthetic to a collection of originals performed with his ever-changing band the Sensational Space Shifters. Certain flourishes sound familiar – he remains equally enamored of English and Moroccan folk while retaining an enduring obsession with American blues and psychedelia – but the feel is different, not as robust as Band of Joy or warmly joyous as Raising Sand. The Ceaseless Roar may not get loud – usually, when it rocks it sounds like a kissing cousin to a folk rave-up; sometimes, as on "Somebody There," it's chiming, crystalline, and bright like the Byrds – but it is intensely meditative, finding sustenance within mystery. Plant is reflecting on where he's been – singing "And if the sun refuses to shine" on "Pocketful of Golden," he tips a hat to his Zeppelin past; elsewhere he speaks of getting lost in America – yet gingerly avoiding questions of mortality and resisting the allure of easy sentimentality. It's possible to hear the weight of his years on lullaby and… The Ceaseless Roar – it is, in the best sense, mature music, dense in its rhythms and allusions, subtle in its melodies – but he never feels weary, nor does he traffic in false nostalgia. He's building upon the past, both his own and the larger traditions of his homeland, both spiritual and actual, and that gives lullaby and… The Ceaseless Roar a bewitching depth. It's an album to get lost in.

Tracklist:

01 - Little Maggie
02 - Rainbow
03 - Pocketful of Golden
04 - Embrace Another Fall
05 - Turn It Up
06 - A Stolen Kiss
07 - Somebody There
08 - Poor Howard
09 - House of Love
10 - Up on the Hollow Hill (Understanding Arthur)
11 - Arbaden (Maggie's Babby)

Produced b Robert Plant.
Recording engineers: Tim Holmes and Tim Oliver.
Mixing engineers: Tchad Blake and Tim Oliver.
Mastering engineer: Bob Ludwig.

Musicians:
Robert Plant - vocals
Justin Adams - bendirs, djembe, guitars, tehardant, backing vocals
John Baggott - keyboards, loops, moog bass, piano, tabal, backing vocals
Juldeh Camara - kologo, ritti, Fulani vocals
Billy Fuller - bass, drum programming, omnichord, upright bass
Dave Smith - drums
Liam “Skin” Tyson - banjo, guitar, backing vocals

Additional personnel:
Julie Murphy - vocals
Nicola Powell - backing vocals


Analyzed: Robert Plant & The Sensational Space Shifters / lullaby and… The Ceaseless Roar
––––––––––––––––––––––––––––––––––––––––

DR Peak RMS Duration Track
––––––––––––––––––––––––––––––––––––––––
DR7 -1.29 dB -10.40 dB 5:06 01-Little Maggie
DR6 -1.30 dB -10.18 dB 4:18 02-Rainbow
DR7 -1.20 dB -9.99 dB 4:12 03-Pocketful of Golden
DR6 -1.29 dB -11.08 dB 5:52 04-Embrace Another Fall
DR6 -1.27 dB -10.61 dB 4:05 05-Turn It Up
DR9 -1.30 dB -13.23 dB 5:15 06-A Stolen Kiss
DR7 -1.30 dB -10.50 dB 4:32 07-Somebody There
DR7 -1.30 dB -10.81 dB 4:13 08-Poor Howard
DR6 -1.29 dB -8.54 dB 5:07 09-House of Love
DR5 -1.38 dB -9.16 dB 4:35 10-Up on the Hollow Hill (Understanding Arthur)
DR5 -1.27 dB -8.62 dB 2:44 11-Arbaden (Maggie's Babby)
––––––––––––––––––––––––––––––––––––––––

Number of tracks: 11
Official DR value: DR6

Samplerate: 44100 Hz
Channels: 2
Bits per sample: 24
Bitrate: 1456 kbps
Codec: FLAC
================================================================================


Thanks to the Original customer!