The Prince Consort - Ned Rorem: On An Echoing Road (2009) [Linn 24-192]

Posted By: HDV
The Prince Consort - Ned Rorem: On An Echoing Road (2009) [Linn 24-192]

The Prince Consort - Ned Rorem: On An Echoing Road (2009)
FLAC (tracks) 24 bit/192 kHz | Time - 56:37 minutes | 1,97 GB
Official Digital Download - Source: LinnRecords.com | Covers & Digital Booklet

Ned Rorem is one of the most widely-recorded living American composers, who Time Magazine called 'the world's best composer of art songs', with over 500 songs to his name. The Prince Consort is fast emerging as a fresh, exciting and versatile ensemble. Their performances are characterised by wide-ranging programmes and polished presentation, which showcase different combinations of voice and piano, from solos to small groups in piano-accompanied song. If you want a single-disc introduction to this very fine and important composer of songs you can't do better than this disc by this fine ensemble.

A first through here is that the poems would make an excellent anthology in themselves - and that is not to disparage the music. Armin Zanner's introductory essay on the composer and his songs makes much of the echo motif (the phrase adopted for the subtitle is from a poem, well translated by Rorem, by Colette). Rorem is quoted as saying: "I set words to music as I talk them". He also says that the germ, "the spark that's lit in the night", usually goes into the accompaniment. Does that, I wonder, explain a second thought - that these songs are characteristically just a little too delicate, that this prized quality of colloquial ease is a reason why I also think that they will glide out of my mind as easily as they slid into it?

Certainly - certainty at last - this is a most attractive disc. The Prince Consort comprises five singers still young, clear and intelligent in their way with words, and their pianist-director, Alisdair Hogarth. Unusually they have a countertenor in their midst, the excellent Tim Mead, who shares the title-song, a duet with Anna Leese, and has two of the best solos. South African baritone Jacques Imbrailo is also noteworthy: the recording brings out the individual timbre of his voice, and to him goes what I still find the best of the songs, "Early in the morning".

Tracklist:

01 - Early in the morning
02 - Are you the new person drawn toward me?
03 - Rain in Spring
04 - For Susan
05 - Stopping by Woods on a Snowy Evening
06 - Jeanie with the light brown hair
07 - To a young girl
08 - Catullus: On the burial of his brother
09 - Requiescat
10 - I will always love you
11 - That shadow, my likeness
12 - On an echoing road
13 - I strolled across an open field
14 - Alleluia
15 - Little Elegy
16 - Sometimes with one I love
17 - Hymn for Evening
18 - Orchids
19 - On a singing girl
20 - Now sleeps the crimson petal
21 - What if some little pain
22 - Look down, fair moon
23 - The Rainbow
24 - Do I love you more than a day?
25 - Their lonely betters
26 - Do not love too long
27 - Comment on War
28 - The Serpent
29 - Full of life now

Produced by John Fraser. Engineered by Philip Hobbs.
Recorded at Potton Hall, UK, 10 - 13 February 2009.
Post-production by Julia Thomas, Finesplice, U.K.

The Prince Consort:
- Alisdair Hogarth: artistic director, piano
- Anna Leese: soprano
- Jennifer Johnston: mezzo-soprano
- Andrew Staples: tenor
- Tim Mead: countertenor
- Jacques Imbrailo: baritone

Analyzed: The Prince Consort / Ned Rorem – On an echoing road
––––––––––––––––––––––––––––––––––––––––

DR Peak RMS Duration Track
––––––––––––––––––––––––––––––––––––––––
DR14 -6.33 dB -24.72 dB 1:56 01-Early in the morning
DR11 -4.30 dB -21.48 dB 2:16 02-Are you the new person drawn toward me?
DR12 -7.00 dB -25.66 dB 1:18 03-Rain in Spring
DR13 -5.89 dB -24.86 dB 1:16 04-For Susan
DR14 -4.00 dB -24.30 dB 1:56 05-Stopping by Woods on a Snowy Evening
DR13 -6.53 dB -26.45 dB 2:45 06-Jeanie with the light brown hair
DR11 -4.45 dB -24.17 dB 1:19 07-To a young girl
DR11 -2.20 dB -22.45 dB 2:08 08-Catullus: On the burial of his brother
DR12 -8.08 dB -26.82 dB 2:29 09-Requiescat
DR14 -1.17 dB -21.17 dB 2:19 10-I will always love you
DR12 -10.82 dB -28.71 dB 1:47 11-That shadow, my likeness
DR13 -2.99 dB -23.28 dB 3:05 12-On an echoing road
DR11 -4.10 dB -20.98 dB 1:16 13-I strolled across an open field
DR13 -4.73 dB -23.51 dB 2:43 14-Alleluia
DR11 -8.45 dB -26.00 dB 1:17 15-Little Elegy
DR13 -6.27 dB -26.17 dB 1:25 16-Sometimes with one I love
DR12 -6.49 dB -25.12 dB 2:46 17-Hymn for Evening
DR14 -5.33 dB -26.08 dB 2:16 18-Orchids
DR13 -10.53 dB -29.73 dB 1:25 19-On a singing girl
DR12 -4.04 dB -22.23 dB 3:54 20-Now sleeps the crimson petal
DR7 -3.48 dB -22.88 dB 1:38 21-What if some little pain
DR12 -6.24 dB -23.83 dB 1:20 22-Look down, fair moon
DR11 -4.74 dB -23.09 dB 1:23 23-The Rainbow
DR11 -7.05 dB -24.61 dB 1:33 24-Do I love you more than a day?
DR12 -4.50 dB -20.92 dB 2:45 25-Their lonely betters
DR13 -7.36 dB -25.72 dB 1:17 26-Do not love too long
DR11 -5.47 dB -21.30 dB 1:23 27-Comment on War
DR12 -6.05 dB -21.89 dB 1:52 28-The Serpent
DR10 -4.00 dB -18.94 dB 1:52 29-Full of life now
––––––––––––––––––––––––––––––––––––––––

Number of tracks: 29
Official DR value: DR12

Samplerate: 192000 Hz
Channels: 2
Bits per sample: 24
Bitrate: 4806 kbps
Codec: FLAC
================================================================================


Thanks to the Original customer!