Subcategories

Plaza Francia - A New Tango Song Book (2014) [Official Digital Download 24-bit/96kHz]

Posted By: HDV
Plaza Francia - A New Tango Song Book (2014) [Official Digital Download 24-bit/96kHz]

Plaza Francia - A New Tango Song Book (2014)
FLAC (tracks) 24-bit/96 kHz | Time - 53:04 minutes | 490 MB
Studio Master, Official Digital Download | Artwork: Digital booklet

Plaza Francia is an international musical project of a trio of famous musicians made up of Catherine Ringer (from French band Les Rita Mitsouko) as main vocalist singing compositions from Argentine Eduardo Makaroff and Swiss Christoph H. Müller both from Gotan Project. Their 2014 release "A New Tango Song Book" with vocal interpretations of Latin music by Catherine Ringer came with critical acclaim and a commercial success in France also charting in Belgium.

Tracklist:

01 - La mano Encima
02 - Secreto
03 - Timidez
04 - La misión
05 - Invisible
06 - Memoria del placer
07 - Cada vez
08 - La que se fue
09 - Cenizas
10 - Mi calle
11 - Vueltas en el aire
12 - El Avión
13 - No hay perdón
14 - El vaivén del corazón

Analyzed: Plaza Francia / A New Tango Song Book
––––––––––––––––––––––––––––––––––––––––

DR Peak RMS Duration Track
––––––––––––––––––––––––––––––––––––––––
DR9 -0.20 dB -11.78 dB 3:59 01-La mano Encima
DR8 -0.27 dB -10.05 dB 3:35 02-Secreto
DR9 -0.20 dB -12.24 dB 3:41 03-Timidez
DR8 -0.15 dB -10.14 dB 3:34 04-La misión
DR9 -0.28 dB -11.53 dB 4:20 05-Invisible
DR8 -0.14 dB -10.54 dB 3:38 06-Memoria del placer
DR8 -0.14 dB -10.73 dB 3:57 07-Cada vez
DR9 -0.02 dB -11.33 dB 3:32 08-La que se fue
DR8 -0.29 dB -11.69 dB 4:26 09-Cenizas
DR8 -0.03 dB -11.37 dB 4:05 10-Mi calle
DR8 -0.40 dB -10.63 dB 3:19 11-Vueltas en el aire
DR10 -0.11 dB -12.07 dB 3:35 12-El Avión
DR8 -0.21 dB -10.84 dB 3:45 13-No hay perdón
DR9 -0.06 dB -10.55 dB 3:38 14-El vaivén del corazón
––––––––––––––––––––––––––––––––––––––––

Number of tracks: 14
Official DR value: DR8

Samplerate: 96000 Hz
Channels: 2
Bits per sample: 24
Bitrate: 1291 kbps
Codec: FLAC
================================================================================


Thanks to the Original customer!