Subcategories

Keb' Mo' - Just Like You (1996) [Reissue 2002] {2.0 & 5.1} PS3 ISO + FLAC {RE-UP}

Posted By: HDAtall
Keb' Mo' - Just Like You (1996) [Reissue 2002] {2.0 & 5.1} PS3 ISO + FLAC {RE-UP}

Keb' Mo' - Just Like You (1996) [Reissue 2002] {2.0 & 5.1}
PS3 Rip | SACD ISO | DST/DSD64 2.0 & 5.1 > 1-bit/2.8224 MHz | 45:58 minutes | Scans included | 4,11 GB
or FLAC 2.0 Stereo (converted with foobar2000 to tracks) 24bit/88,2 kHz | 46:15 mins | Scans | 1,01 GB

Keb' Mo's 1995 Grammy-winning eponymous debut firmly lodged the Los Angeles-born singer-guitarist in the contemporary blues pantheon. His sophomore effort, Just Like You, is slick in comparison to the virtuosic, bare-bones Keb' Mo', but it's nevertheless an irresistible and accomplished album. While songs such as "Perpetual Blues Machine" and "You Can Love Yourself" are classic Mo', with their canny lyrics and facile slide and acoustic guitar licks, the sapfest "Just Like You" (with guests Bonnie Raitt and Jackson Browne) and the clichéd "The Action" are hard to stomach. Toward the end of the disc, however, the gospel-laced "Hand It Over" and folksy "Momma, Where's My Daddy" restore the faith, displaying once again Mo's marvelous talent for wrenching the heartstrings with simply his voice and soulful steel-guitar manipulations.

On his second album, Keb' Mo' begins to expand the borders of his Delta blues by recording with a full band on a couple of tracks and attempting more expansive, rock-based song structures. The attempts aren't entirely successful and it's ironic that he decided to try rock-oriented material after he received such praise for his traditionalist debut. Still, there are a few songs on the album that rank with the best on his first album, which suggests that Just Like You is merely a sophomore slump.

Tracklist:

01. That's Not Love
02. Perpetual Blues Machine
03. More Than One Way Home
04. I'm On Your Side
05. Just Like You
06. You Can Love Yourself
07. Dangerous Mood
08. The Action
09. Hand It Over
10. Standin' At The Station
11. Momma, Where's My Daddy
12. Last Fair Deal Gone Down
13. Lullaby Baby Blues

foobar2000 1.2.8 / Dynamic Range Meter 1.1.1

––––––––––––––––––––––––––––––––––––––––
Analyzed: KEB' MO' / JUST LIKE YOU
––––––––––––––––––––––––––––––––––––––––

DR Peak RMS Duration Track
––––––––––––––––––––––––––––––––––––––––
DR13 -5.00 dB -20.94 dB 4:04 01-That's Not Love
DR13 -6.17 dB -25.39 dB 3:15 02-Perpetual Blues Machine
DR12 -4.98 dB -20.18 dB 4:49 03-More Than One Way Home
DR14 -5.50 dB -21.45 dB 3:36 04-I'm On Your Side
DR15 -5.02 dB -22.19 dB 3:24 05-Just Like You
DR13 -5.06 dB -24.12 dB 2:30 06-You Can Love Yourself
DR12 -6.14 dB -20.87 dB 4:56 07-Dangerous Mood
DR14 -5.47 dB -20.97 dB 3:59 08-The Action
DR13 -5.03 dB -22.47 dB 2:54 09-Hand It Over
DR13 -5.39 dB -20.01 dB 3:10 10-Standin' At The Station
DR13 -8.87 dB -29.60 dB 3:04 11-Momma, Where's My Daddy
DR12 -7.03 dB -22.51 dB 3:45 12-Last Fair Deal Gone Down
DR13 -5.07 dB -28.05 dB 2:32 13-Lullaby Baby Blues
––––––––––––––––––––––––––––––––––––––––

Number of tracks: 13
Official DR value: DR13

Samplerate: 2822400 Hz / PCM Samplerate: 88200 Hz
Channels: 6
Bits per sample: 24
Bitrate: 16934 kbps
Codec: DST64
================================================================================

––––––––––––––––––––––––––––––––––––––––
Analyzed: KEB' MO' / JUST LIKE YOU
––––––––––––––––––––––––––––––––––––––––

DR Peak RMS Duration Track
––––––––––––––––––––––––––––––––––––––––
DR10 -5.96 dB -17.01 dB 4:07 01-That's Not Love
DR11 -8.10 dB -20.51 dB 3:15 02-Perpetual Blues Machine
DR8 -5.96 dB -15.70 dB 4:53 03-More Than One Way Home
DR10 -6.02 dB -16.99 dB 3:39 04-I'm On Your Side
DR10 -6.03 dB -18.67 dB 3:25 05-Just Like You
DR12 -6.05 dB -18.84 dB 2:32 06-You Can Love Yourself
DR9 -5.92 dB -16.57 dB 4:57 07-Dangerous Mood
DR9 -6.00 dB -15.86 dB 3:58 08-The Action
DR11 -6.01 dB -18.30 dB 2:54 09-Hand It Over
DR9 -5.97 dB -15.64 dB 3:12 10-Standin' At The Station
DR14 -6.44 dB -24.82 dB 3:06 11-Momma, Where's My Daddy
DR9 -6.01 dB -16.15 dB 3:45 12-Last Fair Deal Gone Down
DR13 -6.43 dB -22.55 dB 2:33 13-Lullaby Baby Blues
––––––––––––––––––––––––––––––––––––––––

Number of tracks: 13
Official DR value: DR10

Samplerate: 2822400 Hz / PCM Samplerate: 88200 Hz
Channels: 2
Bits per sample: 24
Bitrate: 5645 kbps
Codec: DSD64


Thanks to alembic86!
Uncompressed SACD ISO size > 4,29 GB