Subcategories

Jon Lord - Beyond The Notes (2004) [2.0 & 5.0] PS3 ISO + Hi-Res FLAC {RE-UP}

Posted By: HDAtall
Jon Lord - Beyond The Notes (2004) [2.0 & 5.0] PS3 ISO + Hi-Res FLAC {RE-UP}

Jon Lord - Beyond The Notes (2004) [2.0 & 5.0]
PS3 Rip | SACD ISO | DST64 2.0 & 5.0 > 1-bit/2.8224 MHz | 69:14 minutess | Scans included | 3,55 GB
or FLAC 2.0 Stereo (converted with foobar2000 to tracks) 24bit/88,2 kHz | Scans included | 1,28 GB

Beyond The Notes is a studio album by former Deep Purple keyboard player Jon Lord, released in 2004. It features guest appearances from Frida Lyngstad, Sam Brown (singer), Miller Anderson, Thys van Leer, Pete York, and Trondheim Soloists.

Organist Jon Lord supposedly left Deep Purple to retire and take it easy, after he'd spent much of his life recording and touring the world with Purple and other artists. But upon his exit from the band, Lord played gigs and issued albums on his own, such as 2004's Beyond the Notes. The split provided Lord with the opportunity to pursue some unexpected musical avenues, as the album sees a detour into soothing classical music. Gone is the blaring guitar through Marshall stacks and Lord's overdriven organ rocking back and forth – in its place is the jazzy sound of "Cologne Again" a lovely piano ballad, and the string-heavy album closer, "Music for Miriam." While it's not unheard of for a rock musician to take the orchestral plunge, Beyond the Notes is one of the few instances where it works surprisingly well and doesn't come off as a mere detour.

Tracklist:

01. Miles Away
02. De Profundis
03. One From The Meadow
04. Cologne Again
05. I'll Send You A Postcard
06. The Sun Will Shine Again
07. A Smile When I Shook His Hand
08. November Calls
09. The Telemann Experement
10. Music For Miriam

foobar2000 1.2.9 / Dynamic Range Meter 1.1.1

––––––––––––––––––––––––––––––––––––––––
Analyzed: Jon Lord / Beyond The Notes
––––––––––––––––––––––––––––––––––––––––

DR Peak RMS Duration Track
––––––––––––––––––––––––––––––––––––––––
DR12 -7.57 dB -24.30 dB 7:41 01-MILES AWAY
DR11 -5.78 dB -23.09 dB 7:22 02-DE PROFUNDIS
DR11 -6.01 dB -22.51 dB 8:16 03-ONE FROM THE MEADOW
DR13 -5.68 dB -23.02 dB 6:49 04-COLOGNE AGAIN
DR13 -7.11 dB -27.96 dB 6:57 05-I'LL SEND YOU A POSTCARD
DR11 -7.53 dB -23.48 dB 4:24 06-THE SUN WILL SHINE AGAIN
DR12 -7.55 dB -24.98 dB 7:32 07-A SMILE WHEN I SHOOK HIS HAND
DR12 -6.05 dB -23.72 dB 5:03 08-NOVEMBER CALLS
DR14 -5.92 dB -22.16 dB 7:07 09-THE TELEMANN EXPERIMENT
DR14 -7.86 dB -28.74 dB 8:05 10-MUSIC FOR MIRIAM
––––––––––––––––––––––––––––––––––––––––

Number of tracks: 10
Official DR value: DR12

Samplerate: 2822400 Hz / PCM Samplerate: 88200 Hz
Channels: 5
Bits per sample: 24
Bitrate: 14112 kbps
Codec: DST64
================================================================================

––––––––––––––––––––––––––––––––––––––––
Analyzed: Jon Lord / Beyond The Notes
––––––––––––––––––––––––––––––––––––––––

DR Peak RMS Duration Track
––––––––––––––––––––––––––––––––––––––––
DR9 -7.44 dB -20.35 dB 7:42 01-MILES AWAY
DR9 -6.29 dB -19.82 dB 7:22 02-DE PROFUNDIS
DR9 -6.23 dB -19.80 dB 8:16 03-ONE FROM THE MEADOW
DR10 -6.11 dB -19.23 dB 6:47 04-COLOGNE AGAIN
DR13 -6.42 dB -24.29 dB 6:57 05-I'LL SEND YOU A POSTCARD
DR8 -7.23 dB -18.94 dB 4:24 06-THE SUN WILL SHINE AGAIN
DR11 -6.23 dB -21.25 dB 7:31 07-A SMILE WHEN I SHOOK HIS HAND
DR9 -6.93 dB -20.07 dB 5:03 08-NOVEMBER CALLS
DR11 -5.75 dB -19.92 dB 7:07 09-THE TELEMANN EXPERIMENT
DR13 -7.48 dB -25.51 dB 8:03 10-MUSIC FOR MIRIAM
––––––––––––––––––––––––––––––––––––––––

Number of tracks: 10
Official DR value: DR10

Samplerate: 2822400 Hz / PCM Samplerate: 88200 Hz
Channels: 2
Bits per sample: 24
Bitrate: 5645 kbps
Codec: DST64


Thanks to PS³SACD!
Uncompressed SACD ISO size > 3,37 GB
>