Subcategories

The Avison Ensemble - Arcangelo Corelli: Opus 5 - Violin Sonatas (2012) [Linn 24-192]

Posted By: HDV
The Avison Ensemble - Arcangelo Corelli: Opus 5 - Violin Sonatas (2012) [Linn 24-192]

The Avison Ensemble - Arcangelo Corelli: Opus 5 - Violin Sonatas (2012)
FLAC (tracks) 24 bit/192 kHz | Time - 133:26 minutes | 5,81 GB
Official Digital Download - Source: LinnRecords.com | Covers & Digital Booklet

In celebrating Corelli's 300th anniversary - this marks the second recording in a series which will see Linn and The Avison Ensemble record Corelli's complete chamber music. The Avison Ensemble comprises some of Europe's leading Baroque musicians, including artists from The Hague, Germany, France, Austria and London, with international soloists from all over the globe. The Ensemble has attracted great critical acclaim since its formation in 1985.

The Op. 5 collection consists of eleven sonatas; the twelfth, and most popular, work is a series of twenty-three variations on the ‘Follia' of which Corelli was especially proud. All twelve pieces contain a variety of difficult violin techniques and director Pavlo Beznosiuk takes centre stage; his polished playing thrilling in its virtuosity.

Corelli's contribution to the history of violin performance was immense. All six of his published collections of instrumental music demonstrate his exceptional skill as a violinist and composer, but it was in his Op. 5 Sonatas that Corelli had the most significant impact on violin technique.

Tracklist:

01 - Sonata in D Major, No. 1- I. Grave – Allegro - Adagio
02 - Sonata in D Major, No. 1 - II. Allegro
03 - Sonata in D Major, No. 1 - III. Allegro
04 - Sonata in D Major, No. 1 - IV. Adagio
05 - Sonata in D Major, No. 1 - V. Allegro
06 - Sonata in B-flat Major, No. 2 - I. Grave
07 - Sonata in B-flat Major, No. 2 - II. Allegro
08 - Sonata in B-flat Major, No. 2 - III. Vivace
09 - Sonata in B-flat Major, No. 2 - IV. Adagio
10 - Sonata in B-flat Major, No. 2 - V. Vivace
11 - Sonata in C Major, No. 3 - I. Adagio
12 - Sonata in C Major, No. 3 - II. Allegro
13 - Sonata in C Major, No. 3 - III. Adagio
14 - Sonata in C Major, No. 3 - IV. Allegro
15 - Sonata in C Major, No. 3 - V. Allegro
16 - Sonata in F Major, No. 4 - I. Adagio
17 - Sonata in F Major, No. 4 - II. Allegro
18 - Sonata in F Major, No. 4 - III. Vivace
19 - Sonata in F Major, No. 4 - IV. Adagio
20 - Sonata in F Major, No. 4 - V. Allegro
21 - Sonata in G minor, No. 5 - I. Adagio
22 - Sonata in G minor, No. 5 - II. Vivace
23 - Sonata in G minor, No. 5 - III. Adagio
24 - Sonata in G minor, No. 5 - IV. Vivace
25 - Sonata in G minor, No. 5 - V. Giga - Allegro
26 - Sonata in A Major, No. 6 - I. Grave
27 - Sonata in A Major, No. 6 - II. Allegro
28 - Sonata in A Major, No. 6 - III. Allegro
29 - Sonata in A Major, No. 6 - IV. Adagio
30 - Sonata in A Major, No. 6 - V. Allegro
31 - Sonata in D minor, No. 7 + - I. Preludio - Vivace
32 - Sonata in D minor, No. 7 + - II. Corrente - Allegro
33 - Sonata in D minor, No. 7 + - III. Sarabanda - Largo
34 - Sonata in D minor, No. 7 + - IV. Giga - Allegro
35 - Sonata in E minor, No. 8 - I. Preludio - Largo
36 - Sonata in E minor, No. 8 - II. Allemanda - Allegro
37 - Sonata in E minor, No. 8 - III. Sarabanda - Largo
38 - Sonata in E minor, No. 8 - IV. Giga - Allegro
39 - Sonata in A Major, No. 9 - I. Preludio - Largo
40 - Sonata in A Major, No. 9 - II. Giga - Allegro
41 - Sonata in A Major, No. 9 - III. Adagio
42 - Sonata in A Major, No. 9 - IV. Tempo di Gavotta - Allegro
43 - Sonata in F Major, No. 10 - I. Preludio - Adagio
44 - Sonata in F Major, No. 10 - II. Allemanda - Allegro
45 - Sonata in F Major, No. 10 - III. Sarabanda - Largo
46 - Sonata in F Major, No. 10 - IV. Gavotta
47 - Sonata in F Major, No. 10 - V. Allegro
48 - Sonata in E Major, No. 11 - I. Preludio - Adagio
49 - Sonata in E Major, No. 11 - II. Allegro
50 - Sonata in E Major, No. 11 - III. Adagio
51 - Sonata in E Major, No. 11 - IV. Vivace
52 - Sonata in E Major, No. 11 - V. Gavotta - Allegro
53 - Sonata in D minor, No. 12, 'Folia'+ - I. Adagio
54 - Sonata in D minor, No. 12, 'Folia'+ - II. Allegro
55 - Sonata in D minor, No. 12, 'Folia'+ - III. Adagio
56 - Sonata in D minor, No. 12, 'Folia'+ - IV. Vivace
57 - Sonata in D minor, No. 12, 'Folia'+ - V. Andante
58 - Sonata in D minor, No. 12, 'Folia'+ - VI. Adagio
59 - Sonata in D minor, No. 12, 'Folia'+ - VII. Allegro

Analyzed: The Avison Ensemble / Arcangelo Corelli: Opus 5: Violin Sonatas
––––––––––––––––––––––––––––––––––––––––

DR Peak RMS Duration Track
––––––––––––––––––––––––––––––––––––––––
DR11 -6.03 dB -21.50 dB 3:01 01-Sonata in D Major, No. 1- I. Grave – Allegro - Adagio
DR12 -4.73 dB -19.19 dB 2:32 02-Sonata in D Major, No. 1 - II. Allegro
DR12 -6.69 dB -20.76 dB 1:03 03-Sonata in D Major, No. 1 - III. Allegro
DR12 -4.15 dB -21.56 dB 2:40 04-Sonata in D Major, No. 1 - IV. Adagio
DR12 -3.04 dB -19.33 dB 1:53 05-Sonata in D Major, No. 1 - V. Allegro
DR11 -6.65 dB -22.42 dB 2:15 06-Sonata in B-flat Major, No. 2 - I. Grave
DR12 -4.10 dB -19.85 dB 2:22 07-Sonata in B-flat Major, No. 2 - II. Allegro
DR11 -3.07 dB -20.22 dB 1:24 08-Sonata in B-flat Major, No. 2 - III. Vivace
DR12 -6.32 dB -22.95 dB 2:30 09-Sonata in B-flat Major, No. 2 - IV. Adagio
DR12 -6.01 dB -21.52 dB 1:26 10-Sonata in B-flat Major, No. 2 - V. Vivace
DR12 -5.71 dB -22.93 dB 2:25 11-Sonata in C Major, No. 3 - I. Adagio
DR12 -4.16 dB -20.11 dB 2:08 12-Sonata in C Major, No. 3 - II. Allegro
DR12 -6.41 dB -23.40 dB 2:48 13-Sonata in C Major, No. 3 - III. Adagio
DR11 -5.27 dB -21.77 dB 1:01 14-Sonata in C Major, No. 3 - IV. Allegro
DR13 -2.19 dB -21.79 dB 2:42 15-Sonata in C Major, No. 3 - V. Allegro
DR12 -5.67 dB -21.69 dB 1:59 16-Sonata in F Major, No. 4 - I. Adagio
DR12 -2.59 dB -20.26 dB 2:27 17-Sonata in F Major, No. 4 - II. Allegro
DR12 -3.77 dB -21.21 dB 1:13 18-Sonata in F Major, No. 4 - III. Vivace
DR12 -5.56 dB -21.62 dB 2:07 19-Sonata in F Major, No. 4 - IV. Adagio
DR13 -3.62 dB -21.02 dB 2:38 20-Sonata in F Major, No. 4 - V. Allegro
DR12 -6.07 dB -22.31 dB 2:46 21-Sonata in G minor, No. 5 - I. Adagio
DR12 -2.24 dB -18.83 dB 2:02 22-Sonata in G minor, No. 5 - II. Vivace
DR11 -7.63 dB -23.24 dB 2:04 23-Sonata in G minor, No. 5 - III. Adagio
DR12 -5.21 dB -20.33 dB 1:38 24-Sonata in G minor, No. 5 - IV. Vivace
DR11 -8.47 dB -22.79 dB 1:51 25-Sonata in G minor, No. 5 - V. Giga - Allegro
DR12 -7.84 dB -22.20 dB 2:43 26-Sonata in A Major, No. 6 - I. Grave
DR13 -1.99 dB -18.54 dB 2:14 27-Sonata in A Major, No. 6 - II. Allegro
DR12 -6.04 dB -21.75 dB 0:57 28-Sonata in A Major, No. 6 - III. Allegro
DR13 -7.63 dB -25.64 dB 2:01 29-Sonata in A Major, No. 6 - IV. Adagio
DR12 -3.73 dB -19.20 dB 2:15 30-Sonata in A Major, No. 6 - V. Allegro
DR12 -4.68 dB -20.67 dB 2:13 31-Sonata in D minor, No. 7 + - I. Preludio - Vivace
DR13 -2.86 dB -19.12 dB 2:46 32-Sonata in D minor, No. 7 + - II. Corrente - Allegro
DR12 -7.73 dB -23.26 dB 1:42 33-Sonata in D minor, No. 7 + - III. Sarabanda - Largo
DR12 -5.29 dB -20.46 dB 2:15 34-Sonata in D minor, No. 7 + - IV. Giga - Allegro
DR13 -7.48 dB -25.24 dB 3:29 35-Sonata in E minor, No. 8 - I. Preludio - Largo
DR13 -6.05 dB -22.05 dB 1:51 36-Sonata in E minor, No. 8 - II. Allemanda - Allegro
DR12 -6.61 dB -24.54 dB 2:20 37-Sonata in E minor, No. 8 - III. Sarabanda - Largo
DR13 -5.46 dB -22.99 dB 2:14 38-Sonata in E minor, No. 8 - IV. Giga - Allegro
DR13 -6.32 dB -22.38 dB 4:16 39-Sonata in A Major, No. 9 - I. Preludio - Largo
DR11 -7.39 dB -21.80 dB 3:06 40-Sonata in A Major, No. 9 - II. Giga - Allegro
DR10 -9.58 dB -24.16 dB 0:34 41-Sonata in A Major, No. 9 - III. Adagio
DR13 -4.48 dB -20.89 dB 2:40 42-Sonata in A Major, No. 9 - IV. Tempo di Gavotta - Allegro
DR12 -7.21 dB -24.19 dB 1:53 43-Sonata in F Major, No. 10 - I. Preludio - Adagio
DR13 -6.82 dB -23.46 dB 2:21 44-Sonata in F Major, No. 10 - II. Allemanda - Allegro
DR13 -3.78 dB -23.84 dB 2:31 45-Sonata in F Major, No. 10 - III. Sarabanda - Largo
DR15 -5.44 dB -24.00 dB 7:37 46-Sonata in F Major, No. 10 - IV. Gavotta
DR13 -4.15 dB -22.89 dB 2:41 47-Sonata in F Major, No. 10 - V. Allegro
DR12 -7.39 dB -22.98 dB 1:48 48-Sonata in E Major, No. 11 - I. Preludio - Adagio
DR13 -4.48 dB -21.52 dB 2:44 49-Sonata in E Major, No. 11 - II. Allegro
DR10 -9.11 dB -24.81 dB 0:43 50-Sonata in E Major, No. 11 - III. Adagio
DR13 -5.17 dB -20.92 dB 2:14 51-Sonata in E Major, No. 11 - IV. Vivace
DR13 -6.05 dB -22.02 dB 5:11 52-Sonata in E Major, No. 11 - V. Gavotta - Allegro
DR11 -7.35 dB -22.07 dB 1:22 53-Sonata in D minor, No. 12, 'Folia'+ - I. Adagio
DR13 -2.26 dB -19.06 dB 2:07 54-Sonata in D minor, No. 12, 'Folia'+ - II. Allegro
DR11 -10.81 dB -25.46 dB 0:46 55-Sonata in D minor, No. 12, 'Folia'+ - III. Adagio
DR10 -6.57 dB -19.46 dB 0:35 56-Sonata in D minor, No. 12, 'Folia'+ - IV. Vivace
DR10 -8.04 dB -22.33 dB 1:08 57-Sonata in D minor, No. 12, 'Folia'+ - V. Andante
DR10 -7.59 dB -23.12 dB 1:41 58-Sonata in D minor, No. 12, 'Folia'+ - VI. Adagio
DR12 -2.23 dB -19.09 dB 3:35 59-Sonata in D minor, No. 12, 'Folia'+ - VII. Allegro
––––––––––––––––––––––––––––––––––––––––

Number of tracks: 59
Official DR value: DR12

Samplerate: 192000 Hz
Channels: 2
Bits per sample: 24
Bitrate: 5951 kbps
Codec: FLAC
================================================================================


Thanks to the Original customer!