Subcategories

The Avison Ensemble - Arcangelo Corelli: Opus 1 & 3 - Church Sonatas (2014) [Linn 24-96]

Posted By: HDV
The Avison Ensemble - Arcangelo Corelli: Opus 1 & 3 - Church Sonatas (2014) [Linn 24-96]

The Avison Ensemble - Arcangelo Corelli: Opus 1 & 3 - Church Sonatas (2014)
FLAC (tracks) 24 bit/96 kHz | Time - 147:52 minutes | 3,07 GB
Official Digital Download - Source: LinnRecords.com | Covers & Digital Booklet

'Opus 1 & 3: Church Sonatas' is the final recording in The Avison Ensemble's welcome undertaking to record Corelli's complete chamber music in celebration of the 300th anniversary of the composer's death.

'Opus 1 & 3: Church Sonatas' is the final recording in The Avison Ensemble's welcome undertaking to record Corelli's complete chamber music in celebration of the 300th anniversary of the composer's death.

Like all of Corelli's other works, his church sonatas were widely imitated. Some sets of sonatas, such as those by Telemann and British composer William Topham, went so far as to record Corelli's influence on their title-pages; another British composer, John Ravenscroft, wrote a set of sonatas so similar to Corelli's own that the Amsterdam publisher, Michel Le Cène, attempted to pass it off as Corelli's Op. 7. Charles Avison held Corelli in particularly high esteem, and described him as ‘chaste and faultless' in his 1752 treatise, An Essay on Musical Expression. Predictably, Avison's first published work, his Op. 1 set of trio sonatas, has a marked deference to Corelli. Avison's teacher and a former pupil of Corelli, Francesco Geminiani, published concerti grossi arrangements of Corelli's Op. 1 No. 9 and five sonatas from the Op. 3 in 1735.

Corelli's trio sonatas are in every aspect a high point of Italian Baroque instrumental music. Even though what Corelli achieved in these works could hardly be defined as new, he was able to synthesise pre-established forms and ideas to create works that raised the musical bar to a new height. As such, Corelli's trios stand head and shoulders above the best examples by his Italian contemporaries. As time progressed, Corelli's compositions evolved from innovative, frequently imitated models to well-respected, timeless classics.

Tracklist:

01 - Sonata da chiesa a tre in F Major, No. 1 - I. Grave
02 - Sonata da chiesa a tre in F Major, No. 1 - II. Allegro
03 - Sonata da chiesa a tre in F Major, No. 1 - III. Largo
04 - Sonata da chiesa a tre in F Major, No. 1 - IV. Allegro
05 - Sonata da chiesa a tre in E minor, No. 2 - I. Grave
06 - Sonata da chiesa a tre in E minor, No. 2 - II. Vivace
07 - Sonata da chiesa a tre in E minor, No. 2 - III. Adagio
08 - Sonata da chiesa a tre in E minor, No. 2 - IV. Allegro
09 - Sonata da chiesa a tre in A Major, No. 3 - I. Grave
10 - Sonata da chiesa a tre in A Major, No. 3 - II. Allegro
11 - Sonata da chiesa a tre in A Major, No. 3 - III. Adagio
12 - Sonata da chiesa a tre in A Major, No. 3 - IV. Allegro
13 - Sonata da chiesa a tre in A minor, No. 4 - I. Vivace (attacca)
14 - Sonata da chiesa a tre in A minor, No. 4 - II. Adagio
15 - Sonata da chiesa a tre in A minor, No. 4 - III. Allegro
16 - Sonata da chiesa a tre in A minor, No. 4 - IV. Presto
17 - Sonata da chiesa a tre in A minor, No. 4 - V. Allegro
18 - Sonata da chiesa a tre in B-flat minor, No. 5 - I. Grave
19 - Sonata da chiesa a tre in B-flat minor, No. 5 - II. Allegro
20 - Sonata da chiesa a tre in B-flat minor, No. 5 - III. Adagio - Allegro
21 - Sonata da chiesa a tre in B-flat minor, No. 5 - IV. Allegro
22 - Sonata da chiesa a tre in B minor, No. 6 - I. Grave
23 - Sonata da chiesa a tre in B minor, No. 6 - II. Largo
24 - Sonata da chiesa a tre in B minor, No. 6 - III. Adagio
25 - Sonata da chiesa a tre in B minor, No. 6 - IV. Allegro
26 - Sonata da chiesa a tre in C Major, No. 7 - I. Allegro
27 - Sonata da chiesa a tre in C Major, No. 7 - II. Grave
28 - Sonata da chiesa a tre in C Major, No. 7 - III. Allegro
29 - Sonata da chiesa a tre in C minor, No. 8 - I. Grave
30 - Sonata da chiesa a tre in C minor, No. 8 - II. Allegro
31 - Sonata da chiesa a tre in C minor, No. 8 - III. Largo
32 - Sonata da chiesa a tre in C minor, No. 8 - IV. Vivace
33 - Sonata da chiesa a tre in G Major, No. 9 - I. Allegro
34 - Sonata da chiesa a tre in G Major, No. 9 - II. Allegro
35 - Sonata da chiesa a tre in G Major, No. 9 - III. Adagio
36 - Sonata da chiesa a tre in G Major, No. 9 - IV. Allegro - Adagio
37 - Sonata da chiesa a tre in G minor, No. 10 - I. Grave
38 - Sonata da chiesa a tre in G minor, No. 10 - II. Allegro (attacca)
39 - Sonata da chiesa a tre in G minor, No. 10 - III. Allegro
40 - Sonata da chiesa a tre in G minor, No. 10 - IV. Adagio
41 - Sonata da chiesa a tre in G minor, No. 10 - V. Allegro
42 - Sonata da chiesa a tre in D minor, No. 11 - I. Grave
43 - Sonata da chiesa a tre in D minor, No. 11 - II. Allegro
44 - Sonata da chiesa a tre in D minor, No. 11 - III. Adagio
45 - Sonata da chiesa a tre in D minor, No. 11 - IV. Allegro
46 - Sonata da chiesa a tre in D Major, No. 12 - I. Grave
47 - Sonata da chiesa a tre in D Major, No. 12 - II. Largo e puntato
48 - Sonata da chiesa a tre in D Major, No. 12 - III. Grave
49 - Sonata da chiesa a tre in D Major, No. 12 - IV. Allegro
50 - Sonata da chiesa a tre in F Major, No. 1 - I. Grave
51 - Sonata da chiesa a tre in F Major, No. 1 - II. Allegro
52 - Sonata da chiesa a tre in F Major, No. 1 - III. Vivace
53 - Sonata da chiesa a tre in F Major, No. 1 - IV. Allegro
54 - Sonata da chiesa a tre in D Major, No. 2 - I. Grave
55 - Sonata da chiesa a tre in D Major, No. 2 - II. Allegro
56 - Sonata da chiesa a tre in D Major, No. 2 - III. Adagio
57 - Sonata da chiesa a tre in D Major, No. 2 - IV. Allegro
58 - Sonata da chiesa a tre in B-flat Major, No. 3 - I. Grave
59 - Sonata da chiesa a tre in B-flat Major, No. 3 - II. Vivace
60 - Sonata da chiesa a tre in B-flat Major, No. 3 - III. Largo
61 - Sonata da chiesa a tre in B-flat Major, No. 3 - IV. Allegro
62 - Sonata da chiesa a tre in B minor, No. 4 - I. Largo
63 - Sonata da chiesa a tre in B minor, No. 4 - II. Vivace
64 - Sonata da chiesa a tre in B minor, No. 4 - III. Adagio
65 - Sonata da chiesa a tre in B minor, No. 4 - IV. Presto
66 - Sonata da chiesa a tre in D minor, No. 5 - I. Grave
67 - Sonata da chiesa a tre in D minor, No. 5 - II. Allegro
68 - Sonata da chiesa a tre in D minor, No. 5 - III. Largo
69 - Sonata da chiesa a tre in D minor, No. 5 - IV. Allegro
70 - Sonata da chiesa a tre in G Major, No. 6 - I. Vivace
71 - Sonata da chiesa a tre in G Major, No. 6 - II. Grave
72 - Sonata da chiesa a tre in G Major, No. 6 - III. Allegro
73 - Sonata da chiesa a tre in G Major, No. 6 - IV. Allegro
74 - Sonata da chiesa a tre in E minor, No. 7 - I. Grave
75 - Sonata da chiesa a tre in E minor, No. 7 - II. Allegro
76 - Sonata da chiesa a tre in E minor, No. 7 - III. Adagio
77 - Sonata da chiesa a tre in E minor, No. 7 - IV. Allegro
78 - Sonata da chiesa a tre in C Major, No. 8 - I. Largo
79 - Sonata da chiesa a tre in C Major, No. 8 - II. Allegro
80 - Sonata da chiesa a tre in C Major, No. 8 - III. Largo
81 - Sonata da chiesa a tre in C Major, No. 8 - IV. Allegro
82 - Sonata da chiesa a tre in F minor, No. 9 - I. Grave
83 - Sonata da chiesa a tre in F minor, No. 9 - II. Vivace
84 - Sonata da chiesa a tre in F minor, No. 9 - III. Largo
85 - Sonata da chiesa a tre in F minor, No. 9 - IV. Allegro
86 - Sonata da chiesa a tre in A minor, No. 10 - I. Vivace
87 - Sonata da chiesa a tre in A minor, No. 10 - II. Allegro
88 - Sonata da chiesa a tre in A minor, No. 10 - III. Adagio
89 - Sonata da chiesa a tre in A minor, No. 10 - IV. Allegro
90 - Sonata da chiesa a tre in G minor, No. 11 - I. Grave
91 - Sonata da chiesa a tre in G minor, No. 11 - II. Presto
92 - Sonata da chiesa a tre in G minor, No. 11 - III. Adagio
93 - Sonata da chiesa a tre in G minor, No. 11 - IV. Allegro
94 - Sonata da chiesa a tre in A minor, No. 12 - I. Grave
95 - Sonata da chiesa a tre in A minor, No. 12 - II. Vivace
96 - Sonata da chiesa a tre in A minor, No. 12 - III. Allegro
97 - Sonata da chiesa a tre in A minor, No. 12 - IV. Allegro
98 - Sonata da chiesa a tre in A minor, No. 12 - V. Allegro

Analyzed: The Avison Ensemble / Corelli: Opus 1 & 3: Church Sonatas
––––––––––––––––––––––––––––––––––––––––

DR Peak RMS Duration Track
––––––––––––––––––––––––––––––––––––––––
DR11 -9.23 dB -22.96 dB 1:18 01-Sonata da chiesa a tre in F Major, No. 1 - I. Grave
DR11 -5.80 dB -20.54 dB 1:32 02-Sonata da chiesa a tre in F Major, No. 1 - II. Allegro
DR11 -8.50 dB -22.50 dB 1:31 03-Sonata da chiesa a tre in F Major, No. 1 - III. Largo
DR12 -5.35 dB -22.84 dB 1:45 04-Sonata da chiesa a tre in F Major, No. 1 - IV. Allegro
DR10 -8.20 dB -22.22 dB 1:28 05-Sonata da chiesa a tre in E minor, No. 2 - I. Grave
DR11 -6.08 dB -21.24 dB 0:58 06-Sonata da chiesa a tre in E minor, No. 2 - II. Vivace
DR11 -7.42 dB -23.37 dB 1:16 07-Sonata da chiesa a tre in E minor, No. 2 - III. Adagio
DR11 -6.71 dB -22.11 dB 1:18 08-Sonata da chiesa a tre in E minor, No. 2 - IV. Allegro
DR11 -7.29 dB -22.62 dB 1:14 09-Sonata da chiesa a tre in A Major, No. 3 - I. Grave
DR12 -4.88 dB -20.96 dB 2:05 10-Sonata da chiesa a tre in A Major, No. 3 - II. Allegro
DR11 -7.99 dB -22.25 dB 1:50 11-Sonata da chiesa a tre in A Major, No. 3 - III. Adagio
DR12 -4.67 dB -22.03 dB 1:32 12-Sonata da chiesa a tre in A Major, No. 3 - IV. Allegro
DR11 -8.94 dB -22.60 dB 0:49 13-Sonata da chiesa a tre in A minor, No. 4 - I. Vivace (attacca)
DR11 -8.84 dB -24.71 dB 1:01 14-Sonata da chiesa a tre in A minor, No. 4 - II. Adagio
DR12 -8.06 dB -22.99 dB 1:11 15-Sonata da chiesa a tre in A minor, No. 4 - III. Allegro
DR11 -4.21 dB -21.47 dB 0:56 16-Sonata da chiesa a tre in A minor, No. 4 - IV. Presto
DR12 -7.19 dB -23.19 dB 1:25 17-Sonata da chiesa a tre in A minor, No. 4 - V. Allegro
DR12 -7.82 dB -22.98 dB 2:08 18-Sonata da chiesa a tre in B-flat minor, No. 5 - I. Grave
DR12 -7.06 dB -21.45 dB 1:34 19-Sonata da chiesa a tre in B-flat minor, No. 5 - II. Allegro
DR11 -6.64 dB -23.43 dB 1:32 20-Sonata da chiesa a tre in B-flat minor, No. 5 - III. Adagio - Allegro
DR11 -5.86 dB -21.39 dB 1:18 21-Sonata da chiesa a tre in B-flat minor, No. 5 - IV. Allegro
DR11 -8.83 dB -23.12 dB 1:03 22-Sonata da chiesa a tre in B minor, No. 6 - I. Grave
DR12 -5.91 dB -21.04 dB 2:09 23-Sonata da chiesa a tre in B minor, No. 6 - II. Largo
DR11 -7.36 dB -22.82 dB 1:47 24-Sonata da chiesa a tre in B minor, No. 6 - III. Adagio
DR11 -6.60 dB -22.20 dB 1:26 25-Sonata da chiesa a tre in B minor, No. 6 - IV. Allegro
DR12 -7.56 dB -22.15 dB 1:38 26-Sonata da chiesa a tre in C Major, No. 7 - I. Allegro
DR10 -11.17 dB -24.69 dB 1:22 27-Sonata da chiesa a tre in C Major, No. 7 - II. Grave
DR13 -6.23 dB -22.17 dB 1:33 28-Sonata da chiesa a tre in C Major, No. 7 - III. Allegro
DR10 -11.53 dB -25.08 dB 1:28 29-Sonata da chiesa a tre in C minor, No. 8 - I. Grave
DR12 -8.24 dB -23.17 dB 1:37 30-Sonata da chiesa a tre in C minor, No. 8 - II. Allegro
DR11 -8.31 dB -24.21 dB 2:16 31-Sonata da chiesa a tre in C minor, No. 8 - III. Largo
DR12 -8.55 dB -24.19 dB 1:22 32-Sonata da chiesa a tre in C minor, No. 8 - IV. Vivace
DR12 -5.87 dB -21.99 dB 1:24 33-Sonata da chiesa a tre in G Major, No. 9 - I. Allegro
DR12 -4.97 dB -21.26 dB 1:22 34-Sonata da chiesa a tre in G Major, No. 9 - II. Allegro
DR12 -8.91 dB -24.63 dB 1:51 35-Sonata da chiesa a tre in G Major, No. 9 - III. Adagio
DR12 -5.18 dB -21.25 dB 1:27 36-Sonata da chiesa a tre in G Major, No. 9 - IV. Allegro - Adagio
DR10 -9.53 dB -23.03 dB 0:58 37-Sonata da chiesa a tre in G minor, No. 10 - I. Grave
DR11 -6.95 dB -21.07 dB 0:39 38-Sonata da chiesa a tre in G minor, No. 10 - II. Allegro (attacca)
DR11 -5.09 dB -20.42 dB 0:53 39-Sonata da chiesa a tre in G minor, No. 10 - III. Allegro
DR11 -6.81 dB -22.32 dB 1:22 40-Sonata da chiesa a tre in G minor, No. 10 - IV. Adagio
DR12 -5.73 dB -21.79 dB 1:24 41-Sonata da chiesa a tre in G minor, No. 10 - V. Allegro
DR10 -9.33 dB -23.36 dB 1:26 42-Sonata da chiesa a tre in D minor, No. 11 - I. Grave
DR11 -5.42 dB -20.91 dB 1:21 43-Sonata da chiesa a tre in D minor, No. 11 - II. Allegro
DR11 -8.66 dB -23.45 dB 1:32 44-Sonata da chiesa a tre in D minor, No. 11 - III. Adagio
DR13 -6.84 dB -22.98 dB 1:35 45-Sonata da chiesa a tre in D minor, No. 11 - IV. Allegro
DR11 -6.63 dB -21.67 dB 1:44 46-Sonata da chiesa a tre in D Major, No. 12 - I. Grave
DR12 -7.07 dB -23.19 dB 1:43 47-Sonata da chiesa a tre in D Major, No. 12 - II. Largo e puntato
DR10 -7.67 dB -22.86 dB 1:04 48-Sonata da chiesa a tre in D Major, No. 12 - III. Grave
DR11 -4.71 dB -20.01 dB 1:53 49-Sonata da chiesa a tre in D Major, No. 12 - IV. Allegro
DR11 -5.78 dB -21.11 dB 1:33 50-Sonata da chiesa a tre in F Major, No. 1 - I. Grave
DR11 -7.15 dB -20.85 dB 1:22 51-Sonata da chiesa a tre in F Major, No. 1 - II. Allegro
DR12 -5.48 dB -20.74 dB 2:04 52-Sonata da chiesa a tre in F Major, No. 1 - III. Vivace
DR11 -6.77 dB -22.02 dB 1:22 53-Sonata da chiesa a tre in F Major, No. 1 - IV. Allegro
DR13 -4.93 dB -22.65 dB 1:44 54-Sonata da chiesa a tre in D Major, No. 2 - I. Grave
DR11 -5.86 dB -19.94 dB 1:02 55-Sonata da chiesa a tre in D Major, No. 2 - II. Allegro
DR12 -5.91 dB -22.69 dB 2:05 56-Sonata da chiesa a tre in D Major, No. 2 - III. Adagio
DR13 -3.83 dB -21.55 dB 2:07 57-Sonata da chiesa a tre in D Major, No. 2 - IV. Allegro
DR11 -9.79 dB -24.17 dB 1:33 58-Sonata da chiesa a tre in B-flat Major, No. 3 - I. Grave
DR11 -3.85 dB -21.15 dB 0:36 59-Sonata da chiesa a tre in B-flat Major, No. 3 - II. Vivace
DR12 -6.07 dB -22.56 dB 2:27 60-Sonata da chiesa a tre in B-flat Major, No. 3 - III. Largo
DR11 -5.31 dB -22.01 dB 1:48 61-Sonata da chiesa a tre in B-flat Major, No. 3 - IV. Allegro
DR11 -6.71 dB -22.27 dB 2:12 62-Sonata da chiesa a tre in B minor, No. 4 - I. Largo
DR11 -5.29 dB -20.39 dB 1:19 63-Sonata da chiesa a tre in B minor, No. 4 - II. Vivace
DR12 -7.37 dB -23.43 dB 2:12 64-Sonata da chiesa a tre in B minor, No. 4 - III. Adagio
DR11 -3.59 dB -20.06 dB 1:18 65-Sonata da chiesa a tre in B minor, No. 4 - IV. Presto
DR11 -5.81 dB -22.81 dB 2:06 66-Sonata da chiesa a tre in D minor, No. 5 - I. Grave
DR12 -3.21 dB -20.63 dB 1:29 67-Sonata da chiesa a tre in D minor, No. 5 - II. Allegro
DR11 -6.45 dB -22.87 dB 1:40 68-Sonata da chiesa a tre in D minor, No. 5 - III. Largo
DR11 -7.25 dB -22.40 dB 1:17 69-Sonata da chiesa a tre in D minor, No. 5 - IV. Allegro
DR13 -3.73 dB -21.65 dB 1:54 70-Sonata da chiesa a tre in G Major, No. 6 - I. Vivace
DR10 -9.10 dB -25.44 dB 1:35 71-Sonata da chiesa a tre in G Major, No. 6 - II. Grave
DR11 -7.32 dB -21.10 dB 1:20 72-Sonata da chiesa a tre in G Major, No. 6 - III. Allegro
DR12 -6.89 dB -22.94 dB 1:12 73-Sonata da chiesa a tre in G Major, No. 6 - IV. Allegro
DR11 -8.75 dB -22.61 dB 1:44 74-Sonata da chiesa a tre in E minor, No. 7 - I. Grave
DR11 -4.18 dB -20.01 dB 0:58 75-Sonata da chiesa a tre in E minor, No. 7 - II. Allegro
DR11 -7.04 dB -21.28 dB 2:08 76-Sonata da chiesa a tre in E minor, No. 7 - III. Adagio
DR12 -5.05 dB -21.19 dB 1:32 77-Sonata da chiesa a tre in E minor, No. 7 - IV. Allegro
DR12 -5.51 dB -21.15 dB 1:49 78-Sonata da chiesa a tre in C Major, No. 8 - I. Largo
DR11 -5.55 dB -20.48 dB 1:28 79-Sonata da chiesa a tre in C Major, No. 8 - II. Allegro
DR11 -7.87 dB -22.74 dB 1:39 80-Sonata da chiesa a tre in C Major, No. 8 - III. Largo
DR13 -4.07 dB -21.45 dB 1:41 81-Sonata da chiesa a tre in C Major, No. 8 - IV. Allegro
DR11 -7.77 dB -23.94 dB 1:43 82-Sonata da chiesa a tre in F minor, No. 9 - I. Grave
DR11 -5.21 dB -21.30 dB 1:04 83-Sonata da chiesa a tre in F minor, No. 9 - II. Vivace
DR12 -9.18 dB -24.34 dB 1:55 84-Sonata da chiesa a tre in F minor, No. 9 - III. Largo
DR12 -5.17 dB -21.13 dB 2:03 85-Sonata da chiesa a tre in F minor, No. 9 - IV. Allegro
DR10 -6.46 dB -20.16 dB 0:53 86-Sonata da chiesa a tre in A minor, No. 10 - I. Vivace
DR12 -4.01 dB -19.87 dB 1:19 87-Sonata da chiesa a tre in A minor, No. 10 - II. Allegro
DR10 -6.21 dB -19.45 dB 0:36 88-Sonata da chiesa a tre in A minor, No. 10 - III. Adagio
DR13 -5.03 dB -22.06 dB 1:48 89-Sonata da chiesa a tre in A minor, No. 10 - IV. Allegro
DR11 -7.64 dB -23.07 dB 1:25 90-Sonata da chiesa a tre in G minor, No. 11 - I. Grave
DR11 -5.58 dB -21.39 dB 1:15 91-Sonata da chiesa a tre in G minor, No. 11 - II. Presto
DR11 -8.91 dB -24.52 dB 1:43 92-Sonata da chiesa a tre in G minor, No. 11 - III. Adagio
DR12 -7.37 dB -22.63 dB 1:25 93-Sonata da chiesa a tre in G minor, No. 11 - IV. Allegro
DR11 -6.19 dB -20.96 dB 2:15 94-Sonata da chiesa a tre in A minor, No. 12 - I. Grave
DR12 -6.76 dB -20.88 dB 1:02 95-Sonata da chiesa a tre in A minor, No. 12 - II. Vivace
DR11 -6.34 dB -19.99 dB 0:56 96-Sonata da chiesa a tre in A minor, No. 12 - III. Allegro
DR12 -5.34 dB -20.87 dB 1:47 97-Sonata da chiesa a tre in A minor, No. 12 - IV. Allegro
DR12 -3.03 dB -20.18 dB 1:21 98-Sonata da chiesa a tre in A minor, No. 12 - V. Allegro
––––––––––––––––––––––––––––––––––––––––

Number of tracks: 98
Official DR value: DR11

Samplerate: 96000 Hz
Channels: 2
Bits per sample: 24
Bitrate: 2844 kbps
Codec: FLAC
================================================================================


Thanks to the Original customer!