Tord Gustavsen Quartet - The Well (2012) [Official Digital Download 24bit/96kHz] [Repost]

Posted By: tiburon
Tord Gustavsen Quartet - The Well (2012) [Official Digital Download 24bit/96kHz] [Repost]

Tord Gustavsen Quartet - The Well (2012)
FLAC tracks 24bit/96kHz | Digital Booklet | 995MB + 5% Recovery
Studio Master, Official Digital Download, ECM 2237

Two years after “Restored, Returned” introduced this line-up and with extensive touring behind them, on “The Well” the four musicians of the Gustavsen Quartet really blossom as a band in a programme of new tunes by Tord. Sax player Tore Brunborg is given an important voice here, his melodic lines combining bluesy sonority and Nordic cry. Gently but effectively propelled by the subtle pulses of drummer Jarle Vespestad and bassist Mats Eilertsen, Gustavsen’s gospel-tinged, unhurried piano playing displays a characteristic warmth and tenderness.
Track List
01. Prelude
02. Playing
03. Suite
04. Communion
05. Circling
06. Glasgow Intro
07. On Every Corner
08. The Well
09. Communion, Var.
10. Intuition
11. Inside

musicians
Tore Brunborg - tenor saxophone
Tord Gustavsen - piano
Mats Eilertsen - double bass
Jarle Vespestad - drums

Produced by Manfred Eicher


––––––––––––––––––––––––––––––––––––––––
Analyzed: Tord Gustavsen Quartet / The Well
––––––––––––––––––––––––––––––––––––––––

DR Peak RMS Duration Track
––––––––––––––––––––––––––––––––––––––––
DR13 -6.10 dB -24.82 dB 2:51 01-Prelude
DR14 -0.12 dB -19.22 dB 5:39 02-Playing
DR14 -0.12 dB -18.99 dB 8:22 03-Suite
DR13 -7.32 dB -25.56 dB 4:37 04-Communion
DR13 -2.24 dB -20.17 dB 4:42 05-Circling
DR15 -14.18 dB -33.14 dB 1:14 06-Glasgow Intro
DR13 -1.45 dB -18.59 dB 5:15 07-On Every Corner
DR13 -0.51 dB -19.81 dB 5:51 08-The Well
DR13 -6.84 dB -26.49 dB 5:59 09-Communion, Var.
DR14 -2.54 dB -20.67 dB 4:34 10-Intuition
DR11 -7.47 dB -24.73 dB 4:16 11-Inside
––––––––––––––––––––––––––––––––––––––––

Number of tracks: 11
Official DR value: DR13

Samplerate: 96000 Hz
Channels: 2
Bits per sample: 24
Bitrate: 2465 kbps
Codec: FLAC
================================================================================


Thanks to the original customer