Takács Quartet & Marc-André Hamelin - Franck: Piano Quintet; Debussy: String Quartet (2016) [TR24][OF]

Posted By: SERTiL
Takács Quartet & Marc-André Hamelin - Franck: Piano Quintet; Debussy: String Quartet (2016) [TR24][OF]

Takács Quartet & Marc-André Hamelin - Franck: Piano Quintet; Debussy: String Quartet
Classical | FLAC (tracks) 24-bit/96 kHz | 62:18 min | 1.04 GB | Digital booklet
Label: Hyperion | Tracks: 07 | Rls.date: 2016

Marc-André Hamelin and the Takács Quartet follow up their 2016 Grammy nominated recording of Shostakovich with a program featuring Franck's Piano Quintet and Debussy's String Quartet. These authoritative performances make an unusual yet apt coupling as each work respectively is the composer's only, unsurpassable, contribution to a genre.

TRACKLIST
01 - Franck - Piano Quintet in F minor, M7 - 1 Molto moderato quasi len (16:28)
02 - Franck - Piano Quintet in F minor, M7 - 2 Lento, con molto sentime (11:07)
03 - Franck - Piano Quintet in F minor, M7 - 3 Allegro non troppo ma co (09:37)
04 - Debussy - String Quartet in G minor, L91 - 1 Animé et très décidé (06:16)
05 - Debussy - String Quartet in G minor, L91 - 2 Assez vif et bien rythmé (04:03)
06 - Debussy - String Quartet in G minor, L91 - 3 Andantino, doucement exp (07:25)
07 - Debussy - String Quartet in G minor, L91 - 4 Très modéré (07:22)

foobar2000 1.3.7 / Замер динамического диапазона (DR) 1.1.1
Дата отчёта: 2016-12-14 16:44:15

––––––––––––––––––––––––––––––––––––––––
Анализ: Marc-André Hamelin; Takács Quartet / Franck: Piano Quintet; Debussy: String Quartet (1-3)
Takács Quartet / Franck: Piano Quintet; Debussy: String Quartet (4-7)
––––––––––––––––––––––––––––––––––––––––

DR Пики RMS Продолжительность трека
––––––––––––––––––––––––––––––––––––––––
DR14 -0.22 дБ -20.76 дБ 16:28 01-Franck: Piano Quintet in F minor, M7 - 1: Molto moderato quasi lento – Allegro
DR16 -3.13 дБ -25.47 дБ 11:08 02-Franck: Piano Quintet in F minor, M7 - 2: Lento, con molto sentimento
DR13 -2.06 дБ -20.17 дБ 9:38 03-Franck: Piano Quintet in F minor, M7 - 3: Allegro non troppo ma con fuoco
DR14 -4.36 дБ -24.11 дБ 6:17 04-Debussy: String Quartet in G minor, L91 - 1: Animé et très décidé
DR15 -7.23 дБ -27.58 дБ 4:04 05-Debussy: String Quartet in G minor, L91 - 2: Assez vif et bien rythmé
DR16 -7.35 дБ -31.62 дБ 7:26 06-Debussy: String Quartet in G minor, L91 - 3: Andantino, doucement expressif
DR14 -5.77 дБ -25.24 дБ 7:23 07-Debussy: String Quartet in G minor, L91 - 4: Très modéré
––––––––––––––––––––––––––––––––––––––––

Количество треков: 7
Реальные значения DR: DR15

Частота: 96000 Гц
Каналов: 2
Разрядность: 24
Битрейт: 2456 кбит/с
Кодек: FLAC
================================================================================


Thanks to the Original customer.