Subcategories

Stenhammar - Serenade & Excelsior (2014) [Official Digital Download - 24bit/96kHz]

Posted By: peotuvave
Stenhammar - Serenade & Excelsior (2014) [Official Digital Download - 24bit/96kHz]

Stenhammar - Serenade & Excelsior (2014)
FLAC (tracks) 24 bit/96 kHz | 1 CD | Digital Booklet | 1.01 GB
Genre: Classical | Official Digital Download - Source: eClassical

‘Finland has Sibelius, Norway has Grieg and Denmark Nielsen – so what about Sweden?’ This question, often put to Swedish musicians and music-lovers, is one that has no simple answer. Wilhelm Stenhammar (1871-1927), a personal friend of both Sibelius and Nielsen, would seem to be the obvious candidate – but when his name is suggested the usual reaction is ‘Stenhammar who?’

The symphonic overture Excelsior!, written for the Berlin Philharmonic Orchestra in 1896, was composed only four years after Stenhammar made his début as a composer. Stenhammar had not yet entirely found his own voice, but the work displays an infectious exuberance and enthusiasm, contrasting with the more reflective ‘Interlude’ from the composer’s final large-scale work, the cantata Sången from 1921.

Closing the disc is the Serenade in F major, often regarded as Stenhammar’s finest orchestral score.

This is the Royal Flemish Philharmonic’s first recoding for BIS.

Tracklisting:

01 - Excelsior symphonic overture, Op.13 [14:01]
02 - Mellanspel ur Sangen, Op.44 - Interlude from The Song [06:28]
03 - Serenade in F major, Op.31 - I. Overtura. Allegrissimo.flac [06:56]
04 - Serenade in F major, Op.31 - II. Canzonetta. Tempo di valse, un poco tranquillo [05:56]
05 - Serenade in F major, Op.31 - III. Scherzo. Presto [07:39]
06 - Serenade in F major, Op.31 - IV. Notturno. Andante sostenuto [07:44]
07 - Serenade in F major, Op.31 - V. Finale. Tempo moderato [09:32]

foobar2000 1.0.1 / Dynamic Range Meter 1.1.1
log date: 2014-06-16 11:55:53

––––––––––––––––––––––––––––––––––––––––
Analyzed: Stenhammar, Wilhelm / Stenhammar - Serenade
––––––––––––––––––––––––––––––––––––––––

DR Peak RMS Duration Track
––––––––––––––––––––––––––––––––––––––––
DR11 -0.20 dB -16.38 dB 14:02 1/7-Excelsior! symphonic overture, Op.13 (1896)
DR13 -0.31 dB -19.87 dB 6:29 2/7-Mellanspel ur Sången, Op.44 (1921) (Interlude from The Song)
DR13 -1.97 dB -20.43 dB 6:56 3/7-(Serenade in F major, Op.31 (1914/19)) - I. Overtura. Allegrissimo
DR13 -4.28 dB -24.06 dB 5:56 4/7-(Serenade in F major, Op.31 (1914/19)) - II. Canzonetta. Tempo di valse, un poco tranquillo
DR12 -0.20 dB -17.10 dB 7:39 5/7-(Serenade in F major, Op.31 (1914/19)) - III. Scherzo. Presto
DR13 -3.06 dB -23.25 dB 7:45 6/7-(Serenade in F major, Op.31 (1914/19)) - IV. Notturno. Andante sostenuto
DR12 -0.20 dB -17.96 dB 9:32 7/7-(Serenade in F major, Op.31 (1914/19)) - V. Finale. Tempo moderato
––––––––––––––––––––––––––––––––––––––––

Number of tracks: 7
Official DR value: DR13

Samplerate: 96000 Hz
Channels: 2
Bits per sample: 24
Bitrate: 2414 kbps
Codec: FLAC
================================================================================



Thanks to the original customer

Download:

Uploaded: Part 1 | Part 2

Uploadable: Part 1 | Part 2

Oboom: Part 1 | Part 2

Filepost: Part 1 | Part 2