Miles Davis - Collectors' Items (1956) {Rudy Van Gelder Remaster}[TR24][SM][OF]

Posted By: popsakov
Miles Davis - Collectors' Items (1956) {Rudy Van Gelder Remaster}[TR24][SM][OF]

Miles Davis - Collectors' Items (1956) {Rudy Van Gelder Remaster}
FLAC (Tracks) 24-bit/44.1kHz ~ 451 Mb | Digital Booklet | 43:32 min | RAR 5% Recovery
Jazz, Bop | © 2009 Concord Music Group

Any 1950s Miles Davis recording could easily be called a “collector’s item,” but these selections have special claims to this description. The first four offer Charlie Parker in his only recordings in support of Miles, who had begun his disc career as Bird’s sideman. The last four feature a unique Davis/Mingus encounter. In between is Miles just before launching his first great Quintet, heading two groups loaded with top talent of the “post-bop” period.

Recorded on January 30, 1953 (1-4) WOR Studios, New York City and March 16, 1956 (5-7) at Van Gelder Studio in Hackensack, NJ.
***************

Track List:

01. The Serpent's Tooth (Take 1) [7:03]
02. The Serpent's Tooth (Take 2) [6:20]
03. 'Round Midnight [7:07]
04. Compulsion [5:47]
05. No Line [5:43]
06. Vierd Blues [6:55]
07. In Your Own Sweet Way [4:37]

Personnel:

January 30, 1953 session:
Miles Davis – trumpet
Sonny Rollins – tenor saxophone
Charlie Parker (""Charlie Chan"") – tenor saxophone
Walter Bishop – piano
Percy Heath – bass
Philly Joe Jones – drums

March 16, 1956 session:
Miles Davis – trumpet
Sonny Rollins – tenor saxophone
Tommy Flanagan – piano
Paul Chambers – bass
Art Taylor – drums

Production:
Recording engineers: Bob Lee and Rudy Van Gelder
Remastering engineer: Rudy Van Gelder

All transfers were made from the analog master tapes to digital at 24-bit resolution.

foobar2000 1.2.6 / Dynamic Range Meter 1.1.1
log date: 2017-01-10 04:02:07

––––––––––––––––––––––––––––––––––––––––
Analyzed: Miles Davis, Charlie Parker, Sonny Rollins, Walter Bishop Jr., Percy Heath, Philly Joe Jones / Collectors' Items (1-4)
Miles Davis, Sonny Rollins, Tommy Flanagan, Paul Chambers, Art Taylor / Collectors' Items (5-7)
––––––––––––––––––––––––––––––––––––––––

DR Peak RMS Duration Track
––––––––––––––––––––––––––––––––––––––––
DR11 0.00 dB -12.47 dB 7:03 01-The Serpent's Tooth (Take 1)
DR11 0.00 dB -12.99 dB 6:20 02-The Serpent's Tooth (Take 2)
DR12 0.00 dB -14.58 dB 7:07 03-'Round Midnight
DR10 0.00 dB -11.66 dB 5:47 04-Compulsion
DR12 -0.16 dB -13.77 dB 5:43 05-No Line
DR12 -0.54 dB -14.78 dB 6:55 06-Vierd Blues
DR12 -0.19 dB -15.43 dB 4:37 07-In Your Own Sweet Way
––––––––––––––––––––––––––––––––––––––––

Number of tracks: 7
Official DR value: DR12

Samplerate: 44100 Hz
Channels: 2
Bits per sample: 24
Bitrate: 1280 kbps
Codec: FLAC
================================================================================

Miles Davis - Collectors' Items (1956) {Rudy Van Gelder Remaster}[TR24][SM][OF]

See also:
Miles Davis - The Musings Of Miles (1955) {Rudy Van Gelder Remaster}[TR24][SM][OF]

All thanks go to the original customer

> Visit my blog <