Subcategories

Kiss - Double Platinum (1978/2014)

Posted By: SERTiL
Kiss - Double Platinum (1978/2014)

Kiss - Double Platinum
Hard Rock | FLAC (tracks) 24-bit/192 kHz | 69:22 min | 2.86 GB | Front Cover
Label: Universal Music GmbH | Tracks: 21 | Rls.date: 1978/2014

Double Platinum is a double-album, 20-track collection that gathers all of Kiss' biggest hits ("Rock and Roll All Nite," "Beth," "Detroit Rock City," "Calling Dr. Love," "Love Gun"), but what makes it an essential retrospective and introduction is that it doesn't overlook key album tracks and concert favorites like "Cold Gin," "Deuce," "Black Diamond," and "She." If "Strutter" was represented by the original version, instead of a pointless 1978 remake – which was recorded only to entice collectors into buying an album of music they already owned – Double Platinum would have been a definitive collection, but as it stands, it's simply a very, very good overview. Review by Stephen Thomas Erlewine

TRACKLIST
1. Strutter 78
2. Do You Love Me
3. Hard Luck Woman
4. Calling Dr. Love
5. Let Me Go, Rock 'N Roll
6. Love Gun
7. God Of Thunder
8. Firehouse
9. Hotter Than Hell
10. I Want You
11. Deuce
12. 100,000 Years
13. Detroit Rock City
14. Rock Bottom
15. She
16. Rock And Roll All Nite
17. Beth
18. Makin' Love
19. C'mon And Love Me
20. Cold Gin
21. Black Diamond

foobar2000 1.3.7 / Замер динамического диапазона (DR) 1.1.1
Дата отчёта: 2017-01-11 11:52:02

––––––––––––––––––––––––––––––––––––––––
Анализ: Kiss / Double Platinum
––––––––––––––––––––––––––––––––––––––––

DR Пики RMS Продолжительность трека
––––––––––––––––––––––––––––––––––––––––
DR10 0.00 дБ -12.48 дБ 3:42 1-Strutter '78
DR10 0.00 дБ -11.60 дБ 3:34 2-Do You Love Me
DR12 0.00 дБ -14.04 дБ 3:25 3-Hard Luck Woman
DR11 0.00 дБ -13.46 дБ 3:18 4-Calling Dr. Love
DR11 0.00 дБ -12.34 дБ 2:17 5-Let Me Go, Rock 'N Roll
DR10 0.00 дБ -11.85 дБ 3:16 6-Love Gun
DR11 0.00 дБ -11.99 дБ 4:15 7-God Of Thunder
DR10 0.00 дБ -12.45 дБ 3:19 8-Firehouse
DR10 0.00 дБ -12.01 дБ 3:31 9-Hotter Than Hell
DR10 0.00 дБ -11.99 дБ 3:07 10-I Want You
DR10 0.00 дБ -11.73 дБ 3:03 11-Deuce
DR10 0.00 дБ -11.55 дБ 3:23 12-100,000 Years
DR10 0.00 дБ -12.00 дБ 3:36 13-Detroit Rock City
DR14 -19.73 дБ -40.09 дБ 0:53 14-Rock Bottom
DR10 0.00 дБ -11.62 дБ 4:34 15-She
DR11 0.00 дБ -11.97 дБ 2:49 16-Rock And Roll All Nite
DR12 0.00 дБ -15.60 дБ 2:46 17-Beth
DR11 0.00 дБ -12.44 дБ 3:14 18-Makin' Love
DR11 0.00 дБ -12.20 дБ 2:56 19-C'mon And Love Me
DR10 0.00 дБ -11.93 дБ 4:22 20-Cold Gin
DR10 0.00 дБ -12.68 дБ 4:15 21-Black Diamond
––––––––––––––––––––––––––––––––––––––––

Количество треков: 21
Реальные значения DR: DR11

Частота: 192000 Гц
Каналов: 2
Разрядность: 24
Битрейт: 5919 кбит/с
Кодек: FLAC
================================================================================


Thanks to the Original customer.